osu file format v14

[General]
AudioFilename: audio.mp3
AudioLeadIn: 0
PreviewTime: 169293
Countdown: 0
SampleSet: Soft
StackLeniency: 0.7
Mode: 0
LetterboxInBreaks: 0
WidescreenStoryboard: 1

[Editor]
Bookmarks: 22044,44710,48711,62044,76044,89377,96044,109377,116043,132710,146043,152710,166043,169376,169377,192710,199377,213377,226710,233376,246710,253376,266710,270043,270126,270210,293376,316710,323376,329710
DistanceSpacing: 2.3
BeatDivisor: 4
GridSize: 32
TimelineZoom: 1.5

[Metadata]
Title:Gyaku Mawari no Inochi
TitleUnicode:逆廻りの命
Artist:Shimotsuki Haruka
ArtistUnicode:霜月はるか
Creator:Lasse
Version:Petal
Source:
Tags:グリオットの眠り姫 guriotto no nemuri hime japanese female vocals 日山尚 hiyama nao
BeatmapID:1961714
BeatmapSetID:939161

[Difficulty]
HPDrainRate:6
CircleSize:4.5
OverallDifficulty:8.7
ApproachRate:9
SliderMultiplier:1.4
SliderTickRate:0.5

[Events]
//Background and Video events
0,0,"a.jpg",0,0
//Break Periods
//Storyboard Layer 0 (Background)
//Storyboard Layer 1 (Fail)
//Storyboard Layer 2 (Pass)
//Storyboard Layer 3 (Foreground)
//Storyboard Sound Samples

[TimingPoints]
711,666.666666666667,4,2,2,20,1,0
711,-111.111111111111,4,2,2,20,0,0
22044,-100,4,2,2,20,0,0
43377,-90.9090909090909,4,2,2,25,0,0
44044,-90.9090909090909,4,2,2,18,0,0
44711,-83.3333333333333,4,2,2,30,0,0
45377,-83.3333333333333,4,2,2,22,0,0
46044,-71.4285714285715,4,2,2,35,0,0
46711,-71.4285714285715,4,2,2,28,0,0
47377,-58.8235294117647,4,2,2,40,0,0
48044,-58.8235294117647,4,2,2,32,0,0
48710,333.333333333333,5,2,1,56,1,0
48710,-76.9230769230769,5,2,1,56,0,0
49210,-90.9090909090909,5,2,1,50,0,0
55376,-76.9230769230769,5,2,1,54,0,0
55876,-90.9090909090909,5,2,1,50,0,0
60376,-83.3333333333333,5,2,1,52,0,0
62043,-71.4285714285714,4,2,1,60,0,1
63043,-100,4,2,1,54,0,1
65376,-83.3333333333333,4,2,1,58,0,1
66376,-100,4,2,1,54,0,1
68709,-76.9230769230769,4,2,1,60,0,1
69709,-100,4,2,1,54,0,1
72043,-83.3333333333333,4,2,1,58,0,1
73043,-100,4,2,1,54,0,1
73709,333.333333333333,7,2,1,54,1,1
73709,-90.9090909090909,7,2,1,54,0,1
74709,-81.3008130081301,7,2,1,54,0,1
75042,-83.3333333333333,7,2,1,54,0,1
75375,-83.3333333333333,7,2,1,58,0,1
75709,-83.3333333333333,7,2,1,60,0,1
76044,333.333333333333,5,2,1,48,1,0
76044,-125,5,2,1,48,0,0
76377,-125,5,2,1,42,0,0
89377,-83.3333333333333,5,2,1,50,0,0
89877,-100,5,2,1,50,0,0
95377,-100,5,2,1,52,0,0
95710,-100,5,2,1,54,0,0
96043,-111.111111111111,5,2,1,56,0,0
96377,-111.111111111111,5,2,1,46,0,0
109377,-95.2380952380952,5,2,1,52,0,0
116043,-166.666666666667,5,2,1,36,0,0
126043,-125,5,2,1,40,0,0
129377,-111.111111111111,5,2,1,44,0,0
131043,-100,5,2,1,46,0,0
132043,-100,5,2,1,50,0,0
132377,-100,5,2,1,52,0,0
132710,-71.4285714285714,5,2,1,60,0,1
133043,-83.3333333333333,5,2,1,54,0,1
136043,-76.9230769230769,5,2,1,58,0,1
136543,-83.3333333333333,5,2,1,54,0,1
139377,-90.9090909090909,5,2,1,50,0,1
145377,-90.9090909090909,5,2,1,54,0,0
146043,-71.4285714285714,5,2,1,60,0,1
146543,-83.3333333333333,5,2,1,56,0,1
152710,-200,5,2,1,40,0,0
153043,-200,5,2,2,32,0,0
165710,-153.846153846154,5,2,2,32,0,0
166043,-111.111111111111,5,2,1,44,0,0
167710,-100,5,2,1,46,0,0
168709,-100,5,2,1,50,0,0
169043,-100,5,2,1,52,0,0
169377,-76.9230769230769,5,2,1,58,0,1
169710,-100,5,2,1,52,0,1
179377,-83.3333333333333,5,2,1,54,0,1
180377,-100,5,2,1,52,0,1
182710,-90.9090909090909,5,2,1,56,0,1
183043,-100,5,2,1,52,0,1
187710,-90.9090909090909,5,2,1,54,0,1
188710,-90.9090909090909,5,2,1,52,0,1
189377,-83.3333333333333,5,2,1,56,0,1
190377,-83.3333333333333,5,2,1,52,0,1
191043,-71.4285714285714,5,2,1,58,0,1
191543,-100,5,2,1,48,0,0
191877,-166.666666666667,5,2,2,34,0,0
192043,-166.666666666667,5,2,2,40,0,0
192377,-166.666666666667,5,2,2,36,0,0
192710,-76.9230769230769,5,2,1,56,0,0
193210,-90.9090909090909,5,2,1,50,0,0
197710,-83.3333333333333,5,2,1,52,0,0
199377,-71.4285714285714,4,2,1,60,0,1
200377,-100,4,2,1,54,0,1
202710,-83.3333333333333,4,2,1,58,0,1
203710,-100,4,2,1,54,0,1
206043,-76.9230769230769,4,2,1,60,0,1
207043,-100,4,2,1,54,0,1
209377,-83.3333333333333,4,2,1,58,0,1
210377,-100,4,2,1,54,0,1
211043,333.333333333333,7,2,1,54,1,1
211043,-90.9090909090909,7,2,1,54,0,1
212043,-81.3008130081301,7,2,1,54,0,1
212376,-83.3333333333333,7,2,1,54,0,1
212709,-83.3333333333333,7,2,1,58,0,1
213043,-83.3333333333333,7,2,1,60,0,1
213377,333.333333333333,5,2,1,48,1,0
213377,-125,5,2,1,48,0,0
213710,-125,5,2,1,42,0,0
226710,-83.3333333333333,5,2,1,50,0,0
227210,-100,5,2,1,50,0,0
232710,-100,5,2,1,52,0,0
233043,-100,5,2,1,54,0,0
233376,-111.111111111111,5,2,1,56,0,0
233710,-111.111111111111,5,2,1,46,0,0
246710,-95.2380952380952,5,2,1,52,0,0
253376,-200,5,2,1,40,0,0
253710,-200,5,2,2,32,0,0
266376,-153.846153846154,5,2,2,32,0,0
266710,-111.111111111111,5,2,1,42,0,0
267376,-111.111111111111,5,2,1,44,0,0
267710,-111.111111111111,5,2,1,46,0,0
268043,-111.111111111111,5,2,1,48,0,0
268376,-100,5,2,1,52,0,0
268876,-200,5,2,1,54,0,0
269376,-100,5,2,1,50,0,0
269710,-166.666666666667,5,2,1,36,0,0
269793,-166.666666666667,5,2,1,38,0,0
269876,-166.666666666667,5,2,1,40,0,0
269960,-166.666666666667,5,2,1,42,0,0
270043,-76.9230769230769,5,2,1,58,0,1
270376,-100,5,2,1,52,0,1
280043,-83.3333333333333,5,2,1,54,0,1
281043,-100,5,2,1,52,0,1
283376,-90.9090909090909,5,2,1,56,0,1
283710,-100,5,2,1,52,0,1
288376,-90.9090909090909,5,2,1,54,0,1
289376,-90.9090909090909,5,2,1,52,0,1
290043,-83.3333333333333,5,2,1,56,0,1
291043,-83.3333333333333,5,2,1,52,0,1
291709,-76.9230769230769,5,2,1,56,0,1
293293,-76.9230769230769,5,2,1,56,0,0
293376,-66.6666666666667,5,2,1,58,0,1
293626,-66.6666666666667,5,2,2,5,0,1
293710,-100,5,2,1,52,0,1
303376,-83.3333333333333,5,2,1,54,0,1
304376,-100,5,2,1,52,0,1
306710,-90.9090909090909,5,2,1,56,0,1
307043,-100,5,2,1,52,0,1
311710,-90.9090909090909,5,2,1,54,0,1
312710,-90.9090909090909,5,2,1,52,0,1
313376,-83.3333333333333,5,2,1,56,0,1
314376,-83.3333333333333,5,2,1,52,0,1
315043,-71.4285714285714,5,2,1,60,0,1
315376,-71.4285714285714,5,2,1,50,0,1
315543,-100,5,2,1,60,0,0
315876,-166.666666666667,5,2,2,34,0,0
316042,-166.666666666667,5,2,2,40,0,0
316376,-166.666666666667,5,2,2,36,0,0
316710,-76.9230769230769,5,2,1,56,0,0
317210,-90.9090909090909,5,2,1,50,0,0
321710,-83.3333333333333,5,2,1,52,0,0
323376,-71.4285714285714,4,2,1,60,0,1
324376,-100,4,2,1,54,0,1
325043,-86.9565217391304,4,2,1,54,0,1
326710,-76.9230769230769,4,2,1,58,0,1
327710,-71.4285714285714,4,2,1,54,0,1
328376,333.333333333333,4,2,1,58,1,1
328376,-83.3333333333333,4,2,1,58,0,1
328876,-83.3333333333333,4,2,1,60,0,1
329376,-83.3333333333333,7,2,1,62,0,1
329709,-100,4,2,1,64,0,0

[Colours]
Combo1 : 250,190,230
Combo2 : 130,200,230
Combo3 : 255,230,140
Combo4 : 170,245,170

[HitObjects]
47,94,22044,6,0,B|202:72|142:204|297:185,3,280,2|0|0|0,0:0|0:0|0:0|0:0,0:0:0:0:
512,233,27377,6,0,B|357:211|417:343|261:324,3,280,2|0|0|0,0:0|0:0|0:0|0:0,0:0:0:0:
264,324,32044,2,0,L|251:250,1,70,2|0,0:0|0:0,0:0:0:0:
196,118,32711,6,0,P|188:167|-4:187,1,280,2|0,0:0|0:0,0:0:0:0:
285,26,35377,2,0,P|293:75|485:95,1,280,2|0,0:0|0:0,0:0:0:0:
434,363,38044,6,0,L|390:55,1,280,2|0,0:0|0:0,0:0:0:0:
195,21,40711,2,0,L|155:298,1,280,2|0,0:0|0:0,0:0:0:0:
155,298,42711,2,0,L|230:279,1,70,2|0,0:0|0:0,0:0:0:0:
402,186,43377,6,0,L|383:361,1,154.000004699707,2|0,0:0|0:0,0:0:0:0:
385,339,44711,6,0,P|275:355|234:317,1,167.999994873047,2|2,0:0|0:0,0:0:0:0:
238,323,46044,6,0,P|159:260|64:260,1,195.999994018555,2|2,0:0|0:0,0:0:0:0:
67,259,47377,6,0,L|94:23,1,238.00000453949,2|2,0:0|0:0,0:0:0:0:
94,23,48710,6,0,P|179:31|203:114,1,181.999991668702,6|8,1:2|0:2,0:2:0:0:
261,240,49210,2,0,B|222:270|222:270|108:248,1,154.000004699707,2|8,1:2|0:2,0:2:0:0:
277,361,49710,2,0,L|361:344,1,77.0000023498536,2|0,0:2|0:2,0:2:0:0:
365,353,49960,1,2,0:2:0:0:
379,358,50043,2,0,L|390:264,1,77.0000023498536,8|8,0:2|0:2,0:2:0:0:
512,150,50376,6,0,B|464:153|439:191|439:191|397:187|386:144,1,154.000004699707,2|8,2:2|0:2,0:2:0:0:
246,47,50876,2,0,B|299:32|351:70|351:70|338:40|304:27,1,154.000004699707,2|8,2:2|0:2,0:2:0:0:
277,149,51376,2,0,B|269:183|269:183|264:191|264:191|256:222,1,77.0000023498536,2|0,3:2|3:2,0:2:0:0:
152,70,51710,2,0,L|143:21,2,38.5000011749268,8|8|8,3:2|3:3|3:3,2:3:0:0:
0,226,52043,6,0,B|84:214|43:163|130:152,1,154.000004699707,2|8,1:2|0:2,0:2:0:0:
258,308,52543,2,0,B|174:296|215:245|127:234,1,154.000004699707,2|8,1:2|0:2,0:2:0:0:
332,171,53043,2,0,P|332:213|349:253,1,77.0000023498536,2|0,0:2|0:2,0:2:0:0:
355,256,53293,1,2,0:2:0:0:
368,263,53376,2,0,P|411:248|448:249,1,77.0000023498536,8|8,0:2|0:2,0:2:0:0:
255,331,53709,6,0,B|207:323|207:323|160:342|160:342|101:331,1,154.000004699707,2|8,2:2|0:2,0:2:0:0:
212,236,54209,2,0,P|199:164|128:145,1,154.000004699707,2|8,2:2|0:2,0:2:0:0:
59,57,54709,1,2,3:2:0:0:
128,144,54876,1,2,3:2:0:0:
192,53,55043,1,8,3:2:0:0:
192,53,55126,1,8,3:3:0:0:
192,53,55209,1,8,3:0:0:0:
317,152,55376,6,0,B|333:126|333:126|315:24|315:24|288:79,1,181.999991668702,6|8,1:2|0:2,0:2:0:0:
407,206,55876,2,0,P|480:205|512:136,1,154.000004699707,2|8,1:2|0:2,0:2:0:0:
402,310,56376,2,0,L|324:301,1,77.0000023498536,2|0,0:2|0:2,0:2:0:0:
315,317,56626,1,2,0:2:0:0:
303,332,56709,2,0,L|205:336,1,77.0000023498536,8|8,0:2|0:2,0:2:0:0:
324,191,57043,6,0,P|350:110|307:53,1,154.000004699707,2|8,2:2|0:2,0:2:0:0:
157,0,57543,2,0,B|172:109|172:109|136:164,1,154.000004699707,2|8,2:2|0:2,0:2:0:0:
0,274,58043,1,2,3:2:0:0:
44,147,58209,1,2,3:2:0:0:
141,283,58376,1,8,3:2:0:0:
141,283,58459,1,8,3:3:0:0:
141,283,58543,1,8,3:3:0:0:
256,136,58709,6,0,P|302:78|400:92,1,154.000004699707,2|8,1:2|0:2,0:2:0:0:
512,221,59209,2,0,P|466:163|368:177,1,154.000004699707,2|8,1:2|0:2,0:2:0:0:
311,0,59709,1,2,2:2:0:0:
317,17,59793,2,0,P|306:63|277:94,1,77.0000023498536,8|2,2:2|2:2,2:2:0:0:
269,91,60043,2,0,L|179:71,1,77.0000023498536,8|8,2:2|2:2,2:2:0:0:
25,83,60376,6,0,B|66:110|103:83|103:83|102:33|140:7,1,167.999994873047,2|8,2:2|0:2,0:2:0:0:
165,152,60876,2,0,P|179:224|264:236,1,167.999994873047,2|8,2:2|0:2,0:2:0:0:
417,134,61376,5,2,1:2:0:0:
229,29,61543,1,2,3:2:0:0:
269,244,61709,1,2,1:2:0:0:
269,244,61793,1,8,3:3:0:0:
269,244,61876,1,8,3:3:0:0:
441,126,62043,6,0,B|484:90|474:5|474:5|499:31|493:83,1,195.999994018555,6|8,1:2|0:2,0:2:0:0:
512,316,62543,2,0,P|473:230|381:215,1,195.999994018555,2|8,1:2|0:2,0:2:0:0:
299,114,63043,2,0,P|276:136|235:148,1,70,2|0,0:2|0:2,0:2:0:0:
226,144,63293,1,2,0:2:0:0:
213,138,63376,2,0,L|190:55,1,70,8|8,0:2|0:2,0:2:0:0:
5,239,63709,6,0,P|33:178|100:179,1,140,2|8,2:2|0:2,0:2:0:0:
183,50,64209,2,0,B|202:85|202:85|298:113,1,140,2|8,2:2|0:2,0:2:0:0:
502,64,64709,1,2,3:2:0:0:
456,217,64876,1,2,3:2:0:0:
380,117,65043,2,0,L|371:68,2,35,8|8|8,3:2|3:3|3:3,2:3:0:0:
316,262,65376,6,0,P|297:339|218:350,1,167.999994873047,2|8,1:2|0:2,0:2:0:0:
80,278,65876,2,0,B|205:257|205:257|240:277,1,167.999994873047,2|8,1:2|0:2,0:2:0:0:
55,195,66376,2,0,P|45:161|51:127,1,70,2|0,0:2|0:2,0:2:0:0:
59,116,66626,1,2,0:2:0:0:
68,105,66709,2,0,P|84:74|81:40,1,70,8|8,0:2|0:2,0:2:0:0:
246,147,67043,6,0,P|211:91|234:17,1,140,2|8,2:2|0:2,0:2:0:0:
340,122,67543,2,0,B|431:144|431:144|478:130,1,140,2|8,2:2|0:2,0:2:0:0:
497,289,68043,1,2,2:2:0:0:
414,220,68209,1,2,3:2:0:0:
317,264,68376,1,8,1:2:0:0:
317,264,68459,1,8,3:3:0:0:
317,264,68543,1,8,3:3:0:0:
450,135,68709,6,0,P|452:55|360:20,1,181.999991668702,6|8,1:2|0:2,0:2:0:0:
217,160,69209,2,0,B|319:167|281:90|379:97,1,181.999991668702,2|8,1:2|0:2,0:2:0:0:
245,9,69709,2,0,P|243:43|230:76,1,70,2|0,0:2|0:2,0:2:0:0:
217,82,69959,1,2,0:2:0:0:
203,84,70043,2,0,L|133:72,1,70,8|8,0:2|0:2,0:2:0:0:
0,163,70376,6,0,B|-17:100|39:61|39:61|56:105,1,140,2|8,2:2|0:2,0:2:0:0:
59,232,70876,2,0,P|98:284|179:264,1,140,2|8,2:2|0:2,0:2:0:0:
328,378,71376,1,2,3:2:0:0:
353,242,71543,1,2,3:2:0:0:
468,334,71709,1,8,3:2:0:0:
468,334,71793,1,8,3:3:0:0:
468,334,71876,1,8,3:0:0:0:
512,148,72043,6,0,B|469:139|439:174|439:174|390:183|368:132,1,167.999994873047,2|8,1:2|0:2,0:2:0:0:
222,79,72543,2,0,B|285:62|285:62|316:28|316:28|381:8,1,167.999994873047,2|8,1:2|0:2,0:2:0:0:
294,223,73043,1,2,2:2:0:0:
304,213,73126,2,0,P|300:178|282:149,1,70,8|2,2:2|2:2,2:2:0:0:
268,147,73376,2,0,L|183:163,1,70,8|8,2:2|2:2,2:2:0:0:
414,72,73709,6,0,B|457:37|518:45|518:45|499:31|475:32,1,154.000004699707,2|8,2:2|0:2,0:2:0:0:
493,162,74209,2,0,B|478:203|478:203|487:266|487:266|474:317,1,154.000004699707,2|8,2:2|0:2,0:2:0:0:
317,384,74709,6,0,B|311:352|311:352|313:341|313:341|303:295,1,86.1000013137818,2|0,3:2|3:3,2:2:0:0:
217,138,75042,5,2,1:2:0:0:
185,346,75209,1,8,3:3:0:0:
190,123,75375,5,2,1:2:0:0:
86,344,75542,1,8,3:3:0:0:
163,107,75709,5,2,1:2:0:0:
0,303,75875,1,8,3:3:0:0:
55,88,76044,6,0,B|115:77|102:116|164:107,1,112,6|8,1:2|0:0,0:0:0:0:
227,46,76544,1,2,0:0:0:0:
227,46,76710,2,0,P|257:17|336:29,1,112,0|2,2:0|0:0,0:0:0:0:
324,20,77377,2,0,L|325:76,1,56,8|0,0:0|0:0,0:0:0:0:
460,104,77710,6,0,P|406:105|379:151,1,112,2|8,0:0|0:0,0:0:0:0:
305,219,78210,2,0,B|357:223|357:223|365:220|365:220|416:224,1,112,2|8,0:0|0:0,0:0:0:0:
445,341,78710,2,0,P|391:341|362:296,1,112,2|8,0:0|0:0,0:0:0:0:
256,96,79377,6,0,P|226:50|173:51,1,112,2|8,0:0|0:0,0:0:0:0:
93,10,79877,1,2,0:0:0:0:
93,10,80044,2,0,B|100:59|100:59|99:70|99:70|108:129,1,112,0|2,2:0|0:0,0:0:0:0:
107,121,80710,2,0,L|100:179,1,56,8|0,0:0|0:0,0:0:0:0:
0,294,81044,6,0,B|62:295|38:257|105:261,1,112,2|8,0:0|0:0,0:0:0:0:
180,214,81544,2,0,P|230:243|285:247,1,112,2|8,0:0|0:0,0:0:0:0:
364,210,82044,2,0,B|372:163|372:163|371:156|371:156|380:99,1,112,2|8,0:0|0:0,0:0:0:0:
444,143,82544,1,8,0:0:0:0:
485,49,82710,6,0,B|442:43|442:43|422:24|422:24|377:16,1,112,2|8,2:2|0:0,0:0:0:0:
304,62,83210,1,2,0:0:0:0:
304,62,83377,2,0,B|266:63|266:63|240:85|240:85|185:89,1,112,0|2,2:0|0:0,0:0:0:0:
201,88,84043,2,0,P|187:61|182:31,1,56,8|0,0:0|0:0,0:0:0:0:
297,133,84377,6,0,B|325:161|327:215|327:215|337:205|339:193,1,112,2|8,0:0|0:0,0:0:0:0:
400,132,84877,2,0,P|447:105|509:117,1,112,2|8,0:0|0:0,0:0:0:0:
465,192,85377,2,0,B|456:230|456:230|492:315,1,112,2|8,0:0|0:0,0:0:0:0:
512,370,85877,1,8,0:0:0:0:
418,337,86043,6,0,B|356:323|369:368|311:355,1,112,2|8,2:2|0:0,0:0:0:0:
244,295,86543,1,2,0:0:0:0:
244,295,86710,2,0,B|250:245|250:245|249:234|249:234|258:172,1,112,0|2,2:0|0:0,0:0:0:0:
257,184,87377,2,0,L|256:128,1,56,8|0,0:0|0:0,0:0:0:0:
308,33,87710,6,0,B|256:53|256:53|203:33,1,112,2|8,0:0|0:0,0:0:0:0:
117,3,88210,2,0,B|108:54|108:54|110:62|110:62|100:113,1,112,2|8,0:0|0:0,0:0:0:0:
44,182,88710,2,0,P|20:167|-7:163,1,56,2|0,0:0|0:0,0:0:0:0:
93,256,89043,2,0,P|116:270|144:275,1,56,8|8,0:0|0:0,0:0:0:0:
260,196,89377,6,0,B|229:140|286:66|286:66|295:98,1,167.999994873047,6|8,1:2|0:0,0:0:0:0:
358,184,89877,2,0,P|405:211|476:161,1,140,2|8,1:2|0:0,0:0:0:0:
348,272,90377,2,0,B|306:263|306:263|264:286|264:286|203:275,1,140,2|8,0:0|0:0,0:0:0:0:
174,342,90877,1,8,0:0:0:0:
164,212,91043,6,0,P|158:137|80:112,1,140,2|8,0:0|0:0,0:0:0:0:
25,227,91543,2,0,L|176:211,1,140,2|8,0:0|0:0,0:0:0:0:
265,283,92043,1,2,0:0:0:0:
282,162,92210,1,2,0:0:0:0:
282,162,92293,1,2,0:0:0:0:
282,162,92377,1,8,0:0:0:0:
164,212,92543,1,8,0:0:0:0:
275,355,92710,6,0,B|321:319|282:258|282:258|270:265|263:290,1,140,2|8,1:2|0:0,0:0:0:0:
368,365,93210,2,0,P|435:364|476:310,1,140,2|8,1:2|0:0,0:0:0:0:
503,201,93710,1,2,0:0:0:0:
409,263,93877,1,0,0:0:0:0:
437,155,94043,1,8,0:0:0:0:
342,218,94210,1,0,0:0:0:0:
258,116,94377,6,0,B|235:55|295:12|295:12|296:49,1,140,2|8,0:0|0:0,0:0:0:0:
429,37,94877,2,0,B|387:24|387:24|336:41|336:41|277:27,1,140,2|8,0:0|0:0,0:0:0:0:
96,37,95377,5,2,3:2:0:0:
258,116,95543,1,8,3:3:0:0:
199,0,95710,5,2,3:2:0:0:
147,161,95877,1,8,3:3:0:0:
143,176,95960,1,8,3:3:0:0:
138,191,96043,6,0,B|90:193|90:193|72:209|72:209|16:211,1,125.999996154785,6|8,1:2|0:0,0:0:0:0:
128,268,96543,1,2,0:0:0:0:
128,268,96710,2,0,B|199:276|166:314|239:333,1,125.999996154785,0|2,2:0|0:0,0:0:0:0:
232,331,97377,2,0,L|253:263,1,62.9999980773926,8|8,3:2|3:3,0:3:0:0:
356,208,97710,6,0,B|285:216|318:254|244:273,1,125.999996154785,2|8,2:0|0:0,0:0:0:0:
268,145,98210,2,0,P|237:106|143:98,1,125.999996154785,2|8,0:0|0:0,0:0:0:0:
98,14,98710,2,0,P|93:48|74:77,1,62.9999980773926,2|0,0:0|0:0,0:0:0:0:
21,146,99043,2,0,L|-5:103,2,31.4999990386963,8|8|8,3:2|3:3|3:3,2:3:0:0:
145,208,99377,6,0,B|218:215|182:256|250:267,1,125.999996154785,2|8,0:0|0:0,0:0:0:0:
314,352,99877,1,2,0:0:0:0:
314,352,100043,2,0,B|323:303|323:303|323:291|323:291|336:221,1,125.999996154785,0|2,2:0|0:0,0:0:0:0:
334,227,100710,1,8,3:2:0:0:
400,276,100877,1,8,3:3:0:0:
483,209,101043,6,0,B|474:160|474:160|474:148|474:148|461:78,1,125.999996154785,2|8,2:0|0:0,0:0:0:0:
384,10,101543,2,0,P|368:66|289:74,1,125.999996154785,2|8,0:0|0:0,0:0:0:0:
212,132,102043,2,0,L|201:55,1,62.9999980773926,2|0,0:0|0:0,0:0:0:0:
96,117,102377,1,8,3:2:0:0:
96,117,102460,1,8,3:3:0:0:
96,117,102543,1,8,3:0:0:0:
86,33,102710,6,0,B|132:39|132:39|158:61|158:61|211:71,1,125.999996154785,2|8,2:2|0:0,0:0:0:0:
300,60,103210,1,2,2:0:0:0:
300,60,103377,2,0,P|338:24|411:30,1,125.999996154785,0|2,2:0|0:0,0:0:0:0:
408,28,104043,2,0,L|419:90,1,62.9999980773926,8|8,3:2|3:3,0:0:0:0:
508,154,104377,6,0,P|479:101|419:90,1,125.999996154785,2|8,0:0|0:0,0:0:0:0:
349,163,104877,2,0,B|342:219|342:219|342:228|342:228|334:289,1,125.999996154785,2|8,0:0|0:0,0:0:0:0:
258,362,105377,2,0,L|247:284,1,62.9999980773926,2|0,0:0|0:0,0:0:0:0:
193,216,105710,2,8,L|178:256,2,31.4999990386963,8|8|8,3:2|3:3|3:3,2:3:0:0:
147,120,106043,6,0,P|94:83|22:116,1,125.999996154785,2|8,2:2|0:0,0:0:0:0:
8,194,106543,1,2,0:0:0:0:
8,194,106710,2,0,B|15:250|15:250|15:259|15:259|23:320,1,125.999996154785,0|2,0:0|0:0,0:0:0:0:
22,319,107377,2,0,P|52:309|94:316,1,62.9999980773926,8|8,3:2|3:3,0:0:0:0:
200,353,107710,6,0,B|292:366|292:366|331:329,1,125.999996154785,2|8,0:0|0:0,0:0:0:0:
354,249,108210,2,0,P|339:194|379:119,1,125.999996154785,2|8,0:0|0:0,0:0:0:0:
447,73,108710,1,2,3:2:0:0:
354,32,108877,1,8,3:3:0:0:
371,139,109043,1,8,3:2:0:0:
371,139,109127,1,8,3:3:0:0:
371,139,109210,1,8,3:0:0:0:
246,51,109377,6,0,B|202:18|149:30|149:30|173:11|218:16,1,146.999995513916,2|8,1:2|0:0,0:0:0:0:
180,116,109877,2,0,B|171:179|171:179|173:190|173:190|161:264,1,146.999995513916,2|8,1:2|0:0,0:0:0:0:
7,284,110377,2,0,P|17:216|85:212,1,146.999995513916,2|8,0:0|3:2,0:0:0:0:
161,261,110877,1,8,3:3:0:0:
276,179,111043,6,0,B|310:127|266:67|266:67|252:103|261:126,1,146.999995513916,2|8,0:0|0:0,0:0:0:0:
367,181,111543,2,0,P|419:188|470:109,1,146.999995513916,2|8,0:0|0:0,0:0:0:0:
491,0,112043,1,2,0:0:0:0:
470,118,112210,1,2,0:0:0:0:
394,16,112377,1,8,3:2:0:0:
394,16,112460,1,8,3:3:0:0:
394,16,112543,1,8,3:3:0:0:
258,92,112710,6,0,B|201:132|148:84|148:84|169:69|203:81,1,146.999995513916,2|8,1:2|0:0,0:0:0:0:
269,171,113210,2,0,B|355:172|314:226|400:236,1,146.999995513916,2|8,1:2|0:0,0:0:0:0:
497,185,113710,1,2,2:2:0:0:
394,235,113877,1,2,2:2:0:0:
410,130,114043,1,8,3:2:0:0:
483,291,114210,1,8,3:3:0:0:
410,130,114377,6,0,P|354:74|276:89,1,146.999995513916,2|8,0:0|0:0,0:0:0:0:
178,5,114877,2,0,B|205:45|205:45|171:153,1,146.999995513916,2|8,0:0|0:0,0:0:0:0:
0,199,115377,5,2,3:2:0:0:
175,139,115543,1,8,3:3:0:0:
76,27,115710,5,10,3:2:0:0:
73,52,115793,1,8,3:3:0:0:
71,77,115877,1,8,3:3:0:0:
68,102,115960,1,8,3:3:0:0:
66,127,116043,6,0,B|83:165|83:165|81:207|81:207|103:261,2,125.999996154785,2|2|2,1:2|0:0|0:0,0:0:0:0:
66,127,117377,2,0,L|79:75,1,41.9999987182618,8|0,3:2|0:0,0:0:0:0:
147,41,117710,2,0,B|257:27|211:93|325:75,1,167.999994873047,2|8,0:0|2:2,0:0:0:0:
428,4,118710,2,0,B|422:44|422:44|423:53|423:53|415:95,1,83.9999974365235,2|8,0:0|3:2,0:0:0:0:
460,144,119210,1,8,3:3:0:0:
509,195,119377,6,0,L|486:296,1,83.9999974365235,2|0,0:0|3:3,0:0:0:0:
377,364,120043,1,8,2:2:0:0:
256,288,120377,1,2,0:0:0:0:
135,364,120710,2,0,L|126:310,1,41.9999987182618,8|0,3:2|0:0,0:0:0:0:
80,250,121043,2,0,B|62:221|62:221|59:210|59:210|37:176,1,83.9999974365235,2|0,0:0|3:0,0:0:0:0:
104,16,121877,1,0,3:0:0:0:
104,16,122043,2,0,P|137:40|187:39,1,83.9999974365235,2|8,0:0|3:2,0:0:0:0:
304,148,122710,6,0,P|322:132|395:131,1,83.9999974365235,2|8,0:0|2:3,0:0:0:0:
440,161,123210,2,0,L|448:205,1,41.9999987182618,8|8,3:3|2:0,0:0:0:0:
511,364,123710,2,0,B|475:353|475:353|466:347|466:347|431:337,1,83.9999974365235,2|8,0:0|3:2,0:0:0:0:
364,360,124210,1,8,3:3:0:0:
325,300,124377,2,0,L|329:198,2,83.9999974365235,2|8|8,0:0|3:3|2:2,0:0:0:0:
206,374,125377,2,0,L|202:272,1,83.9999974365235,2|8,3:2|3:2,0:0:0:0:
0,175,126043,6,0,B|59:173|46:137|116:141,1,112,2|0,2:0|3:0,0:0:0:0:
202,290,126710,1,8,2:2:0:0:
334,169,127043,2,0,L|356:52,1,112,2|8,3:2|3:2,0:0:0:0:
416,8,127543,1,0,3:0:0:0:
512,148,127710,6,0,P|502:99|442:79,1,112,2|0,2:0|3:0,0:0:0:0:
308,190,128377,1,8,2:2:0:0:
362,375,128710,2,0,P|356:321|406:292,1,112,2|8,3:2|3:2,0:0:0:0:
476,297,129210,1,0,3:0:0:0:
429,204,129377,6,0,B|379:192|379:192|356:201|356:201|297:187,1,125.999996154785,2|0,2:0|2:0,0:0:0:0:
224,82,129877,1,8,3:3:0:0:
224,82,129960,1,8,3:3:0:0:
224,82,130043,2,0,P|230:50|220:11,1,62.9999980773926,8|8,0:0|3:3,0:0:0:0:
127,117,130377,2,0,B|102:113|102:113|87:117|87:117|57:111,1,62.9999980773926,2|8,3:2|3:3,0:0:0:0:
208,179,130710,5,8,3:2:0:0:
65,112,130877,1,8,3:3:0:0:
0,255,131043,6,0,B|47:244|47:244|71:211|71:211|121:203,1,140,2|0,2:0|2:0,0:0:0:0:
245,326,131543,1,8,3:3:0:0:
229,333,131627,1,8,3:3:0:0:
211,331,131710,2,0,P|191:295|193:251,1,70,8|8,0:0|3:0,0:0:0:0:
262,13,132043,5,2,1:2:0:0:
347,275,132210,1,8,3:3:0:0:
223,184,132377,5,2,1:2:0:0:
411,0,132543,1,8,3:3:0:0:
473,264,132710,6,0,B|501:290|501:290|505:174|505:174|462:139,1,195.999994018555,6|8,1:2|0:2,0:2:0:0:
223,184,133210,2,0,B|272:189|272:189|322:158|322:158|386:167,1,167.999994873047,2|8,1:2|0:2,0:2:0:0:
264,13,133710,2,0,P|264:49|228:105,1,83.9999974365235,2|0,0:2|0:2,0:2:0:0:
223,100,133960,1,2,0:2:0:0:
202,102,134043,2,0,L|111:86,1,83.9999974365235,8|8,2:2|2:2,2:2:0:0:
351,70,134377,6,0,B|455:50|417:112|513:98,1,167.999994873047,2|8,2:2|0:2,0:2:0:0:
381,166,134877,2,0,B|368:234|368:234|375:264|375:264|359:335,1,167.999994873047,2|8,2:2|0:2,0:2:0:0:
150,384,135377,5,2,3:2:0:0:
360,330,135543,1,2,3:2:0:0:
156,258,135710,1,8,3:2:0:0:
156,258,135793,1,8,3:3:0:0:
156,258,135877,1,8,3:3:0:0:
317,145,136043,6,0,P|317:78|212:32,1,181.999991668702,2|8,1:2|0:2,0:2:0:0:
92,182,136543,2,0,B|153:163|153:163|172:131|172:131|237:116,1,167.999994873047,2|8,1:2|0:2,0:2:0:0:
369,19,137043,2,0,B|431:35|431:35|448:68|448:68|514:85,1,167.999994873047,2|8,2:2|0:2,0:2:0:0:
512,161,137543,1,8,0:0:0:0:
362,101,137710,6,0,P|328:97|279:216,1,167.999994873047,2|8,2:2|0:2,0:2:0:0:
195,294,138210,2,0,L|107:277,1,83.9999974365235,2|0,2:2|2:2,0:2:0:0:
53,221,138543,1,8,0:0:0:0:
268,196,138710,2,0,L|356:213,1,83.9999974365235,2|0,3:2|3:2,0:2:0:0:
456,166,139043,1,8,3:2:0:0:
456,166,139127,1,8,3:3:0:0:
456,166,139210,1,8,3:3:0:0:
362,30,139377,6,0,B|284:3|294:68|215:54,1,154.000004699707,2|8,1:2|0:2,0:2:0:0:
41,30,139877,2,0,P|109:37|124:113,1,154.000004699707,2|8,1:2|0:2,0:2:0:0:
0,201,140377,2,0,P|31:179|69:175,1,77.0000023498536,2|0,0:2|0:2,0:2:0:0:
83,187,140627,1,2,0:2:0:0:
93,203,140710,2,0,L|113:289,1,77.0000023498536,8|8,0:2|0:2,0:2:0:0:
239,361,141043,6,0,B|253:324|253:324|228:246|228:246|200:299,1,154.000004699707,2|8,2:2|0:2,0:2:0:0:
342,370,141543,2,0,P|408:378|430:291,1,154.000004699707,2|8,2:2|0:2,0:2:0:0:
502,201,142043,2,0,L|413:182,1,77.0000023498536,2|0,3:2|3:2,0:2:0:0:
368,66,142377,1,8,3:2:0:0:
379,50,142460,1,8,3:3:0:0:
389,33,142543,1,8,3:3:0:0:
502,201,142710,6,0,B|468:175|427:186|427:186|383:182|364:132,1,154.000004699707,2|8,1:2|0:2,0:2:0:0:
183,15,143210,2,0,P|254:5|291:68,1,154.000004699707,2|8,1:2|0:2,0:2:0:0:
219,179,143710,1,2,0:0:0:0:
169,86,143877,1,2,0:0:0:0:
169,86,143960,1,2,0:2:0:0:
169,86,144043,2,0,P|165:48|183:15,1,77.0000023498536,8|8,0:2|0:2,0:2:0:0:
325,139,144377,6,0,B|430:122|430:122|473:156,1,154.000004699707,2|8,2:2|0:2,0:2:0:0:
512,291,144877,2,0,B|407:274|407:274|369:303,1,154.000004699707,2|8,2:2|0:2,0:2:0:0:
218,382,145377,6,0,L|203:293,1,77.0000023498536,2|0,3:2|3:2,0:2:0:0:
157,157,145710,1,8,3:2:0:0:
153,175,145793,1,8,3:3:0:0:
149,194,145877,1,8,3:3:0:0:
146,213,145960,1,8,3:3:0:0:
142,232,146043,6,0,P|59:231|33:123,1,195.999994018555,6|8,1:2|0:2,0:2:0:0:
168,33,146543,2,0,B|235:24|235:24|262:38|262:38|331:32,1,167.999994873047,2|8,1:2|0:2,0:2:0:0:
512,98,147043,2,0,P|494:73|432:73,1,83.9999974365235,2|0,0:2|0:2,0:2:0:0:
430,79,147293,1,2,0:2:0:0:
418,96,147377,2,0,B|409:134|409:134|411:141|411:141|401:188,1,83.9999974365235,8|8,0:2|0:2,0:2:0:0:
184,226,147710,6,0,P|195:146|270:121,1,167.999994873047,2|8,1:2|0:2,0:2:0:0:
400,278,148210,2,0,B|305:271|350:205|259:199,1,167.999994873047,2|8,1:2|0:2,0:2:0:0:
99,234,148710,5,2,3:2:0:0:
260,199,148877,1,2,3:2:0:0:
219,359,149043,1,8,3:2:0:0:
219,359,149127,1,8,3:3:0:0:
219,359,149210,1,8,3:3:0:0:
170,164,149377,6,0,B|139:106|194:42|194:42|211:65|208:96,1,167.999994873047,2|8,1:2|0:2,0:2:0:0:
81,162,149877,2,0,P|9:145|20:53,1,167.999994873047,2|8,1:2|0:2,0:2:0:0:
0,279,150377,1,2,2:2:0:0:
11,261,150460,2,0,P|48:245|100:254,1,83.9999974365235,8|2,2:2|2:2,2:2:0:0:
105,262,150710,2,0,P|143:281|184:279,1,83.9999974365235,8|8,2:2|2:2,2:2:0:0:
290,153,151043,6,0,B|273:100|310:46|310:46|278:54|262:99,1,167.999994873047,2|8,2:2|0:2,0:2:0:0:
388,216,151543,2,0,P|460:171|469:88,1,167.999994873047,2|8,2:2|0:2,0:2:0:0:
205,0,152043,5,2,3:2:0:0:
130,208,152210,1,2,3:2:0:0:
0,73,152377,5,8,3:2:0:0:
16,69,152460,1,8,3:3:0:0:
32,65,152543,1,8,3:3:0:0:
48,61,152627,1,8,3:3:0:0:
64,57,152710,6,0,B|224:35|143:179|298:170,1,280,2|0,1:2|3:3,0:0:0:0:
422,140,154377,2,0,P|296:172|302:301,1,280,2|0,3:2|3:0,0:0:0:0:
401,384,156043,6,0,B|417:233,1,140,2|0,3:2|3:3,0:0:0:0:
502,173,157043,1,2,2:2:0:0:
462,69,157377,1,2,3:2:0:0:
351,74,157710,2,0,L|272:60,2,70,2|0|0,3:2|3:0|3:0,0:0:0:0:
400,174,158710,2,0,P|407:212|399:244,1,70,2|0,2:2|3:0,0:0:0:0:
299,316,159377,6,0,B|227:288|226:338|162:318,1,140,2|0,3:2|3:3,0:0:0:0:
62,370,160377,2,0,L|57:294,1,70,2|0,0:0|3:0,0:0:0:0:
4,201,161043,2,0,L|-1:127,2,70,2|0|0,3:2|3:0|3:0,0:0:0:0:
57,300,162043,2,0,B|97:295|89:308|136:309,1,70,2|0,2:2|3:0,0:0:0:0:
225,222,162710,6,0,P|213:133|247:80,1,140,2|0,3:2|3:3,0:0:0:0:
328,28,163710,1,2,0:0:0:0:
378,128,164043,1,2,3:2:0:0:
476,74,164377,2,0,L|491:1,2,70,2|0|0,3:2|3:0|3:0,0:0:0:0:
476,74,165710,2,0,L|464:124,1,45.4999979171754,2|0,3:2|2:0,0:0:0:0:
512,240,166043,6,0,B|450:213|458:253|388:226,1,125.999996154785,2|0,2:0|2:0,0:0:0:0:
299,104,166543,1,8,3:3:0:0:
299,104,166627,1,8,3:3:0:0:
299,104,166710,2,0,P|307:63|291:24,1,62.9999980773926,8|8,0:0|3:3,0:0:0:0:
177,202,167043,2,0,B|247:192,1,62.9999980773926,2|8,3:2|3:3,0:0:0:0:
127,2,167377,5,8,3:2:0:0:
56,254,167543,1,8,3:3:0:0:
0,61,167710,6,0,B|53:65|53:65|83:84|83:84|136:91,1,140,2|0,2:0|2:0,0:0:0:0:
387,37,168210,1,8,3:3:0:0:
378,26,168293,1,8,3:3:0:0:
364,19,168377,2,0,P|326:25|304:55,1,70,8|8,0:0|3:0,0:0:0:0:
218,295,168710,5,2,1:2:0:0:
117,2,168877,1,8,3:3:0:0:
64,257,169043,5,2,1:2:0:0:
307,48,169210,1,8,3:3:0:0:
383,331,169377,6,0,B|356:365|356:365|305:298|364:220,1,181.999991668702,6|8,1:2|0:2,0:2:0:0:
468,158,169877,2,0,P|498:80|461:36,1,140,2|8,1:2|0:2,0:2:0:0:
358,156,170377,2,0,L|279:140,1,70,2|0,0:2|0:2,0:2:0:0:
132,46,170710,1,8,0:0:0:0:
296,5,170877,1,8,0:0:0:0:
211,194,171043,6,0,P|193:138|231:68,1,140,2|8,2:2|0:2,0:2:0:0:
304,234,171543,2,0,B|356:238|356:238|378:258|378:258|436:267,1,140,2|8,2:2|0:2,0:2:0:0:
229,370,172043,2,0,B|225:338|225:338|227:332|227:332|222:284,1,70,2|0,3:2|3:0,0:0:0:0:
98,239,172377,2,0,L|46:246,2,35,8|8|8,3:2|3:3|3:3,2:3:0:0:
224,126,172710,6,0,B|256:77|226:18|226:18|204:46|204:65,1,140,2|8,1:2|0:2,0:2:0:0:
326,143,173210,2,0,P|374:153|415:66,1,140,2|8,1:2|0:2,0:2:0:0:
511,242,173710,2,0,P|496:231|438:228,1,70,2|0,0:2|0:2,0:2:0:0:
432,236,173960,1,2,0:2:0:0:
419,247,174043,2,0,P|398:261|347:256,1,70,8|8,2:2|2:2,2:2:0:0:
221,138,174377,6,0,P|237:65|183:3,1,140,2|8,2:2|0:2,0:2:0:0:
18,116,174877,2,0,B|76:110|76:110|98:89|98:89|150:85,1,140,2|8,2:2|0:2,0:2:0:0:
250,231,175377,2,0,B|221:217|221:217|207:217|207:217|178:204,1,70,2|0,3:2|3:0,0:0:0:0:
318,64,175710,1,8,3:2:0:0:
318,64,175793,1,8,3:3:0:0:
318,64,175877,1,8,3:3:0:0:
419,251,176043,6,0,P|354:237|341:172,1,140,2|8,1:2|0:2,0:2:0:0:
192,84,176543,2,0,B|284:97|284:97|318:63,1,140,2|8,1:2|0:2,0:2:0:0:
503,68,177043,2,0,L|491:0,1,70,2|0,0:2|0:2,0:2:0:0:
317,63,177377,1,8,0:0:0:0:
511,151,177543,1,8,0:0:0:0:
397,302,177710,6,0,B|391:257|391:257|405:209|405:209|395:143,1,140,2|8,2:2|0:2,0:2:0:0:
308,304,178210,2,0,B|241:286|239:341|174:323,1,140,2|8,2:2|0:2,0:2:0:0:
46,384,178710,2,0,L|34:287,1,70,2|0,3:2|3:0,0:0:0:0:
193,244,179043,2,0,L|202:189,2,35,8|8|8,3:2|3:3|3:3,2:3:0:0:
27,152,179377,6,0,B|6:125|6:125|23:25|23:25|38:53,1,167.999994873047,2|8,1:2|0:2,0:2:0:0:
259,119,179877,2,0,B|198:105|198:105|164:126|164:126|99:112,1,167.999994873047,2|8,1:2|0:2,0:2:0:0:
233,2,180377,1,2,0:0:0:0:
266,134,180543,1,2,0:0:0:0:
271,150,180627,1,2,0:2:0:0:
276,166,180710,2,0,L|303:247,1,70,8|8,2:2|2:2,2:2:0:0:
385,99,181043,6,0,B|420:55|475:53|475:53|459:34|412:44,1,140,2|8,2:2|0:2,0:2:0:0:
472,158,181543,2,0,B|491:197|491:197|463:310,1,140,2|8,2:2|0:2,0:2:0:0:
317,357,182043,1,2,3:2:0:0:
339,193,182210,1,2,3:2:0:0:
475,298,182377,1,8,3:2:0:0:
475,298,182460,1,8,3:3:0:0:
475,298,182543,1,8,3:3:0:0:
317,189,182710,6,0,B|266:176|266:176|231:198|231:198|170:187,1,154.000004699707,2|8,1:2|0:2,0:2:0:0:
295,101,183210,2,0,P|294:35|228:5,1,140,2|8,1:2|0:2,0:2:0:0:
376,125,183710,2,0,L|448:112,1,70,2|0,0:2|0:2,0:2:0:0:
316,13,184043,1,8,0:0:0:0:
240,192,184210,1,8,0:0:0:0:
125,71,184377,6,0,B|93:32|34:37|34:37|45:17|86:12,1,140,2|8,2:2|0:2,0:2:0:0:
55,136,184877,2,0,B|44:195|44:195|39:204|39:204|24:279,1,140,2|8,2:2|0:2,0:2:0:0:
122,373,185377,2,0,P|146:352|200:348,1,70,2|0,3:2|3:0,0:0:0:0:
322,362,185710,2,0,L|359:374,2,35,8|8|8,3:2|3:3|3:3,2:3:0:0:
205,232,186043,6,0,B|185:208|185:208|200:126|200:126|218:157,1,140,2|8,1:2|0:2,0:2:0:0:
294,281,186543,2,0,B|342:274|342:274|369:291|369:291|437:284,1,140,2|8,1:2|0:2,0:2:0:0:
511,179,187043,1,2,2:2:0:0:
498,191,187127,2,0,P|463:175|450:142,1,70,8|2,2:2|2:2,2:2:0:0:
455,130,187377,2,0,P|472:87|458:54,1,70,8|8,2:2|2:2,2:2:0:0:
336,142,187710,6,0,B|279:125|279:125|248:139|248:139|166:120,1,154.000004699707,2|8,2:2|0:2,0:2:0:0:
9,27,188210,2,0,P|78:14|108:95,1,154.000004699707,2|8,2:2|0:2,0:2:0:0:
33,194,188710,2,0,L|19:109,1,77.0000023498536,2|0,3:2|3:0,0:0:0:0:
126,233,189043,1,8,3:2:0:0:
123,244,189127,1,8,3:3:0:0:
120,255,189210,1,8,3:3:0:0:
220,132,189377,6,0,B|310:120|289:183|380:175,1,167.999994873047,2|8,1:2|0:2,0:2:0:0:
511,29,189877,2,0,P|435:35|438:111,1,167.999994873047,2|8,1:2|0:2,0:2:0:0:
233,239,190377,5,2,0:0:0:0:
302,36,190543,1,2,0:0:0:0:
302,36,190627,1,2,0:0:0:0:
302,36,190710,1,8,0:0:0:0:
457,209,190877,1,8,0:0:0:0:
361,374,191043,6,0,B|346:329|346:329|357:239|357:239|336:184,1,195.999994018555,2|8,1:2|0:2,0:2:0:0:
93,384,191543,1,2,1:2:0:0:
93,384,191877,6,0,L|89:327,1,41.9999987182618,2|2,0:0|0:0,0:0:0:0:
14,225,192377,2,0,L|-12:251,2,20.9999993591309,2|0|0,3:2|3:0|3:0,0:0:0:0:
119,165,192710,6,0,B|230:150|180:224|279:224,1,181.999991668702,6|8,1:2|0:2,0:2:0:0:
370,123,193210,2,0,P|358:49|441:24,1,154.000004699707,2|8,1:2|0:2,0:2:0:0:
512,213,193710,2,0,P|483:196|428:200,1,77.0000023498536,2|0,0:2|0:2,0:2:0:0:
428,210,193960,1,2,0:2:0:0:
420,227,194043,2,0,P|423:265|402:302,1,77.0000023498536,8|8,0:2|0:2,0:2:0:0:
219,384,194377,6,0,B|216:316|216:316|213:305|213:305|207:200,1,154.000004699707,2|8,2:2|0:2,0:2:0:0:
127,134,194877,2,0,B|90:87|18:98|18:98|32:115|66:119,1,154.000004699707,2|8,2:2|0:2,0:2:0:0:
181,41,195377,2,0,B|215:35|215:35|222:37|222:37|256:31,1,77.0000023498536,2|0,0:2|0:2,0:2:0:0:
297,192,195710,2,0,B|331:198|331:198|338:196|338:196|372:201,1,77.0000023498536,8|8,0:2|0:2,0:2:0:0:
512,56,196043,6,0,B|427:50|450:105|372:103,1,154.000004699707,2|8,1:2|0:2,0:2:0:0:
181,41,196543,2,0,P|247:27|288:104,1,154.000004699707,2|8,1:2|0:2,0:2:0:0:
191,214,197043,1,2,2:2:0:0:
207,204,197127,2,0,P|201:157|176:123,1,77.0000023498536,8|2,2:2|2:2,2:2:0:0:
168,122,197377,2,0,B|126:127|126:127|92:117,1,77.0000023498536,8|8,2:2|2:2,2:2:0:0:
254,18,197710,6,0,B|310:8|310:8|350:38|350:38|415:29,1,167.999994873047,2|8,2:2|0:2,0:2:0:0:
512,214,198210,2,0,P|482:138|403:128,1,167.999994873047,2|8,2:2|0:2,0:2:0:0:
125,288,198710,5,2,1:2:0:0:
260,24,198877,1,8,3:3:0:0:
260,24,198960,1,8,3:3:0:0:
260,24,199043,1,2,1:2:0:0:
344,297,199210,1,8,3:3:0:0:
143,47,199377,6,0,B|87:30|87:30|-1:80|-1:80|32:93,1,195.999994018555,6|8,1:2|0:2,0:2:0:0:
187,248,199877,2,0,P|200:158|308:146,1,195.999994018555,2|8,1:2|0:2,0:2:0:0:
369,279,200377,2,0,L|382:359,1,70,2|0,0:2|0:2,0:2:0:0:
388,359,200627,1,2,0:2:0:0:
396,369,200710,2,0,P|425:380|472:362,1,70,8|8,0:2|0:2,0:2:0:0:
259,282,201043,6,0,B|205:274|205:274|178:291|178:291|124:285,1,140,2|8,2:2|0:2,0:2:0:0:
216,176,201543,2,0,P|203:111|138:97,1,140,2|8,2:2|0:2,0:2:0:0:
0,179,202043,1,2,3:2:0:0:
28,19,202210,1,2,3:2:0:0:
131,116,202377,2,0,L|138:166,2,35,8|8|8,3:2|3:3|3:3,2:3:0:0:
278,21,202710,6,0,B|336:-4|393:27|393:27|362:-9,1,167.999994873047,2|8,1:2|0:2,0:2:0:0:
330,119,203210,2,0,B|314:182|322:237|322:237|337:256|373:271,1,167.999994873047,2|8,1:2|0:2,0:2:0:0:
502,353,203710,2,0,P|474:332|440:327,1,70,2|0,0:2|0:2,0:2:0:0:
427,334,203960,1,2,0:2:0:0:
417,342,204043,2,0,P|385:357|350:357,1,70,8|8,0:2|0:2,0:2:0:0:
217,195,204377,6,0,P|238:136|193:62,1,140,2|8,2:2|0:2,0:2:0:0:
18,123,204877,2,0,B|58:150|58:150|149:137,1,140,2|8,2:2|0:2,0:2:0:0:
281,0,205377,1,2,2:2:0:0:
334,99,205543,1,2,3:2:0:0:
412,17,205710,1,8,1:2:0:0:
412,17,205793,1,8,3:3:0:0:
412,17,205877,1,8,3:3:0:0:
452,132,206043,6,0,B|491:60|425:-8|425:-8|411:16,1,181.999991668702,6|8,1:2|0:2,0:2:0:0:
342,170,206543,2,0,P|267:222|167:190,1,181.999991668702,2|8,1:2|0:2,0:2:0:0:
344,288,207043,2,0,P|377:279|422:283,1,70,2|0,0:2|0:2,0:2:0:0:
423,288,207293,1,2,0:2:0:0:
432,298,207377,2,0,P|471:317|511:318,1,70,8|8,0:2|0:2,0:2:0:0:
341,170,207710,6,0,B|261:155|277:204|206:191,1,140,2|8,2:2|0:2,0:2:0:0:
34,92,208210,2,0,P|98:77|129:134,1,140,2|8,2:2|0:2,0:2:0:0:
0,300,208710,1,2,3:2:0:0:
56,169,208877,1,2,3:2:0:0:
105,337,209043,1,8,3:2:0:0:
105,337,209127,1,8,3:3:0:0:
105,337,209210,1,8,3:3:0:0:
206,191,209377,6,0,B|230:150|230:150|197:94|230:25,1,167.999994873047,2|8,1:2|0:2,0:2:0:0:
311,201,209877,2,0,B|414:190|368:242|472:231,1,167.999994873047,2|8,1:2|0:2,0:2:0:0:
359,376,210377,1,2,2:2:0:0:
365,363,210460,2,0,P|362:327|345:298,1,70,8|2,2:2|2:2,2:2:0:0:
333,290,210710,2,0,L|240:305,1,70,8|8,2:2|2:2,2:2:0:0:
74,224,211043,6,0,B|47:180|67:120|67:120|42:136|40:174,1,154.000004699707,2|8,2:2|0:2,0:2:0:0:
165,253,211543,2,0,P|217:199|217:124,1,154.000004699707,2|8,2:2|0:2,0:2:0:0:
263,300,212043,6,0,B|295:297|295:297|305:301|305:301|355:295,1,86.1000013137818,2|0,3:2|3:3,2:2:0:0:
490,73,212376,5,2,1:2:0:0:
450,327,212543,1,8,3:3:0:0:
461,60,212709,5,2,1:2:0:0:
348,296,212876,1,8,3:3:0:0:
433,47,213043,5,2,1:2:0:0:
244,255,213209,1,8,3:3:0:0:
326,28,213377,6,0,B|386:17|373:56|435:47,1,112,6|8,1:2|0:0,0:0:0:0:
344,106,213877,1,2,0:0:0:0:
344,106,214043,2,0,B|329:135|329:135|348:218,1,112,0|2,2:0|0:0,0:0:0:0:
346,212,214710,2,0,L|404:222,1,56,8|0,0:0|0:0,0:0:0:0:
498,272,215043,6,0,B|444:261|462:230|401:221,1,112,2|8,0:0|0:0,0:0:0:0:
313,240,215543,2,0,B|262:236|262:236|255:238|255:238|199:234,1,112,2|8,0:0|0:0,0:0:0:0:
166,152,216043,2,0,P|183:99|161:49,1,112,2|8,0:0|0:0,0:0:0:0:
0,192,216710,6,0,P|-15:259|16:305,1,112,2|8,0:0|0:0,0:0:0:0:
73,360,217210,1,2,0:0:0:0:
73,360,217377,2,0,B|122:355|122:355|133:357|133:357|192:351,1,112,0|2,2:0|0:0,0:0:0:0:
184,352,218043,1,8,0:0:0:0:
261,379,218210,1,0,0:0:0:0:
327,291,218377,6,0,B|336:246|336:246|331:226|331:226|337:181,1,112,2|8,0:0|0:0,0:0:0:0:
411,129,218877,2,0,P|456:140|463:73,1,112,2|8,0:0|0:0,0:0:0:0:
418,18,219377,2,0,B|359:7|365:47|310:38,1,112,2|8,0:0|0:0,0:0:0:0:
277,108,219877,1,8,0:0:0:0:
186,37,220043,6,0,P|136:18|76:25,1,112,2|8,2:2|0:0,0:0:0:0:
19,91,220543,1,2,0:0:0:0:
19,91,220710,2,0,B|24:136|24:136|32:151|32:151|40:207,1,112,0|2,2:0|0:0,0:0:0:0:
39,200,221377,2,0,P|74:194|94:197,1,56,8|0,0:0|0:0,0:0:0:0:
140,290,221710,6,0,B|185:322|222:309|222:309|248:276,1,112,2|8,0:0|0:0,0:0:0:0:
271,206,222210,2,0,P|258:152|278:100,1,112,2|8,0:0|0:0,0:0:0:0:
347,158,222710,2,0,B|386:169|386:169|463:136,1,112,2|8,0:0|0:0,0:0:0:0:
500,80,223210,1,8,0:0:0:0:
512,197,223377,6,0,B|504:244|508:279|508:279|502:300|480:317,1,112,2|8,2:2|0:0,0:0:0:0:
411,341,223877,1,2,0:0:0:0:
411,341,224043,2,0,B|361:335|361:335|350:336|350:336|288:327,1,112,0|2,2:0|0:0,0:0:0:0:
300,329,224710,2,0,L|294:271,1,56,8|0,0:0|0:0,0:0:0:0:
170,224,225043,6,0,B|192:235|223:238|223:238|250:224|269:193,1,112,2|8,0:0|0:0,0:0:0:0:
318,128,225543,2,0,B|301:89|334:38|334:38|345:79,1,112,2|8,0:0|0:0,0:0:0:0:
397,121,226043,2,0,P|421:131|457:130,1,56,2|0,0:0|0:0,0:0:0:0:
338,54,226377,2,0,P|314:44|278:45,1,56,8|8,0:0|0:0,0:0:0:0:
387,153,226710,6,0,B|431:176|475:167|496:138|496:138|477:123|449:132,1,167.999994873047,6|8,1:2|0:0,0:0:0:0:
383,231,227210,2,0,B|362:277|362:277|360:310|360:310|334:366,1,140,2|8,1:2|0:0,0:0:0:0:
276,257,227710,2,0,P|228:207|156:215,1,140,2|8,0:0|0:0,0:0:0:0:
101,260,228210,1,8,0:0:0:0:
20,171,228376,6,0,B|-13:122|35:58|35:58|58:101,1,140,2|8,0:0|0:0,0:0:0:0:
143,132,228876,2,0,B|192:125|192:125|206:127|206:127|283:118,1,140,2|8,0:0|0:0,0:0:0:0:
399,155,229376,1,2,0:0:0:0:
377,34,229543,1,2,0:0:0:0:
377,34,229626,1,2,0:0:0:0:
377,34,229710,1,8,0:0:0:0:
281,118,229876,1,8,0:0:0:0:
398,232,230043,6,0,B|414:215|414:215|415:129|415:129|389:171,1,140,2|8,1:2|0:0,0:0:0:0:
298,234,230543,2,0,B|248:237|248:237|234:245|234:245|159:249,1,140,2|8,0:0|0:0,0:0:0:0:
248,384,231043,2,0,P|254:346|288:320,1,70,2|0,0:0|0:0,0:0:0:0:
289,320,231293,1,0,0:0:0:0:
302,317,231376,2,0,L|374:311,1,70,8|0,0:0|0:0,0:0:0:0:
492,250,231710,6,0,B|512:194|459:142|459:142|454:183,1,140,2|8,0:0|0:0,0:0:0:0:
332,223,232210,2,0,B|266:202|264:254|195:232,1,140,2|8,0:0|0:0,0:0:0:0:
47,74,232710,5,2,3:2:0:0:
196,232,232876,1,8,3:3:0:0:
164,27,233043,5,2,3:2:0:0:
68,237,233210,1,8,3:3:0:0:
61,251,233293,1,8,3:3:0:0:
54,265,233376,6,0,P|9:243|30:169,1,125.999996154785,6|8,1:2|0:0,0:0:0:0:
123,118,233876,1,2,0:0:0:0:
123,118,234043,2,0,B|174:115|174:115|183:116|183:116|251:113,1,125.999996154785,0|2,2:0|0:0,0:0:0:0:
249,113,234710,2,0,L|266:41,1,62.9999980773926,8|8,3:2|3:3,0:3:0:0:
389,46,235043,6,0,B|338:49|338:49|329:48|329:48|263:50,1,125.999996154785,2|8,2:0|0:0,0:0:0:0:
343,130,235543,2,0,P|384:152|389:231,1,125.999996154785,2|8,0:0|0:0,0:0:0:0:
398,325,236043,2,0,L|331:298,1,62.9999980773926,2|0,0:0|0:0,0:0:0:0:
256,338,236376,2,0,L|251:385,2,31.4999990386963,8|8|8,3:2|3:3|3:3,2:3:0:0:
215,231,236710,6,0,B|204:183|204:183|195:167|195:167|179:96,1,125.999996154785,2|8,0:0|0:0,0:0:0:0:
140,18,237210,1,2,0:0:0:0:
140,18,237376,2,0,P|175:67|236:56,1,125.999996154785,0|2,2:0|0:0,0:0:0:0:
233,57,238043,1,8,3:2:0:0:
288,0,238210,1,8,3:3:0:0:
354,86,238376,6,0,B|366:145|366:145|366:156|366:156|378:221,1,125.999996154785,2|8,2:0|0:0,0:0:0:0:
462,274,238876,2,0,P|435:219|375:209,1,125.999996154785,2|8,0:0|0:0,0:0:0:0:
288,158,239376,2,0,P|270:192|244:214,1,62.9999980773926,2|0,0:0|0:0,0:0:0:0:
173,250,239710,1,8,3:2:0:0:
173,250,239793,1,8,3:3:0:0:
173,250,239876,1,8,3:0:0:0:
277,308,240043,6,0,B|348:292|330:336|398:323,1,125.999996154785,2|8,2:2|0:0,0:0:0:0:
487,371,240543,1,2,2:0:0:0:
487,371,240710,2,0,B|481:336|481:336|481:309|481:309|469:229,1,125.999996154785,0|2,2:0|0:0,0:0:0:0:
471,246,241376,2,0,L|479:184,1,62.9999980773926,8|8,3:2|3:3,0:0:0:0:
512,55,241710,6,0,P|488:104|411:87,1,125.999996154785,2|8,0:0|0:0,0:0:0:0:
386,195,242210,2,0,P|331:198|307:123,1,125.999996154785,2|8,0:0|0:0,0:0:0:0:
199,75,242710,2,0,L|269:70,1,62.9999980773926,2|0,0:0|0:0,0:0:0:0:
142,20,243043,2,8,L|106:25,2,31.4999990386963,8|8|8,3:2|3:3|3:3,2:3:0:0:
278,57,243376,6,0,B|347:49|329:94|397:85,1,125.999996154785,2|8,2:2|0:0,0:0:0:0:
289,147,243876,1,2,0:0:0:0:
289,147,244043,2,0,B|271:184|271:184|300:263,1,125.999996154785,0|2,0:0|0:0,0:0:0:0:
301,264,244710,2,0,P|331:254|373:261,1,62.9999980773926,8|8,3:2|3:3,0:0:0:0:
256,340,245043,6,0,B|224:364|224:364|139:349,1,125.999996154785,2|8,0:0|0:0,0:0:0:0:
35,384,245543,2,0,B|29:326|29:326|30:316|30:316|23:258,1,125.999996154785,2|8,0:0|0:0,0:0:0:0:
26,157,246043,1,2,3:2:0:0:
112,209,246210,1,8,3:3:0:0:
30,266,246376,1,8,3:2:0:0:
30,266,246460,1,8,3:3:0:0:
30,266,246543,1,8,3:3:0:0:
146,337,246710,6,0,B|249:354|249:354|294:329,1,146.999995513916,2|8,1:2|0:0,0:0:0:0:
346,204,247210,2,0,P|322:162|358:77,1,146.999995513916,2|8,1:2|0:0,0:0:0:0:
201,139,247710,2,0,P|237:78|213:12,1,146.999995513916,2|8,1:2|0:0,0:0:0:0:
132,39,248210,1,8,3:3:0:0:
283,60,248376,6,0,B|328:59|328:59|366:83|366:83|429:83,1,146.999995513916,2|8,0:0|0:0,0:0:0:0:
512,220,248876,2,0,B|540:172|495:112|495:112|471:151,1,146.999995513916,2|8,0:0|0:0,0:0:0:0:
384,285,249376,1,2,0:0:0:0:
478,139,249543,1,2,0:0:0:0:
512,311,249710,1,8,3:2:0:0:
512,311,249793,1,8,3:3:0:0:
512,311,249876,1,8,3:3:0:0:
375,174,250043,6,0,B|300:147|307:201|233:183,1,146.999995513916,2|8,1:2|0:0,0:0:0:0:
76,48,250543,2,0,P|145:57|163:124,1,146.999995513916,2|8,1:2|0:0,0:0:0:0:
37,179,251043,1,2,2:2:0:0:
162,124,251210,1,2,2:2:0:0:
133,255,251376,1,8,3:2:0:0:
77,48,251543,1,8,3:3:0:0:
133,255,251710,6,0,B|220:249|184:306|269:302,1,146.999995513916,2|8,0:0|0:0,0:0:0:0:
372,383,252210,2,0,B|349:350|349:350|361:228,1,146.999995513916,2|8,0:0|0:0,0:0:0:0:
512,158,252710,5,2,3:2:0:0:
359,243,252876,1,8,3:3:0:0:
512,358,253043,5,10,3:2:0:0:
504,337,253126,1,8,3:3:0:0:
495,316,253210,1,8,3:3:0:0:
487,295,253293,1,8,3:3:0:0:
477,275,253376,6,0,B|328:212|370:372|222:324,1,280,2|0,1:2|3:3,0:0:0:0:
95,381,255043,2,0,B|48:355|19:264|85:204|85:204|125:217|139:262,1,280,2|0,3:2|3:0,0:0:0:0:
236,341,256710,6,0,B|384:331,1,140,2|0,3:2|3:3,0:0:0:0:
483,361,257710,1,2,2:2:0:0:
511,252,258043,1,2,3:2:0:0:
403,222,258376,2,0,L|322:206,2,70,2|0|0,3:2|3:0|3:0,0:0:0:0:
485,146,259376,2,0,P|492:108|480:74,1,70,2|0,2:2|3:0,0:0:0:0:
386,18,260043,6,0,B|339:17|339:17|313:47|313:47|254:59,1,140,2|0,3:2|3:3,0:0:0:0:
158,103,261043,2,0,L|163:26,1,70,2|0,0:0|3:0,0:0:0:0:
70,133,261710,2,0,L|55:65,2,70,2|0|0,3:2|3:0|3:0,0:0:0:0:
70,245,262710,2,0,P|35:231|1:235,1,70,2|0,2:2|3:0,0:0:0:0:
111,342,263376,6,0,P|177:354|225:294,1,140,2|0,3:2|3:3,0:0:0:0:
259,198,264376,1,2,0:0:0:0:
356,253,264710,1,2,3:2:0:0:
409,154,265043,2,0,L|424:81,2,70,2|0|0,3:2|3:0|3:0,0:0:0:0:
409,154,266376,2,0,L|397:204,1,45.4999979171754,2|0,3:2|2:0,0:0:0:0:
486,285,266710,6,0,B|438:270|438:270|413:283|413:283|362:271,1,125.999996154785,2|0,2:0|2:0,0:0:0:0:
215,135,267210,1,8,3:3:0:0:
220,123,267293,1,8,3:3:0:0:
225,111,267376,5,2,3:2:0:0:
366,272,267543,1,8,3:3:0:0:
323,51,267710,5,2,3:2:0:0:
232,315,267876,1,8,3:3:0:0:
216,0,268043,5,2,3:2:0:0:
284,237,268210,1,8,3:3:0:0:
456,34,268376,6,0,B|402:31|402:31|371:52|371:52|322:50,1,140,2|0,1:2|2:0,0:0:0:0:
63,0,268876,1,6,1:2:0:0:
4,370,269710,6,0,L|12:343,3,20.9999993591309,8|8|8|8,3:3|3:3|3:3|3:3,0:0:0:0:
58,297,270043,6,0,B|164:276|131:359|235:340,1,181.999991668702,6|8,1:2|0:2,0:2:0:0:
343,194,270543,2,0,B|269:187|289:238|215:237,1,140,2|8,1:2|0:2,0:2:0:0:
338,376,271043,2,0,P|339:338|354:299,1,70,2|0,0:2|0:2,0:2:0:0:
467,165,271376,1,8,0:0:0:0:
317,113,271543,1,8,0:0:0:0:
467,245,271710,6,0,B|490:261|490:261|499:190|499:190|468:166,1,140,2|8,2:2|0:2,0:2:0:0:
382,42,272210,2,0,B|358:70|358:70|249:83,1,140,2|8,2:2|0:2,0:2:0:0:
93,105,272710,2,0,B|97:73|97:73|100:69|100:69|105:34,1,70,2|0,3:2|3:0,0:0:0:0:
245,199,273043,2,0,L|263:157,2,35,8|8|8,3:2|3:3|3:3,2:3:0:0:
135,295,273376,6,0,B|69:266|64:319|-1:288,1,140,2|8,1:2|0:2,0:2:0:0:
118,210,273876,2,0,P|165:186|156:96,1,140,2|8,1:2|0:2,0:2:0:0:
286,3,274376,2,0,P|273:32|279:78,1,70,2|0,0:2|0:2,0:2:0:0:
287,82,274626,1,2,0:2:0:0:
300,92,274710,2,0,L|372:82,1,70,8|8,2:2|2:2,2:2:0:0:
512,225,275043,6,0,P|500:159|436:134,1,140,2|8,2:2|0:2,0:2:0:0:
305,267,275543,2,0,B|381:262|361:211|431:215,1,140,2|8,2:2|0:2,0:2:0:0:
300,92,276043,2,0,P|301:126|291:159,1,70,2|0,3:2|3:0,0:0:0:0:
206,18,276376,1,8,3:2:0:0:
206,18,276460,1,8,3:3:0:0:
206,18,276543,1,8,3:3:0:0:
76,110,276710,6,0,B|129:104|129:104|157:120|157:120|211:118,1,140,2|8,1:2|0:2,0:2:0:0:
76,193,277210,2,0,P|27:242|49:306,1,140,2|8,1:2|0:2,0:2:0:0:
170,384,277710,2,0,L|177:305,1,70,2|0,0:2|0:2,0:2:0:0:
292,175,278043,1,8,0:0:0:0:
371,342,278210,1,8,0:0:0:0:
512,184,278376,6,0,B|439:171|461:233|384:226,1,140,2|8,2:2|0:2,0:2:0:0:
213,126,278876,2,0,P|234:48|187:-2,1,140,2|8,2:2|0:2,0:2:0:0:
51,88,279376,2,0,L|125:77,1,70,2|0,3:2|3:0,0:0:0:0:
231,209,279710,2,0,L|264:218,2,35,8|8|8,3:2|3:3|3:3,2:3:0:0:
55,315,280043,6,0,B|6:269|51:188|51:188|66:216,1,167.999994873047,2|8,1:2|0:2,0:2:0:0:
175,335,280543,2,0,B|228:334|228:334|255:355|255:355|348:369,1,167.999994873047,2|8,1:2|0:2,0:2:0:0:
512,295,281043,1,2,0:0:0:0:
395,173,281210,1,2,0:0:0:0:
393,190,281293,1,2,0:2:0:0:
391,207,281376,2,0,L|382:292,1,70,8|8,2:2|2:2,2:2:0:0:
296,117,281710,6,0,P|264:49|185:46,1,140,2|8,2:2|0:2,0:2:0:0:
84,128,282210,2,0,B|182:142|182:142|215:118,1,140,2|8,1:2|0:2,0:2:0:0:
372,0,282710,1,2,3:2:0:0:
205,38,282876,1,2,3:2:0:0:
343,162,283043,1,8,3:2:0:0:
343,162,283126,1,8,3:3:0:0:
343,162,283210,1,8,3:3:0:0:
511,68,283376,6,0,B|428:43|445:105|363:82,1,154.000004699707,2|8,1:2|0:2,0:2:0:0:
438,244,283876,2,0,P|494:211|481:147,1,140,2|8,1:2|0:2,0:2:0:0:
375,15,284376,2,0,P|374:56|350:99,1,70,2|0,0:2|0:2,0:2:0:0:
178,149,284710,1,8,0:0:0:0:
224,0,284876,1,8,0:0:0:0:
303,204,285043,6,0,B|329:144|278:98|278:98|253:142,1,140,2|8,2:2|0:2,0:2:0:0:
221,256,285543,2,0,P|154:277|86:228,1,140,2|8,2:2|0:2,0:2:0:0:
0,149,286043,2,0,L|78:132,1,70,2|0,3:2|3:0,0:0:0:0:
174,44,286376,2,0,L|160:1,2,35,8|8|8,3:2|3:3|3:3,2:3:0:0:
298,186,286710,6,0,B|307:158|307:158|275:86|275:86|262:130,1,140,2|8,1:2|0:2,0:2:0:0:
380,213,287210,2,0,B|428:206|428:206|460:227|460:227|523:216,1,140,2|8,1:2|0:2,0:2:0:0:
431,363,287710,1,2,2:2:0:0:
440,348,287793,2,0,P|429:314|404:291,1,70,8|2,2:2|2:2,2:2:0:0:
386,292,288043,2,0,L|310:307,1,70,8|8,2:2|2:2,2:2:0:0:
479,146,288376,6,0,P|481:71|416:31,1,154.000004699707,2|8,2:2|0:2,0:2:0:0:
249,159,288876,2,0,B|335:171|314:108|391:121,1,154.000004699707,2|8,2:2|0:2,0:2:0:0:
204,9,289376,2,0,P|202:64|193:84,1,77.0000023498536,2|0,3:2|3:0,0:0:0:0:
27,144,289710,1,8,3:2:0:0:
29,132,289793,1,8,3:3:0:0:
32,121,289876,1,8,3:3:0:0:
154,228,290043,6,0,B|209:236|209:236|229:271|229:271|306:298,1,167.999994873047,2|8,1:2|0:2,0:2:0:0:
479,356,290543,2,0,B|450:384|450:384|383:355|412:277,1,167.999994873047,2|8,1:2|0:2,0:2:0:0:
512,96,291043,5,2,0:0:0:0:
422,288,291210,1,2,0:0:0:0:
422,288,291293,1,2,0:0:0:0:
422,288,291376,1,8,0:0:0:0:
282,120,291543,1,8,0:0:0:0:
414,0,291710,6,0,B|399:61|399:61|412:123|412:123|389:190,1,181.999991668702,2|8,1:2|0:2,0:2:0:0:
257,360,292210,2,0,B|250:317|250:317|248:312|248:312|241:267,1,90.9999958343508,2|0,1:2|2:0,0:0:0:0:
95,53,292543,5,8,2:3:0:0:
142,271,292710,1,2,2:2:0:0:
268,5,292876,1,0,2:2:0:0:
347,279,293043,1,8,3:2:0:0:
347,279,293126,1,8,3:3:0:0:
347,279,293210,1,8,3:3:0:0:
510,55,293376,6,0,B|478:10|478:10|450:117,1,157.500006008148,6|0,1:2|0:2,0:2:0:0:
440,177,293710,1,8,2:2:0:0:
505,339,293876,2,0,P|494:273|432:250,1,140,2|8,1:2|0:2,0:2:0:0:
309,358,294376,2,0,L|385:352,1,70,2|0,0:2|0:2,0:2:0:0:
262,206,294710,1,8,0:0:0:0:
176,357,294876,1,8,0:0:0:0:
94,208,295043,6,0,B|80:185|80:185|94:105|94:105|110:134,1,140,2|8,2:2|0:2,0:2:0:0:
192,245,295543,2,0,B|250:246|250:246|268:264|268:264|340:267,1,140,2|8,2:2|0:2,0:2:0:0:
449,355,296043,2,0,B|445:323|445:323|447:317|447:317|442:269,1,70,2|0,3:2|3:0,0:0:0:0:
501,150,296376,2,0,L|516:192,2,35,8|8|8,3:2|3:3|3:3,2:3:0:0:
362,48,296710,6,0,B|293:25|295:79|225:60,1,140,2|8,1:2|0:2,0:2:0:0:
59,22,297210,2,0,P|115:22|126:112,1,140,2|8,1:2|0:2,0:2:0:0:
28,193,297710,2,0,P|66:177|108:180,1,70,2|0,0:2|0:2,0:2:0:0:
107,188,297960,1,2,0:2:0:0:
119,199,298043,2,0,P|143:216|192:223,1,70,8|8,2:2|2:2,2:2:0:0:
309,116,298376,6,0,B|277:78|303:17|303:17|279:21|262:61,1,140,2|8,2:2|0:2,0:2:0:0:
401,148,298876,2,0,P|469:100|456:26,1,140,2|8,2:2|0:2,0:2:0:0:
512,245,299376,2,0,P|483:232|420:222,1,70,2|0,3:2|3:0,0:0:0:0:
338,313,299710,1,8,3:2:0:0:
338,313,299793,1,8,3:3:0:0:
338,313,299876,1,8,3:3:0:0:
493,374,300043,6,0,B|520:345|520:345|510:222,1,140,2|8,1:2|0:2,0:2:0:0:
410,90,300543,2,0,P|385:152|319:162,1,140,2|8,1:2|0:2,0:2:0:0:
212,59,301043,2,0,L|297:46,1,70,2|0,0:2|0:2,0:2:0:0:
180,178,301376,1,8,0:0:0:0:
103,22,301543,1,8,0:0:0:0:
0,172,301710,6,0,B|45:157|45:157|67:129|67:129|143:108,1,140,2|8,2:2|0:2,0:2:0:0:
40,246,302210,2,0,P|65:308|129:328,1,140,2|8,2:2|0:2,0:2:0:0:
253,381,302710,2,0,L|274:284,1,70,2|0,3:2|3:0,0:0:0:0:
137,228,303043,2,0,L|124:182,2,35,8|8|8,3:2|3:3|3:3,2:3:0:0:
343,180,303376,6,0,B|385:130|344:49|344:49|332:81,1,167.999994873047,2|8,1:2|0:2,0:2:0:0:
201,201,303876,2,0,P|125:227|59:180,1,167.999994873047,2|8,1:2|0:2,0:2:0:0:
158,39,304376,1,2,0:0:0:0:
208,220,304543,1,2,0:0:0:0:
213,236,304626,1,2,0:2:0:0:
218,252,304710,2,0,B|225:280|225:280|224:289|224:289|234:331,1,70,8|8,2:2|2:2,2:2:0:0:
424,384,305043,6,0,B|436:322|436:322|436:311|436:311|451:218,1,140,2|8,2:2|0:2,0:2:0:0:
512,85,305543,2,0,P|475:135|397:120,1,140,2|8,2:2|0:2,0:2:0:0:
292,0,306043,1,2,3:2:0:0:
219,151,306210,1,2,3:2:0:0:
128,19,306376,1,8,3:2:0:0:
128,19,306460,1,8,3:3:0:0:
128,19,306543,1,8,3:3:0:0:
0,127,306710,6,0,B|102:100|102:100|141:133,1,154.000004699707,2|8,1:2|0:2,0:2:0:0:
182,318,307210,2,0,P|138:267|162:205,1,140,2|8,1:2|0:2,0:2:0:0:
314,99,307710,2,0,L|301:176,1,70,2|0,0:2|0:2,0:2:0:0:
382,293,308043,1,8,0:0:0:0:
460,174,308210,1,8,0:0:0:0:
512,311,308376,6,0,B|423:275|423:275|368:300,1,140,2|8,2:2|0:2,0:2:0:0:
302,168,308876,2,0,P|302:247|244:279,1,140,2|8,2:2|0:2,0:2:0:0:
152,376,309376,2,0,L|144:301,1,70,2|0,3:2|3:0,0:0:0:0:
51,218,309710,2,0,L|-9:210,2,35,8|8|8,3:2|3:3|3:3,2:3:0:0:
195,128,310043,6,0,B|234:79|190:18|190:18|182:53,1,140,2|8,1:2|0:2,0:2:0:0:
296,152,310543,2,0,P|354:152|402:85,1,140,2|8,1:2|0:2,0:2:0:0:
507,240,311043,1,2,2:2:0:0:
503,222,311126,2,0,P|467:201|421:204,1,70,8|2,2:2|2:2,2:2:0:0:
424,208,311376,2,0,L|406:296,1,70,8|8,2:2|2:2,2:2:0:0:
239,382,311710,6,0,B|233:318|233:318|227:307|227:307|217:230,1,154.000004699707,2|8,2:2|0:2,0:2:0:0:
124,138,312210,2,0,B|82:102|11:130|11:130|29:148|41:147,1,154.000004699707,2|8,2:2|0:2,0:2:0:0:
200,67,312710,2,0,P|228:52|283:46,1,77.0000023498536,2|0,3:2|3:0,0:0:0:0:
424,62,313043,1,8,3:2:0:0:
427,50,313126,1,8,3:3:0:0:
430,38,313210,1,8,3:3:0:0:
507,213,313376,6,0,B|529:185|529:185|509:92|509:92|481:142,1,167.999994873047,2|8,1:2|0:2,0:2:0:0:
426,270,313876,2,0,B|368:262|368:262|317:289|317:289|262:284,1,167.999994873047,2|8,1:2|0:2,0:2:0:0:
0,264,314376,5,2,0:0:0:0:
220,196,314543,1,2,0:0:0:0:
220,196,314626,1,2,0:0:0:0:
220,196,314710,1,8,0:0:0:0:
91,372,314876,1,8,0:0:0:0:
6,166,315043,6,0,B|-37:108|11:38|11:38|44:45|57:95,1,195.999994018555,2|8,1:2|0:2,0:2:0:0:
159,270,315543,1,2,1:2:0:0:
159,270,315876,6,0,L|167:213,1,41.9999987182618,2|2,0:0|0:0,0:0:0:0:
141,84,316376,2,0,L|119:59,2,20.9999993591309,2|0|0,3:2|3:0|3:0,0:0:0:0:
256,53,316710,6,0,B|370:41|319:102|434:93,1,181.999991668702,6|8,1:2|0:2,0:2:0:0:
512,253,317210,2,0,P|500:181|428:175,1,154.000004699707,2|8,1:2|0:2,0:2:0:0:
338,271,317710,2,0,L|248:263,1,77.0000023498536,2|0,0:2|0:2,0:2:0:0:
247,270,317960,1,2,0:2:0:0:
234,279,318043,2,0,L|213:189,1,77.0000023498536,8|8,0:2|0:2,0:2:0:0:
37,28,318376,6,0,P|109:28|123:101,1,154.000004699707,2|8,2:2|0:2,0:2:0:0:
39,227,318876,2,0,B|-9:196|15:119|15:119|53:100,1,154.000004699707,2|8,2:2|0:2,0:2:0:0:
200,6,319376,2,0,P|208:43|241:62,1,77.0000023498536,2|0,3:2|3:2,0:2:0:0:
371,61,319710,2,0,L|387:3,2,38.5000011749268,8|8|8,3:2|3:3|3:3,2:3:0:0:
512,195,320043,6,0,P|487:127|416:136,1,154.000004699707,2|8,1:2|0:2,0:2:0:0:
381,284,320543,2,0,P|356:351|285:342,1,154.000004699707,2|8,1:2|0:2,0:2:0:0:
190,233,321043,2,0,L|266:212,1,77.0000023498536,2|0,0:2|0:2,0:2:0:0:
279,209,321293,1,2,0:2:0:0:
293,204,321376,2,0,P|305:158|291:109,1,77.0000023498536,8|8,0:2|0:2,0:2:0:0:
120,0,321710,6,0,B|97:173,1,167.999994873047,2|8,2:2|0:2,0:2:0:0:
0,337,322210,2,0,P|21:253|100:251,1,167.999994873047,2|8,2:2|0:2,0:2:0:0:
296,361,322710,5,2,3:2:0:0:
293,126,322876,1,2,3:2:0:0:
98,253,323043,1,8,3:2:0:0:
98,253,323126,1,8,3:3:0:0:
98,253,323210,1,8,3:0:0:0:
318,375,323376,6,0,P|366:329|324:209,1,195.999994018555,6|8,1:2|0:2,0:2:0:0:
238,28,323876,2,0,B|204:75|204:75|61:91,1,195.999994018555,2|8,1:2|0:2,0:2:0:0:
250,204,324376,2,0,P|262:163|287:138,1,70,2|0,0:2|0:2,0:2:0:0:
293,138,324626,1,2,0:2:0:0:
306,135,324710,2,0,L|399:123,1,70,8|8,0:2|0:2,0:2:0:0:
222,28,325043,6,0,B|129:10|152:67|64:56,1,161.000003070831,2|8,2:2|0:2,0:2:0:0:
207,142,325543,2,0,B|300:148|263:197|350:209,1,161.000003070831,2|8,2:2|0:2,0:2:0:0:
512,155,326043,1,2,3:2:0:0:
380,38,326210,1,2,3:2:0:0:
355,215,326376,1,8,3:2:0:0:
355,215,326460,1,8,3:3:0:0:
355,215,326543,1,8,3:0:0:0:
464,331,326710,6,0,B|504:268|446:207|446:207|435:227|433:263,1,181.999991668702,2|8,1:2|0:2,0:2:0:0:
283,353,327210,2,0,P|221:366|136:281,1,181.999991668702,2|8,1:2|0:2,0:2:0:0:
0,184,327710,6,0,B|44:176|44:176|52:177|52:177|96:172,1,97.9999970092774,2|8,3:2|2:3,0:2:0:0:
246,23,328043,2,0,B|201:15|201:15|193:16|193:16|149:11,1,97.9999970092774,2|8,3:2|2:3,0:2:0:0:
435,175,328376,5,2,1:2:0:0:
374,15,328542,1,8,3:3:0:0:
266,150,328709,1,8,3:2:0:0:
491,61,328876,5,2,1:2:0:0:
336,254,329042,1,8,3:3:0:0:
246,23,329209,1,8,3:2:0:0:
146,315,329376,5,2,1:2:0:0:
360,111,329542,1,0,3:0:0:0:
19,15,329709,5,6,1:2:0:0:
