osu file format v14

[General]
AudioFilename: audio.mp3
AudioLeadIn: 0
PreviewTime: 46444
Countdown: 1
SampleSet: Soft
StackLeniency: 0.7
Mode: 2
LetterboxInBreaks: 0
WidescreenStoryboard: 0

[Editor]
Bookmarks: 324,11358,22392,33427,47220,58255,69289,83082,94548
DistanceSpacing: 1.1
BeatDivisor: 4
GridSize: 4
TimelineZoom: 1

[Metadata]
Title:FLOWERS
TitleUnicode:FLOWERS
Artist:Shimotsuki Haruka
ArtistUnicode:霜月はるか
Creator:celerih
Version:Rain
Source:Flowers -Le volume sur printemps-
Tags:visual novel innocent grey jast usa galgame 鈴湯 Suzuyu spring AJamez LogOffNow
BeatmapID:1714687
BeatmapSetID:817696

[Difficulty]
HPDrainRate:6
CircleSize:3.8
OverallDifficulty:9
ApproachRate:9
SliderMultiplier:1.8
SliderTickRate:2

[Events]
//Background and Video events
0,0,"FLOWERS BG.jpg",0,0
//Break Periods
//Storyboard Layer 0 (Background)
//Storyboard Layer 1 (Fail)
//Storyboard Layer 2 (Pass)
//Storyboard Layer 3 (Foreground)
//Storyboard Sound Samples

[TimingPoints]
324,344.827586206897,4,2,1,35,1,0
324,-100,4,2,1,35,0,0
9979,-100,4,2,1,35,0,0
11358,-100,4,2,1,20,0,0
33427,-100,4,2,1,35,0,0
46530,-100,4,2,1,50,0,0
47220,-100,4,2,1,60,0,1
69289,-100,4,2,1,60,0,0
82392,-100,4,2,1,40,0,0
94289,-100,4,2,1,20,0,0

[Colours]
Combo1 : 218,226,226
Combo2 : 173,207,218
Combo3 : 193,241,184

[HitObjects]
98,196,151,5,0,0:0:0:0:
73,158,237,1,0,0:0:0:0:
195,208,324,6,0,P|250:204|243:26,1,270,2|0,0:0|0:0,0:0:0:0:
182,45,1013,1,2,0:0:0:0:
111,73,1186,1,2,0:0:0:0:
73,93,1358,1,0,0:0:0:0:
240,160,1530,6,0,P|327:160|376:323,1,270,2|0,0:0|0:0,0:0:0:0:
196,276,2392,1,0,0:0:0:0:
269,186,2910,1,0,0:0:0:0:
292,147,2996,1,0,0:0:0:0:
174,278,3082,6,0,P|162:224|328:183,1,270,2|0,0:0|0:0,0:0:0:0:
139,200,3944,1,2,0:0:0:0:
58,188,4117,1,0,0:0:0:0:
255,255,4289,6,0,P|174:256|151:170,1,180,2|0,0:0|0:0,0:0:0:0:
248,179,4806,2,0,P|351:164|257:79,1,270,0|0,0:0|0:0,0:0:0:0:
190,86,5496,2,0,L|154:-9,1,90,0|0,0:0|0:0,0:0:0:0:
455,210,5841,6,0,P|470:101|310:74,1,270,4|0,1:2|0:0,0:0:0:0:
268,138,6530,2,0,P|367:71|273:38,1,270,2|0,0:0|0:0,0:0:0:0:
105,129,7220,6,0,L|256:145,2,135,2|0|0,0:0|0:0|0:0,0:0:0:0:
31,183,7910,1,2,0:0:0:0:
105,129,8082,2,0,L|215:141,2,90,0|0|0,0:0|0:0|0:0,0:0:0:0:
362,264,8599,6,0,P|417:258|352:134,1,270,4|0,1:2|0:0,0:0:0:0:
270,180,9289,2,0,P|236:119|386:51,1,270,2|0,0:0|0:0,0:0:0:0:
195,176,9979,1,2,0:0:0:0:
256,192,10151,12,0,11186,0:0:0:0:
353,178,11358,5,0,0:0:0:0:
235,196,11703,2,0,L|179:118,2,90,2|0|2,0:0|0:0|0:0,0:0:0:0:
380,186,12565,1,2,0:0:0:0:
291,146,12737,6,0,L|274:45,1,90,2|0,0:0|0:0,0:0:0:0:
423,145,13255,2,0,P|426:80|321:40,1,180,2|0,0:0|0:0,0:0:0:0:
250,80,13772,1,2,0:0:0:0:
167,74,13944,1,0,0:0:0:0:
322,203,14117,6,0,P|386:174|318:136,1,180,2|2,0:0|0:0,0:0:0:0:
254,158,14634,1,0,0:0:0:0:
95,73,14806,1,2,0:0:0:0:
162,104,14979,1,0,0:0:0:0:
79,85,15151,1,2,0:0:0:0:
252,36,15324,1,0,0:0:0:0:
156,212,15841,6,0,P|72:208|29:117,2,180,2|2|2,0:0|0:0|0:0,0:0:0:0:
439,129,16875,5,0,0:0:0:0:
180,256,17565,2,0,P|118:228|105:113,1,180,2|2,0:0|0:0,0:0:0:0:
292,155,18082,1,0,0:0:0:0:
370,177,18255,6,0,P|439:143|441:30,1,180,2|0,0:0|0:0,0:0:0:0:
225,206,19289,1,0,0:0:0:0:
147,185,19461,1,0,0:0:0:0:
253,155,19634,6,0,P|288:115|199:54,1,180,2|0,0:0|0:0,0:0:0:0:
368,204,20151,1,0,0:0:0:0:
434,168,20324,1,2,0:0:0:0:
434,168,20496,1,0,0:0:0:0:
368,204,20668,1,2,0:0:0:0:
192,195,20841,6,0,P|190:110|287:95,1,180,2|2,0:0|0:0,0:0:0:0:
351,136,21358,1,2,0:0:0:0:
421,118,21530,1,0,0:0:0:0:
323,117,21703,1,2,0:0:0:0:
480,180,21875,1,2,0:0:0:0:
214,233,22392,5,0,0:0:0:0:
347,187,22737,2,0,L|280:119,2,90,2|0|2,0:0|0:0|0:0,0:0:0:0:
169,216,23599,1,2,0:0:0:0:
256,194,23771,6,0,L|273:93,1,90,2|0,0:0|0:0,0:0:0:0:
131,71,24289,2,0,P|49:96|41:180,1,180,2|0,0:0|0:0,0:0:0:0:
124,197,24806,1,2,0:0:0:0:
41,180,24978,1,0,0:0:0:0:
216,286,25151,6,0,P|285:280|323:174,1,180,2|0,0:0|0:0,0:0:0:0:
244,178,25668,1,0,0:0:0:0:
402,130,25840,1,2,0:0:0:0:
335,161,26013,1,0,0:0:0:0:
418,142,26185,1,2,0:0:0:0:
245,93,26358,1,2,0:0:0:0:
356,212,26875,6,0,L|148:173,1,180,2|0,0:0|0:0,0:0:0:0:
337,122,27392,1,2,0:0:0:0:
362,35,27565,1,0,0:0:0:0:
194,157,27909,5,0,0:0:0:0:
395,263,28599,2,0,P|456:200|388:146,1,180,2|2,0:0|0:0,0:0:0:0:
238,174,29116,1,0,0:0:0:0:
163,215,29289,6,0,L|363:148,1,180,2|0,0:0|0:0,0:0:0:0:
200,199,30668,6,0,P|135:197|88:85,2,180,2|0|0,0:0|0:0|0:0,0:0:0:0:
372,204,31530,1,0,0:0:0:0:
453,202,31703,2,0,P|471:120|371:80,1,180,2|0,0:0|0:0,0:0:0:0:
195,275,32392,5,2,0:0:0:0:
280,292,32565,2,0,P|361:261|392:158,1,180,0|0,0:0|0:0,0:0:0:0:
215,165,33255,1,0,0:0:0:0:
170,156,33341,1,0,0:0:0:0:
286,220,33427,6,0,P|351:196|342:64,1,180,2|0,0:0|0:0,0:0:0:0:
188,137,34117,2,0,L|376:98,1,180,0|0,1:0|0:0,0:0:0:0:
188,245,34634,6,0,P|96:182|199:134,1,270,2|2,0:0|0:0,0:0:0:0:
284,165,35324,1,0,0:0:0:0:
113,258,35496,2,0,L|66:146,1,90,0|0,1:0|0:0,0:0:0:0:
171,178,35841,2,0,L|63:148,1,90,2|0,0:0|0:0,0:0:0:0:
262,257,36186,6,0,P|315:248|362:123,1,180,2|2,0:0|0:0,0:0:0:0:
276,133,36703,1,0,0:0:0:0:
104,213,36875,2,0,L|24:219,2,60,2|0|0,1:2|0:0|0:0,0:0:0:0:
214,266,37220,2,0,L|294:272,2,60,2|0|0,0:0|0:0|0:0,0:0:0:0:
100,189,37565,6,0,L|75:91,1,90,2|0,0:0|0:0,0:0:0:0:
166,119,37910,1,0,0:0:0:0:
332,102,38082,1,2,0:0:0:0:
121,254,38944,6,0,P|65:173|141:169,1,180,0|2,0:0|0:0,0:0:0:0:
259,178,39634,2,0,P|309:161|313:42,1,180,2|0,1:2|0:0,0:0:0:0:
149,143,40151,6,0,L|348:114,1,180,2|0,0:0|0:0,0:0:0:0:
252,218,40668,2,0,L|196:37,1,180,2|0,0:0|1:0,0:0:0:0:
286,89,41186,1,2,0:0:0:0:
116,148,41617,1,0,0:0:0:0:
222,199,41703,6,0,L|405:158,1,180,2|2,0:0|0:0,0:0:0:0:
208,262,42392,2,0,L|177:171,1,90,2|0,1:2|0:0,0:0:0:0:
270,97,42737,2,0,L|222:172,1,90,2|0,0:0|0:0,0:0:0:0:
63,198,43082,2,0,L|252:159,1,180,2|2,0:0|0:0,0:0:0:0:
152,138,43599,1,0,0:0:0:0:
413,188,44117,1,2,0:0:0:0:
252,210,44461,5,2,0:0:0:0:
442,239,44806,1,2,0:0:0:0:
216,190,45324,1,2,0:0:0:0:
442,239,45841,5,2,0:0:0:0:
232,281,46530,1,8,0:0:0:0:
191,274,46617,1,8,0:0:0:0:
395,225,46703,2,0,L|489:201,1,90,0|2,1:0|0:0,0:0:0:0:
39,155,47220,6,0,P|62:69|172:59,1,180,6|8,1:2|0:0,0:0:0:0:
233,89,47737,1,0,0:0:0:0:
403,138,47910,2,0,L|306:178,2,90,0|0|8,0:0|1:0|0:0,0:0:0:0:
219,98,48427,1,2,1:2:0:0:
471,190,48599,5,2,0:0:0:0:
390,224,48772,2,0,L|289:195,1,90,0|8,1:0|0:0,0:0:0:0:
29,81,49117,2,0,L|72:172,1,90,2|0,0:0|1:0,0:0:0:0:
237,128,49461,1,2,1:2:0:0:
480,192,49634,2,0,L|366:200,1,90,8|2,0:0|0:0,0:0:0:0:
91,261,49979,6,0,P|26:222|104:189,1,180,0|8,1:0|0:0,0:0:0:0:
267,215,50496,2,0,L|361:183,1,90,0|0,0:0|0:0,0:0:0:0:
80,119,50841,1,0,1:0:0:0:
159,133,51013,1,8,0:0:0:0:
318,90,51186,1,2,1:2:0:0:
40,178,51358,6,0,L|131:149,1,90,2|0,0:0|1:0,0:0:0:0:
397,184,51703,1,10,0:0:0:0:
310,207,51875,2,0,L|185:171,1,90,2|0,0:0|1:0,0:0:0:0:
394,133,52220,1,2,1:2:0:0:
120,236,52392,2,0,L|88:130,1,90,8|0,0:0|0:0,0:0:0:0:
437,200,52737,6,0,L|501:104,1,90,6|0,1:2|0:0,0:0:0:0:
211,125,53082,2,0,L|310:155,1,90,10|0,0:0|0:0,0:0:0:0:
51,276,53427,2,0,L|22:179,1,90,2|0,0:0|1:0,0:0:0:0:
197,194,53772,1,10,0:0:0:0:
450,165,53944,6,0,L|374:89,1,90,0|0,0:0|0:0,0:0:0:0:
225,183,54289,1,0,1:0:0:0:
476,156,54461,2,0,L|372:128,1,90,10|0,0:0|0:0,0:0:0:0:
216,204,54806,1,0,1:0:0:0:
460,247,54979,1,0,1:0:0:0:
129,223,55151,2,0,L|90:115,1,90,10|0,0:0|0:0,0:0:0:0:
443,175,55496,6,0,P|471:96|395:48,1,180,4|8,1:2|0:0,0:0:0:0:
67,174,56013,2,0,L|254:198,1,180,4|4,1:2|0:3,0:0:0:0:
100,218,56530,1,8,0:0:0:0:
363,119,56703,1,4,1:2:0:0:
60,153,56875,6,0,L|40:49,1,90,0|0,0:0|1:0,0:0:0:0:
218,203,57220,2,0,L|106:179,1,90,8|8,0:0|0:0,0:0:0:0:
172,166,57479,1,8,0:0:0:0:
423,196,57565,2,0,L|449:92,1,90,8|8,0:0|0:3,0:0:0:0:
85,266,57910,2,0,L|59:162,1,90,4|0,0:3|1:0,0:0:0:0:
464,246,58255,6,0,P|477:183|368:149,1,180,4|8,1:2|0:0,0:0:0:0:
307,170,58772,1,0,0:0:0:0:
473,113,58944,2,0,L|387:138,2,90,0|0|8,0:0|1:0|0:0,0:0:0:0:
312,74,59461,1,2,1:2:0:0:
54,194,59634,6,0,L|177:163,1,90,2|0,0:0|1:0,0:0:0:0:
305,232,59979,1,8,0:0:0:0:
60,98,60151,2,0,L|86:194,1,90,2|0,0:0|1:0,0:0:0:0:
243,86,60496,1,2,1:2:0:0:
488,176,60668,2,0,L|389:147,1,90,8|2,0:0|0:0,0:0:0:0:
99,285,61013,6,0,P|72:239|177:159,1,180,0|8,1:0|0:0,0:0:0:0:
59,148,61530,1,0,0:0:0:0:
240,200,61703,2,0,L|345:178,2,90,0|0|8,0:0|1:0|0:0,0:0:0:0:
406,181,62220,1,2,1:2:0:0:
100,283,62392,6,0,L|122:186,1,90,2|0,0:0|1:0,0:0:0:0:
408,268,62737,2,0,L|511:248,1,90,10|0,0:0|0:0,0:0:0:0:
331,337,63082,2,0,L|394:264,1,90,2|0,1:2|1:0,0:0:0:0:
71,260,63427,2,0,L|42:161,1,90,10|0,0:0|0:0,0:0:0:0:
359,218,63772,6,0,P|426:207|445:95,1,180,4|8,1:2|0:0,0:0:0:0:
378,113,64289,2,0,L|283:88,1,90,0|0,0:0|0:0,0:0:0:0:
461,46,64634,1,0,1:0:0:0:
150,145,64806,1,10,0:0:0:0:
448,200,64979,6,0,P|482:126|393:103,1,180,0|0,1:0|1:0,0:0:0:0:
240,183,65496,2,0,L|174:118,1,90,8|0,0:0|0:0,0:0:0:0:
351,229,65841,1,2,1:2:0:0:
123,201,66013,1,0,1:0:0:0:
379,223,66186,2,0,L|423:116,1,90,8|0,0:0|0:0,0:0:0:0:
48,182,66530,6,0,L|237:217,1,180,4|8,0:0|0:0,0:0:0:0:
475,77,67048,2,0,P|471:155|371:166,1,180,4|4,1:2|0:3,0:0:0:0:
110,93,67565,1,8,0:0:0:0:
375,177,67737,6,0,L|174:204,1,180,4|0,1:2|1:0,0:0:0:0:
458,260,68255,2,0,L|484:155,1,90,8|0,0:0|0:0,0:0:0:0:
435,177,68513,1,0,0:0:0:0:
222,269,68599,1,8,0:3:0:0:
172,260,68686,1,8,0:0:0:0:
140,222,68772,1,8,0:0:0:0:
138,172,68858,1,8,0:0:0:0:
360,133,68944,2,0,L|428:128,1,45,8|8,0:0|0:0,0:0:0:0:
171,150,69117,2,0,L|103:145,1,45,8|0,0:0|0:0,0:0:0:0:
393,224,69289,6,0,L|487:155,1,90,4|0,0:0|0:0,0:0:0:0:
306,264,69634,2,0,L|401:282,1,90,8|0,0:0|0:0,0:0:0:0:
149,181,69979,2,0,L|57:201,1,90,8|0,0:0|1:0,0:0:0:0:
244,122,70324,2,0,L|143:102,1,90,8|0,0:0|1:0,0:0:0:0:
446,226,70668,6,0,L|474:121,1,90,8|0,0:0|0:0,0:0:0:0:
303,198,71013,2,0,L|281:102,1,90,8|0,0:0|1:0,0:0:0:0:
438,162,71358,2,0,L|317:190,1,90,8|0,0:0|1:0,0:0:0:0:
95,87,71703,1,8,0:0:0:0:
340,121,71875,1,0,1:0:0:0:
64,200,72048,6,0,P|33:158|115:90,1,180,8|8,0:0|0:0,0:0:0:0:
385,146,72565,1,0,0:0:0:0:
472,175,72737,2,0,L|492:64,1,90,8|0,0:0|1:0,0:0:0:0:
225,201,73082,2,0,L|327:224,1,90,8|0,0:0|1:0,0:0:0:0:
37,169,73427,6,0,L|229:138,1,180,8|8,0:0|0:0,0:0:0:0:
468,237,73944,1,8,0:0:0:0:
419,225,74030,1,8,0:0:0:0:
370,212,74117,1,8,0:0:0:0:
27,231,74289,2,0,L|136:200,2,90,8|4|0,0:3|0:3|1:0,0:0:0:0:
381,283,74806,6,0,P|442:240|375:188,1,180,4|8,1:2|0:0,0:0:0:0:
200,251,75324,2,0,L|101:226,1,90,0|8,0:0|0:3,0:0:0:0:
408,179,75668,1,8,0:0:0:0:
426,142,75755,1,8,0:0:0:0:
443,105,75841,1,8,0:0:0:0:
74,237,76013,6,0,P|65:172|169:138,1,180,2|0,1:3|1:0,0:0:0:0:
460,230,76530,1,8,0:0:0:0:
292,283,76875,1,8,0:3:0:0:
248,273,76961,1,8,0:0:0:0:
248,273,77048,1,8,0:0:0:0:
292,283,77134,1,8,0:0:0:0:
453,215,77220,1,8,0:2:0:0:
354,181,77392,1,8,0:3:0:0:
309,190,77479,1,4,0:3:0:0:
107,258,77565,6,0,L|14:242,2,90,4|0|8,1:2|0:0|0:0,0:0:0:0:
413,207,78082,2,0,L|506:191,2,90,4|0|8,1:2|0:0|0:3,0:0:0:0:
137,168,78599,1,8,0:0:0:0:
450,253,78772,6,0,P|479:181|376:134,1,180,4|0,1:2|1:0,0:0:0:0:
145,223,79289,2,0,L|118:121,1,90,8|8,0:0|0:0,0:0:0:0:
166,146,79548,1,0,0:0:0:0:
414,212,79634,2,0,L|489:222,2,60,8|8|8,0:3|0:3|0:3,0:0:0:0:
157,237,79979,2,0,L|72:256,2,60,4|4|4,0:3|0:3|0:3,0:0:0:0:
413,284,80324,6,0,P|470:264|401:201,1,180,4|8,1:2|0:0,0:0:0:0:
96,205,80841,2,0,L|290:235,1,180,4|8,1:2|0:3,0:0:0:0:
106,143,81358,1,8,0:0:0:0:
384,235,81530,6,0,P|446:205|413:102,1,180,2|8,1:3|0:0,0:0:0:0:
104,167,82048,1,8,0:0:0:0:
218,291,82392,2,0,L|247:106,1,180,2|2,0:0|0:0,0:0:0:0:
73,249,83082,6,0,P|39:170|191:96,1,270,6|0,1:2|0:0,0:0:0:0:
252,120,83772,1,2,0:0:0:0:
331,123,83944,1,2,0:0:0:0:
377,104,84117,1,0,0:0:0:0:
211,209,84289,6,0,P|111:185|154:23,1,270,2|0,0:0|0:0,0:0:0:0:
293,129,85151,1,0,0:0:0:0:
173,158,85755,1,0,0:0:0:0:
287,249,85841,6,0,P|380:167|277:139,1,270,2|0,0:0|0:0,0:0:0:0:
125,187,86703,1,2,0:0:0:0:
44,163,86875,1,0,0:0:0:0:
221,263,87048,2,0,L|405:197,1,180,2|0,0:0|0:0,0:0:0:0:
292,200,87565,2,0,P|245:149|325:73,1,180,0|0,0:0|0:0,0:0:0:0:
180,211,88427,1,4,0:3:0:0:
152,176,88513,1,4,0:3:0:0:
269,252,88599,6,0,P|337:188|232:79,1,270,4|0,1:2|0:0,0:0:0:0:
343,293,89289,2,0,P|416:208|292:119,1,270,2|0,0:0|0:0,0:0:0:0:
146,156,89979,6,0,L|291:126,1,135,2|0,0:0|0:0,0:0:0:0:
176,243,90496,2,0,L|212:153,1,90,8|0,0:3|0:0,0:0:0:0:
45,160,90841,1,8,0:3:0:0:
18,74,91013,1,4,0:3:0:0:
443,198,91358,5,4,1:2:0:0:
166,159,92048,1,2,0:0:0:0:
325,208,92737,6,0,P|388:205|441:108,2,180,2|0|2,0:0|0:0|0:0,0:0:0:0:
152,150,93772,1,0,0:0:0:0:
256,192,94548,12,2,98729,0:0:0:0:
