osu file format v14

[General]
AudioFilename: audio.mp3
AudioLeadIn: 0
PreviewTime: 46856
Countdown: 0
SampleSet: Soft
StackLeniency: 0.5
Mode: 0
LetterboxInBreaks: 0
WidescreenStoryboard: 1

[Editor]
Bookmarks: 11856,33925,47718,78063,89097,111166,124960,155304,171856,180132,191166,202201,210477,221511,246339
DistanceSpacing: 1
BeatDivisor: 3
GridSize: 32
TimelineZoom: 1

[Metadata]
Title:FLOWERS
TitleUnicode:FLOWERS
Artist:Shimotsuki Haruka
ArtistUnicode:霜月はるか
Creator:Shirahane Suou
Version:Harmony
Source:FLOWERS -Le volume sur printemps-
Tags:春篇 haru hen the volume on spring innocent grey gray japanese pop video game visual novel opening 百合 yuri manyo 鈴湯 suzuyu spokenaway reisevia roda totsuki pache knowledge
BeatmapID:3402319
BeatmapSetID:1666487

[Difficulty]
HPDrainRate:5.5
CircleSize:4.2
OverallDifficulty:9
ApproachRate:9.3
SliderMultiplier:1.9
SliderTickRate:1

[Events]
//Background and Video events
0,0,"suou.jpg",0,0
//Break Periods
//Storyboard Layer 0 (Background)
//Storyboard Layer 1 (Fail)
//Storyboard Layer 2 (Pass)
//Storyboard Layer 3 (Foreground)
//Storyboard Layer 4 (Overlay)
//Storyboard Sound Samples

[TimingPoints]
822,344.827586206897,4,2,1,50,1,0
822,-200,4,2,1,50,0,0
5649,-400,4,2,1,50,0,0
6339,-200,4,2,1,50,0,0
9960,-400,4,2,1,50,0,0
10477,-200,4,2,1,50,0,0
11856,-400,4,2,1,40,0,0
22891,-250,4,2,1,40,0,0
27891,-166.666666666667,4,2,1,40,0,0
28408,-250,4,2,1,40,0,0
33925,-133.333333333333,4,2,1,50,0,0
45304,-250,4,2,1,50,0,0
46339,-400,4,2,1,50,0,0
47374,-166.666666666667,4,2,1,50,0,0
47718,-90.9090909090909,4,2,1,70,0,1
72201,-76.9230769230769,4,2,1,70,0,1
72546,-90.9090909090909,4,2,1,70,0,1
78063,-200,4,2,1,50,0,0
88753,-133.333333333333,4,2,1,60,0,0
122546,-250,4,2,1,60,0,0
123580,-400,4,2,1,60,0,0
124442,-200,4,2,1,60,0,0
124959,-90.9090909090909,4,2,1,60,0,1
149442,-76.9230769230769,4,2,1,70,0,1
149787,-90.9090909090909,4,2,1,70,0,1
155304,-133.333333333333,4,2,1,70,0,0
177890,-100,4,2,1,60,0,0
178235,-166.666666666667,4,2,1,60,0,0
178580,-333.333333333333,4,2,1,60,0,0
180132,-250.000000000001,4,2,1,40,0,0
190132,-166.666666666667,4,2,1,40,0,0
191166,-133.333333333333,4,2,1,40,0,0
202201,-117.647058823529,4,2,1,60,0,0
204615,-100,4,2,1,60,0,0
204959,-117.647058823529,4,2,1,60,0,0
210132,-117.647058823529,4,2,1,70,0,0
210477,-100,4,2,1,70,0,1
221511,-86.9565217391304,4,2,1,70,0,1
234959,-76.9230769230769,4,2,1,70,0,1
235304,-86.9565217391304,4,2,1,70,0,1
245390,-133.333333333333,4,2,1,70,0,0
246339,-200,4,2,1,50,0,0
251166,-400,4,2,1,50,0,0
251856,-200,4,2,1,50,0,0
255994,355.029585798817,4,2,1,50,1,0
255994,-285.714285714286,4,2,1,50,0,0
256704,-500,4,2,1,50,0,0
257059,303.030303030303,4,2,1,50,1,0
257362,400,4,2,1,50,1,0
257562,519.480519480519,4,2,1,50,1,0

[Colours]
Combo1 : 253,221,169
Combo2 : 188,207,173
Combo3 : 241,159,105
Combo4 : 218,139,143

[HitObjects]
287,274,649,5,2,0:0:0:0:
287,274,736,1,2,0:0:0:0:
287,274,822,2,0,B|341:338|412:279|412:279|380:279|353:253,1,190,2|0,0:0|0:0,0:0:0:0:
395,144,1684,2,0,P|409:170|407:195,1,47.5,2|0,0:0|0:0,0:0:0:0:
218,163,2029,6,0,P|226:116|233:69,1,95,2|0,0:0|0:0,0:0:0:0:
313,84,2546,2,0,P|304:130|297:177,1,95,2|0,0:0|0:0,0:0:0:0:
157,330,3408,5,2,0:0:0:0:
157,330,3494,1,2,0:0:0:0:
157,330,3580,2,0,B|93:328|34:362|34:362|65:344|87:302,1,190,2|0,0:0|0:0,0:0:0:0:
123,195,4443,2,0,P|124:218|128:242,1,47.5,2|0,0:0|0:0,0:0:0:0:
294,229,4787,6,0,P|249:202|202:219,1,95,2|0,0:0|0:0,0:0:0:0:
68,96,5305,2,0,P|106:104|140:82,1,71.25,2|0,0:0|0:0,0:0:0:0:
167,27,5649,6,0,P|149:33|134:90,1,83.125,2|0,0:0|0:0,0:0:0:0:
203,130,6339,6,0,P|299:118|390:101,1,190,6|2,3:2|0:0,0:0:0:0:
409,347,7718,2,0,P|312:359|221:375,1,190,2|2,0:0|0:0,0:0:0:0:
0,164,9098,6,0,P|38:171|87:128,1,95,6|0,3:2|0:0,0:0:0:0:
154,83,9615,2,0,L|146:36,1,47.5,2|0,0:0|0:0,0:0:0:0:
216,152,9960,6,0,P|218:181|204:206,1,59.375,2|0,0:0|0:0,0:0:0:0:
121,231,10477,6,0,B|205:201|278:276|225:369|225:369|155:360|162:292,1,332.5,2|0,0:0|0:0,0:0:0:0:
216,152,11856,5,2,0:0:0:0:
216,152,12546,1,2,0:0:0:0:
303,124,12718,1,2,0:0:0:0:
371,185,12890,1,2,0:0:0:0:
267,305,13063,5,2,0:0:0:0:
267,305,13925,6,0,P|231:309|196:315,1,71.25,2|0,0:0|0:0,0:0:0:0:
133,245,14615,5,2,0:0:0:0:
133,245,15305,1,2,0:0:0:0:
103,334,15477,1,2,0:0:0:0:
70,175,15649,1,2,0:0:0:0:
226,226,15822,5,2,0:0:0:0:
226,226,16339,2,0,P|254:232|275:229,1,47.5,2|0,0:0|0:0,0:0:0:0:
343,188,16856,1,2,0:0:0:0:
134,0,17373,5,2,0:0:0:0:
134,0,17718,2,0,L|128:30,1,23.75,2|0,0:0|0:0,0:0:0:0:
112,113,18063,1,2,0:0:0:0:
198,83,18236,1,2,0:0:0:0:
267,143,18408,1,2,0:0:0:0:
163,262,18580,5,2,0:0:0:0:
163,262,19098,1,2,0:0:0:0:
257,308,19443,2,0,P|290:303|326:294,1,71.25,2|0,0:0|0:0,0:0:0:0:
399,243,20132,5,2,0:0:0:0:
399,243,20649,1,2,0:0:0:0:
321,205,20822,1,2,0:0:0:0:
313,118,20994,1,2,0:0:0:0:
385,68,21167,1,2,0:0:0:0:
393,155,21339,1,2,0:0:0:0:
393,155,21684,5,2,0:0:0:0:
313,118,21856,1,2,0:0:0:0:
466,105,22029,1,2,0:0:0:0:
401,243,22201,1,2,0:0:0:0:
305,31,22374,1,2,0:0:0:0:
481,280,22891,5,2,0:0:0:0:
481,280,23580,1,2,0:0:0:0:
401,243,23752,1,2,0:0:0:0:
328,293,23925,1,2,0:0:0:0:
393,155,24098,5,2,0:0:0:0:
393,155,24960,2,0,P|377:86|368:34,1,114,2|0,0:0|0:0,0:0:0:0:
454,81,25649,5,2,0:0:0:0:
454,81,26167,1,2,0:0:0:0:
295,96,26339,1,2,0:0:0:0:
370,43,26511,1,2,0:0:0:0:
379,135,26684,1,2,0:0:0:0:
211,58,26856,5,2,0:0:0:0:
211,58,27374,2,0,P|173:51|136:43,1,76,2|0,0:0|0:0,0:0:0:0:
96,127,27891,2,0,P|152:136|209:149,1,113.999996520996,2|0,0:0|0:0,0:0:0:0:
280,244,28408,5,2,0:0:0:0:
280,244,29098,5,2,0:0:0:0:
209,307,29270,1,2,0:0:0:0:
118,278,29443,1,2,0:0:0:0:
300,336,29615,5,2,0:0:0:0:
300,336,30132,1,2,0:0:0:0:
97,184,30477,1,2,0:0:0:0:
97,184,31167,6,0,P|120:160|115:109,1,76,2|0,0:0|0:0,0:0:0:0:
60,60,31684,2,0,L|15:71,1,38,2|0,0:0|0:0,0:0:0:0:
126,14,32029,2,0,L|206:33,1,76,2|0,0:0|0:0,0:0:0:0:
323,19,32546,5,2,0:0:0:0:
323,19,33236,2,0,P|311:74|300:130,1,114,2|0,0:0|0:0,0:0:0:0:
301,143,33839,1,2,0:0:0:0:
303,154,33925,5,2,0:0:0:0:
303,154,34270,2,0,P|337:146|373:141,1,71.2500027179719,2|0,0:0|0:0,0:0:0:0:
220,61,34615,2,0,P|183:105|96:87,1,142.500005435944,2|0,3:2|0:0,0:0:0:0:
168,337,35132,6,0,P|179:266|194:196,1,142.500005435944,2|0,0:0|0:0,0:0:0:0:
102,214,35649,2,0,P|96:249|88:284,1,71.2500027179719,2|0,0:0|0:0,0:0:0:0:
267,326,35994,1,2,3:2:0:0:
267,326,36339,2,0,P|272:290|280:255,1,71.2500027179719,2|0,0:0|0:0,0:0:0:0:
386,67,36684,6,0,P|409:98|404:132,1,71.2500027179719,2|0,0:0|0:0,0:0:0:0:
427,223,37029,2,0,P|392:215|356:210,1,71.2500027179719,2|0,0:0|0:0,0:0:0:0:
241,127,37374,6,0,P|249:111|249:79,2,47.5000018119813,2|2|2,3:2|0:0|0:0,0:0:0:0:
100,127,37718,5,2,0:0:0:0:
121,94,37833,5,2,0:0:0:0:
163,93,37948,5,2,0:0:0:0:
165,176,38063,5,2,0:0:0:0:
90,209,38236,1,2,0:0:0:0:
23,160,38408,1,2,0:0:0:0:
31,77,38580,1,2,0:0:0:0:
90,209,38753,5,0,3:2:0:0:
15,242,38925,1,2,0:0:0:0:
269,384,39443,5,2,0:0:0:0:
269,384,39787,2,0,P|261:349|256:314,1,71.2500027179719,2|0,0:0|0:0,0:0:0:0:
379,223,40132,2,0,P|311:238|259:193,1,142.500005435944,2|0,3:2|0:0,0:0:0:0:
361,6,40649,6,0,P|344:76|335:147,1,142.500005435944,2|0,0:0|0:0,0:0:0:0:
160,218,41167,2,0,P|168:183|172:147,1,71.2500027179719,2|0,0:0|0:0,0:0:0:0:
204,294,41511,1,0,3:2:0:0:
85,263,41684,2,0,P|152:248|204:294,1,142.500005435944,2|0,0:0|0:0,0:0:0:0:
28,384,42201,5,2,0:0:0:0:
28,384,42546,2,0,P|21:349|12:314,1,71.2500027179719,2|0,0:0|0:0,0:0:0:0:
54,124,42891,2,0,P|68:196|87:268,1,142.500005435944,2|0,3:2|0:0,0:0:0:0:
276,207,43580,6,0,P|223:162|157:178,1,142.500005435944,2|0,0:0|0:0,0:0:0:0:
298,87,44098,1,2,0:0:0:0:
186,0,44270,2,0,P|195:34|203:69,1,71.2500027179719,0|0,3:2|0:0,0:0:0:0:
374,171,44615,2,0,P|390:101|409:32,1,142.500005435944,2|2,0:2|0:2,0:0:0:0:
120,106,45304,6,0,P|85:100|43:90,1,76,2|0,0:2|0:0,0:0:0:0:
25,176,45822,2,0,P|59:181|101:191,1,76,2|0,0:2|0:0,0:0:0:0:
203,135,46339,6,0,P|188:167|187:202,1,71.25,2|0,0:2|0:0,0:0:0:0:
144,277,47029,5,10,0:2:0:0:
170,292,47115,1,8,0:2:0:0:
198,291,47201,1,0,3:2:0:0:
323,193,47374,2,0,P|312:234|303:276,1,85.4999973907472,2|0,0:2|0:0,0:0:0:0:
293,271,47718,6,0,P|316:180|335:88,1,156.750004783631,6|0,3:2|0:0,0:0:0:0:
332,96,48063,1,8,0:2:0:0:
418,323,48236,2,0,P|318:306|250:380,1,209.000006378174,0|0,0:0|3:2,0:0:0:0:
192,163,48753,1,8,0:2:0:0:
0,296,48925,6,0,P|103:279|206:266,1,209.000006378174,2|0,3:2|3:2,0:0:0:0:
110,27,49443,2,0,P|99:104|87:182,1,156.750004783631,8|0,0:2|0:0,0:0:0:0:
81,196,49787,1,0,3:2:0:0:
0,22,49960,1,2,3:2:0:0:
192,163,50132,2,0,P|259:152|327:143,1,104.500003189087,8|2,0:2|0:2,0:0:0:0:
503,6,50477,6,0,P|489:60|465:186,1,156.750004783631,0|0,3:2|0:0,0:0:0:0:
469,183,50822,1,8,0:2:0:0:
277,40,50994,2,0,P|328:47|380:56,1,104.500003189087,0|0,0:2|0:2,0:0:0:0:
370,247,51339,1,0,3:2:0:0:
192,131,51511,2,0,P|243:138|295:147,1,104.500003189087,8|2,0:2|3:2,0:0:0:0:
424,335,51856,6,0,P|352:350|283:281,1,156.750004783631,2|0,0:2|0:0,0:0:0:0:
281,284,52201,1,10,0:2:0:0:
448,130,52373,2,0,P|455:181|464:233,1,104.500003189087,2|0,0:2|3:0,0:0:0:0:
296,147,52718,1,2,3:2:0:0:
433,23,52891,2,0,P|488:20|522:68,1,104.500003189087,8|0,0:2|0:0,0:0:0:0:
296,147,53236,6,0,P|218:134|140:124,1,156.750004783631,6|0,3:2|0:0,0:0:0:0:
77,53,53580,2,0,P|131:46|185:37,1,104.500003189087,10|0,0:2|0:0,0:0:0:0:
365,229,53925,2,0,P|310:235|256:244,1,104.500003189087,2|0,3:2|3:2,0:0:0:0:
448,130,54270,1,10,0:2:0:0:
242,345,54443,6,0,P|229:241|212:138,1,209.000006378174,0|0,3:2|3:2,0:0:0:0:
373,0,54960,2,0,P|358:85|348:171,1,156.750004783631,10|0,0:2|0:0,0:0:0:0:
365,229,55305,1,0,3:2:0:0:
265,47,55477,1,0,3:2:0:0:
126,240,55649,2,0,P|52:254|11:193,1,156.750004783631,10|0,0:2|0:0,0:0:0:0:
39,117,55994,6,0,P|115:131|193:142,1,156.750004783631,6|0,3:2|0:0,0:0:0:0:
212,138,56339,1,10,0:2:0:0:
145,343,56511,2,0,P|136:291|126:240,1,104.500003189087,6|0,3:2|0:0,0:0:0:0:
248,384,56856,1,8,0:3:0:0:
41,289,57029,1,8,0:2:0:0:
233,28,57201,6,0,P|247:131|266:234,1,209.000006378174,6|0,3:2|3:2,0:0:0:0:
329,15,57718,1,10,0:2:0:0:
100,137,57891,1,10,0:2:0:0:
127,164,57977,1,8,0:2:0:0:
171,155,58063,1,8,0:2:0:0:
69,56,58236,1,8,0:3:0:0:
6,125,58408,1,2,3:2:0:0:
29,202,58580,1,2,3:2:0:0:
229,305,58753,6,0,P|151:290|74:279,1,156.750004783631,6|0,3:2|0:0,0:0:0:0:
52,279,59098,1,8,0:2:0:0:
164,60,59270,2,0,P|271:79|379:95,1,209.000006378174,0|0,3:2|3:2,0:0:0:0:
185,179,59787,1,8,0:2:0:0:
381,236,59960,6,0,P|283:222|229:305,1,209.000006378174,2|0,3:2|3:2,0:0:0:0:
477,371,60477,2,0,P|489:293|503:216,1,156.750004783631,8|0,0:2|0:0,0:0:0:0:
511,196,60822,1,0,3:2:0:0:
334,314,60994,1,2,3:2:0:0:
370,94,61167,2,0,P|382:163|393:233,1,104.500003189087,8|2,0:2|0:2,0:0:0:0:
213,371,61511,6,0,P|177:322|84:330,1,156.750004783631,0|0,3:2|0:0,0:0:0:0:
72,342,61856,1,8,0:2:0:0:
182,116,62029,2,0,P|190:167|200:218,1,104.500003189087,0|0,3:2|0:0,0:0:0:0:
105,56,62374,1,0,3:2:0:0:
286,139,62546,1,8,0:2:0:0:
93,205,62718,1,2,3:2:0:0:
231,29,62890,6,0,P|307:45|385:56,1,156.750004783631,2|0,3:2|0:0,0:0:0:0:
412,74,63236,2,0,P|442:28|421:-24,1,104.500003189087,10|0,0:2|0:0,0:0:0:0:
286,139,63580,2,0,P|270:215|259:293,1,156.750004783631,2|0,3:2|0:0,0:0:0:0:
276,317,63925,2,0,P|283:265|294:214,1,104.500003189087,10|0,0:2|0:0,0:0:0:0:
138,25,64270,6,0,P|63:11|11:65,1,156.750004783631,6|0,3:2|0:0,0:0:0:0:
0,99,64615,1,8,0:2:0:0:
119,275,64787,2,0,P|103:199|92:121,1,156.750004783631,0|0,0:0|0:0,0:0:0:0:
95,106,65132,1,0,3:2:0:0:
0,283,65305,1,10,0:2:0:0:
234,371,65477,6,0,B|351:349|351:349|386:294|317:236,1,209.000006378174,0|0,3:2|3:2,0:0:0:0:
207,25,65994,2,0,P|223:101|233:179,1,156.750004783631,8|0,0:2|0:0,0:0:0:0:
234,256,66339,1,2,3:2:0:0:
329,65,66511,1,0,3:2:0:0:
120,181,66684,2,0,P|69:173|18:163,1,104.500003189087,8|0,0:2|0:0,0:0:0:0:
165,310,67029,6,0,P|241:294|319:281,1,156.750004783631,6|0,3:2|0:0,0:0:0:0:
354,283,67374,1,8,0:2:0:0:
242,67,67546,2,0,P|195:126|214:198,1,156.750004783631,6|0,3:2|0:0,0:0:0:0:
234,223,67891,1,0,3:2:0:0:
344,32,68063,1,10,0:2:0:0:
503,181,68236,6,0,P|396:162|288:146,1,209.000006378174,4|0,3:2|3:2,0:0:0:0:
68,339,68753,2,0,P|108:285|200:291,1,156.750004783631,8|0,0:2|0:0,0:0:0:0:
241,349,69098,5,10,0:2:0:0:
265,318,69184,1,8,0:2:0:0:
272,280,69270,1,8,0:2:0:0:
262,243,69356,1,8,0:2:0:0:
236,214,69443,1,10,0:2:0:0:
209,185,69529,1,8,0:2:0:0:
199,147,69615,1,10,0:2:0:0:
207,109,69701,1,8,0:2:0:0:
231,79,69787,6,0,P|281:67|333:58,1,104.500003189087,14|0,0:2|0:0,0:0:0:0:
477,274,70132,2,0,P|426:262|374:253,1,104.500003189087,10|0,0:2|0:0,0:0:0:0:
153,360,70477,5,10,0:2:0:0:
324,165,70649,1,0,3:2:0:0:
42,97,70822,5,10,0:2:0:0:
255,284,70994,1,0,3:2:0:0:
179,10,71167,6,0,L|159:125,1,104.500003189087,10|0,0:2|3:2,0:0:0:0:
338,347,71511,5,10,0:2:0:0:
264,82,71684,1,0,3:2:0:0:
164,347,71856,5,10,0:2:0:0:
398,176,72029,1,0,3:2:0:0:
179,10,72201,6,0,B|117:24|59:0|59:0|102:18|123:68,1,185.249991519928,10|0,0:2|0:0,0:0:0:0:
161,113,72546,6,0,P|151:164|142:215,1,104.500003189087,10|0,0:2|0:0,0:0:0:0:
338,347,72891,2,0,P|328:295|319:244,1,104.500003189087,10|0,0:2|0:0,0:0:0:0:
476,36,73236,5,10,0:2:0:0:
437,301,73408,1,0,3:2:0:0:
288,60,73580,5,10,0:2:0:0:
508,182,73753,1,0,3:2:0:0:
237,321,73925,5,10,0:2:0:0:
416,110,74098,1,0,3:2:0:0:
164,22,74270,5,10,0:2:0:0:
319,244,74443,1,10,0:2:0:0:
353,248,74529,1,8,0:2:0:0:
374,222,74615,5,8,0:2:0:0:
265,142,74787,1,10,0:3:0:0:
166,167,74960,1,2,3:2:0:0:
138,242,75132,1,2,3:2:0:0:
22,24,75305,6,0,P|42:99|58:176,1,156.750004783631,6|0,3:2|0:0,0:0:0:0:
60,211,75649,1,8,0:2:0:0:
285,90,75822,2,0,L|206:82,1,52.2500015945435,2|0,3:2|3:2,0:0:0:0:
130,15,75994,1,8,0:2:0:0:
137,53,76080,1,8,0:2:0:0:
146,91,76166,1,10,0:2:0:0:
156,129,76252,1,8,0:2:0:0:
166,167,76338,1,10,0:2:0:0:
70,384,76511,6,0,B|9:351|9:351|70:264|152:337,1,209.000006378174,2|2,3:2|3:2,0:0:0:0:
395,336,77029,2,0,P|318:359|262:290,1,156.750004783631,10|0,0:2|0:0,0:0:0:0:
235,238,77374,5,10,0:2:0:0:
251,202,77460,1,8,0:2:0:0:
285,184,77546,1,8,0:2:0:0:
323,192,77632,1,8,0:2:0:0:
348,220,77719,1,10,0:2:0:0:
346,232,77805,1,0,3:2:0:0:
344,245,77891,1,0,3:2:0:0:
343,258,77977,1,0,3:2:0:0:
341,271,78063,6,0,P|246:280|152:294,1,190,6|0,3:2|0:0,0:0:0:0:
75,325,78925,2,0,P|62:294|66:273,1,47.5,2|0,0:0|0:0,0:0:0:0:
138,115,79270,6,0,P|184:124|231:131,1,95,2|0,0:0|0:0,0:0:0:0:
213,222,79787,2,0,P|166:212|119:205,1,95,2|0,0:0|0:0,0:0:0:0:
335,38,80649,5,2,0:0:0:0:
335,38,80735,1,2,0:0:0:0:
335,38,80822,2,0,B|358:-13|398:10|398:10|424:88|354:117,1,190,2|0,0:0|0:0,0:0:0:0:
307,172,81684,2,0,P|282:138|284:114,1,47.5,2|0,0:0|0:0,0:0:0:0:
393,199,82029,6,0,P|377:278|365:359,1,142.5,2|0,0:0|0:0,0:0:0:0:
225,384,82718,2,0,P|233:344|239:304,1,71.25,10|0,0:2|0:0,0:0:0:0:
238,241,83063,5,0,3:2:0:0:
416,273,83236,1,0,3:2:0:0:
416,273,83580,6,0,P|393:191|379:117,1,142.5,6|0,3:2|0:0,0:0:0:0:
301,88,84270,2,0,L|296:119,3,23.75,2|0|2|0,0:0|0:0|0:0|0:0,0:0:0:0:
250,174,84615,1,2,0:0:0:0:
251,181,84701,1,2,0:0:0:0:
253,187,84787,1,2,0:0:0:0:
255,193,84873,1,2,0:0:0:0:
257,199,84960,6,0,P|266:245|272:292,1,95,2|2,0:0|0:0,0:0:0:0:
232,370,85477,1,2,0:0:0:0:
232,370,85822,5,2,3:2:0:0:
61,196,85994,1,8,0:2:0:0:
61,196,86339,6,0,P|154:182|249:174,1,190,6|2,3:2|0:0,0:0:0:0:
371,226,87201,2,0,P|350:201|356:136,1,95,2|0,0:0|0:0,0:0:0:0:
358,134,87632,1,2,0:0:0:0:
365,128,87718,5,2,0:0:0:0:
287,279,87891,1,2,0:0:0:0:
459,272,88063,1,2,0:0:0:0:
371,226,88236,1,2,0:0:0:0:
291,378,88408,1,2,0:0:0:0:
291,378,88753,6,0,P|240:382|205:332,1,106.875004076958,2|0,0:2|0:0,0:0:0:0:
202,260,89098,5,4,3:2:0:0:
202,260,89443,2,0,P|190:189|177:119,2,142.500005435944,2|2|0,1:2|1:2|1:2,0:0:0:0:
274,118,90305,1,2,3:2:0:0:
101,206,90477,2,0,P|66:198|30:194,1,71.2500027179719,2|2,1:2|0:2,0:0:0:0:
140,311,90822,2,0,P|209:296|280:287,2,142.500005435944,0|0|2,1:2|1:2|1:2,0:0:0:0:
372,151,91856,5,0,3:2:0:0:
372,151,92201,2,0,P|419:134|486:196,1,142.500005435944,2|0,1:2|1:2,0:0:0:0:
334,318,92891,1,2,1:2:0:0:
436,373,93063,2,0,P|418:288|410:233,1,142.500005435944,2|0,3:2|0:0,0:0:0:0:
271,99,93580,2,0,P|289:184|296:238,1,142.500005435944,2|2,1:2|1:2,0:0:0:0:
372,151,94098,1,0,3:2:0:0:
199,205,94270,2,0,P|164:198|128:193,1,71.2500027179719,2|0,1:2|0:0,0:0:0:0:
200,44,94615,5,0,3:2:0:0:
200,44,94960,2,0,P|254:67|324:23,2,142.500005435944,0|2|2,1:2|1:2|1:2,0:0:0:0:
37,128,95822,1,0,3:2:0:0:
97,0,95994,2,0,P|104:35|109:71,1,71.2500027179719,2|0,1:2|0:0,0:0:0:0:
246,242,96339,2,0,P|256:167|270:94,1,142.500005435944,2|0,1:2|1:2,0:0:0:0:
336,251,96856,1,0,3:2:0:0:
168,146,97029,1,2,1:2:0:0:
380,32,97374,5,0,3:2:0:0:
380,32,97718,2,0,P|393:101|403:172,2,142.500005435944,2|0|2,1:2|1:2|1:2,0:0:0:0:
485,114,98580,1,0,3:2:0:0:
322,207,98753,2,0,L|244:194,1,71.2500027179719,2|0,1:2|0:0,0:0:0:0:
378,381,99098,2,0,P|414:338|384:254,1,142.500005435944,0|2,1:2|1:2,0:0:0:0:
322,207,99615,1,0,3:2:0:0:
326,316,99787,1,2,1:2:0:0:
416,175,99960,1,0,0:0:0:0:
239,113,100132,5,4,3:2:0:0:
239,113,100477,2,0,P|169:128|99:140,2,142.500005435944,2|2|0,1:2|1:2|1:2,0:0:0:0:
154,43,101339,1,2,3:2:0:0:
324,160,101511,2,0,P|343:119|323:78,1,71.2500027179719,2|2,1:2|0:2,0:0:0:0:
194,213,101856,2,0,P|180:282|168:353,1,142.500005435944,0|0,1:2|1:2,0:0:0:0:
286,250,102374,1,2,3:2:0:0:
104,207,102546,1,2,1:2:0:0:
300,19,102891,5,0,3:2:0:0:
300,19,103236,2,0,P|329:58|423:50,2,142.500005435944,2|0|2,1:2|1:2|1:2,0:0:0:0:
346,179,104098,1,2,3:2:0:0:
196,141,104270,2,0,P|231:134|265:125,1,71.2500027179719,0|0,1:2|0:0,0:0:0:0:
430,254,104615,2,0,P|359:266|291:285,1,142.500005435944,2|2,1:2|1:2,0:0:0:0:
424,355,105132,1,0,3:2:0:0:
346,179,105305,2,0,P|350:143|357:108,1,71.2500027179719,2|0,1:2|0:0,0:0:0:0:
183,243,105649,5,0,3:2:0:0:
183,243,105994,2,0,P|195:313|205:383,2,142.500005435944,0|2|2,1:2|1:2|1:2,0:0:0:0:
21,309,106856,2,0,B|-3:292|-3:292|56:244|118:303,1,142.500005435944,0|0,3:2|0:0,0:0:0:0:
206,384,107374,2,0,P|171:376|136:370,1,71.2500027179719,2|0,1:2|0:0,0:0:0:0:
279,295,107718,1,0,1:2:0:0:
136,370,107891,1,0,3:2:0:0:
169,173,108063,2,0,P|175:208|182:242,1,71.2500027179719,0|0,1:2|0:0,0:0:0:0:
362,380,108408,5,2,3:2:0:0:
362,380,108753,2,0,P|375:298|394:218,2,142.500005435944,2|2|2,1:2|1:2|1:2,0:0:0:0:
475,278,109615,1,0,3:2:0:0:
325,173,109787,2,0,P|257:162|211:213,2,142.500005435944,0|2|0,1:2|1:2|1:2,0:0:0:0:
498,154,110649,1,2,3:2:0:0:
399,16,110822,2,0,P|404:51|409:86,1,71.2500027179719,0|0,1:2|0:0,0:0:0:0:
415,96,111080,1,0,0:0:0:0:
420,107,111167,6,0,P|408:177|399:248,1,142.500005435944,4|2,3:2|0:2,0:0:0:0:
284,371,111684,2,0,P|319:361|354:356,1,71.2500027179719,8|2,0:2|0:2,0:0:0:0:
205,234,112029,2,0,P|240:239|274:248,1,71.2500027179719,0|2,3:2|0:2,0:0:0:0:
102,384,112374,6,0,P|56:352|82:260,1,142.500005435944,2|0,3:2|0:0,0:0:0:0:
103,107,112891,2,0,P|108:142|113:177,1,71.2500027179719,2|0,3:2|0:0,0:0:0:0:
145,312,113236,1,8,0:2:0:0:
205,234,113408,1,0,3:2:0:0:
239,384,113580,1,10,0:3:0:0:
239,384,113752,1,8,0:3:0:0:
353,264,113925,6,0,P|340:193|328:123,1,142.500005435944,6|2,3:2|0:2,0:0:0:0:
494,149,114443,2,0,P|458:155|424:164,1,71.2500027179719,8|0,0:2|0:0,0:0:0:0:
309,21,114787,2,0,P|343:29|378:36,1,71.2500027179719,0|0,3:2|0:0,0:0:0:0:
269,209,115132,1,2,3:2:0:0:
269,209,115218,1,2,0:0:0:0:
269,209,115305,5,2,0:0:0:0:
190,33,115477,1,2,0:0:0:0:
189,228,115649,5,2,3:2:0:0:
129,88,115822,1,2,0:0:0:0:
109,247,115994,5,10,0:2:0:0:
68,143,116167,1,2,0:0:0:0:
159,320,116339,5,2,3:2:0:0:
208,135,116511,1,0,3:2:0:0:
372,297,116684,6,0,P|431:311|488:251,1,142.500005435944,6|2,3:2|0:2,0:0:0:0:
393,146,117201,2,0,P|403:181|411:215,1,71.2500027179719,8|2,0:2|0:2,0:0:0:0:
347,380,117546,1,0,3:2:0:0:
487,259,117718,1,10,0:2:0:0:
311,202,117891,6,0,P|241:217|171:229,1,142.500005435944,2|0,3:2|0:0,0:0:0:0:
204,68,118408,2,0,P|229:109|222:142,1,71.2500027179719,2|0,3:2|0:0,0:0:0:0:
96,281,118753,1,8,0:2:0:0:
138,135,118925,1,8,0:3:0:0:
138,135,119097,1,8,0:3:0:0:
173,320,119270,1,8,0:2:0:0:
35,191,119442,6,0,P|48:121|57:50,1,142.500005435944,4|2,3:2|0:2,0:0:0:0:
208,120,119959,2,0,P|172:126|138:134,1,71.2500027179719,8|2,0:2|0:2,0:0:0:0:
264,28,120304,2,0,P|229:20|194:13,1,71.2500027179719,0|2,3:2|0:2,0:0:0:0:
336,189,120649,6,0,P|375:156|357:63,1,142.500005435944,8|0,0:3|3:2,0:0:0:0:
222,244,121166,1,10,0:2:0:0:
416,269,121339,5,8,0:2:0:0:
416,269,121425,1,8,0:2:0:0:
416,269,121511,1,8,0:2:0:0:
292,116,121684,1,0,3:2:0:0:
303,277,121856,1,2,3:2:0:0:
454,163,122029,6,0,L|418:157,1,35.625001358986,0|0,0:0|0:0,0:0:0:0:
336,189,122201,5,2,0:2:0:0:
69,95,122546,6,0,P|85:48|88:16,1,76,2|0,0:2|0:0,0:0:0:0:
178,45,123063,2,0,P|162:92|159:124,1,76,2|0,0:2|0:0,0:0:0:0:
45,186,123494,5,0,0:0:0:0:
51,180,123580,2,0,P|86:183|120:195,1,71.25,2|0,0:2|0:0,0:0:0:0:
201,235,124270,5,10,0:2:0:0:
30,384,124442,2,0,P|0:362|11:294,1,95,6|2,3:2|3:2,0:0:0:0:
5,299,124873,1,0,3:2:0:0:
13,293,124959,6,0,P|90:305|166:322,1,156.750004783631,6|0,3:2|0:0,0:0:0:0:
181,335,125304,1,8,0:2:0:0:
370,98,125477,2,0,P|271:83|208:161,1,209.000006378174,0|0,0:0|3:2,0:0:0:0:
326,384,125994,1,8,0:2:0:0:
509,192,126166,6,0,P|406:209|304:227,1,209.000006378174,2|0,3:2|3:2,0:0:0:0:
227,0,126684,1,8,0:2:0:0:
115,118,126856,2,0,P|192:104|269:90,1,156.750004783631,2|0,0:2|0:0,0:0:0:0:
297,111,127201,2,0,P|245:120|194:129,1,104.500003189087,2|8,3:2|0:2,0:0:0:0:
62,261,127546,1,2,0:2:0:0:
376,331,127718,6,0,P|396:278|328:194,1,156.750004783631,0|0,3:2|0:0,0:0:0:0:
327,195,128063,1,8,0:2:0:0:
124,384,128235,2,0,P|92:343|90:292,1,104.500003189087,0|0,0:0|0:2,0:0:0:0:
297,178,128580,1,0,3:2:0:0:
133,28,128753,2,0,P|143:82|151:145,1,104.500003189087,8|2,0:2|3:2,0:0:0:0:
293,277,129097,6,0,P|370:262|448:253,1,156.750004783631,2|0,3:2|0:0,0:0:0:0:
467,262,129442,1,10,0:2:0:0:
316,69,129615,2,0,P|276:105|283:162,1,104.500003189087,2|0,0:2|3:0,0:0:0:0:
364,364,129959,1,2,3:2:0:0:
512,161,130132,2,0,P|461:152|409:145,1,104.500003189087,8|0,0:2|0:0,0:0:0:0:
235,309,130477,6,0,P|187:260|218:165,1,156.750004783631,6|0,3:2|0:0,0:0:0:0:
278,152,130822,2,0,P|285:195|300:267,1,104.500003189087,10|0,0:2|0:0,0:0:0:0:
101,375,131166,2,0,P|91:323|81:272,1,104.500003189087,2|0,3:2|3:2,0:0:0:0:
156,60,131511,1,10,0:2:0:0:
0,186,131684,6,0,B|114:211|86:109|246:169,1,209.000006378174,0|0,3:2|3:2,0:0:0:0:
425,335,132201,2,0,P|368:353|357:259,1,156.750004783631,10|0,0:2|0:0,0:0:0:0:
407,229,132546,1,0,3:2:0:0:
258,373,132718,1,8,0:2:0:0:
172,319,132890,1,2,3:2:0:0:
194,233,133063,1,0,3:2:0:0:
423,246,133235,6,0,P|319:262|243:278,1,156.750004783631,6|0,3:2|0:0,0:0:0:0:
252,291,133580,1,10,0:2:0:0:
21,90,133752,2,0,P|123:110|226:126,1,209.000006378174,2|0,3:2|3:2,0:0:0:0:
71,226,134270,1,8,0:2:0:0:
188,20,134442,6,0,P|246:4|337:107,1,209.000006378174,6|0,3:2|3:2,0:0:0:0:
220,345,134959,2,0,P|212:273|201:223,1,104.500003189087,10|2,0:2|0:2,0:0:0:0:
425,120,135304,1,8,0:2:0:0:
471,141,135390,1,8,0:2:0:0:
491,189,135476,1,8,0:2:0:0:
474,237,135562,1,8,0:2:0:0:
442,255,135649,1,10,0:2:0:0:
406,244,135735,1,0,0:0:0:0:
371,257,135822,1,2,3:2:0:0:
358,291,135908,1,0,3:2:0:0:
377,303,135994,6,0,P|388:307|475:164,1,209.000006378174,6|8,3:2|0:2,0:0:0:0:
301,46,136511,2,0,P|198:64|94:81,1,209.000006378174,0|0,3:2|3:2,0:0:0:0:
266,215,137028,1,8,0:2:0:0:
53,353,137201,6,0,P|29:294|147:246,1,209.000006378174,2|0,3:2|3:2,0:0:0:0:
394,384,137718,2,0,P|326:370|231:356,1,156.750004783631,8|0,0:2|0:0,0:0:0:0:
216,366,138063,1,0,3:2:0:0:
430,220,138235,1,2,3:2:0:0:
255,110,138408,2,0,P|234:160|255:213,1,104.500003189087,8|2,0:2|0:2,0:0:0:0:
512,50,138753,6,0,P|441:40|351:28,1,156.750004783631,0|0,3:2|0:0,0:0:0:0:
333,35,139097,1,8,0:2:0:0:
226,228,139270,2,0,P|277:217|328:209,1,104.500003189087,0|0,0:0|0:2,0:0:0:0:
174,138,139615,1,0,3:2:0:0:
295,316,139787,1,8,0:2:0:0:
331,123,139959,1,2,3:2:0:0:
146,296,140132,6,0,P|81:295|34:212,1,156.750004783631,2|0,3:2|0:0,0:0:0:0:
9,225,140477,2,0,P|5:176|34:130,1,104.500003189087,10|0,0:2|0:0,0:0:0:0:
233,33,140822,2,0,P|314:42|411:63,1,156.750004783631,2|0,3:2|0:0,0:0:0:0:
401,85,141166,2,0,P|330:71|258:62,1,104.500003189087,10|0,0:2|0:0,0:0:0:0:
265,284,141511,6,0,P|365:257|467:233,2,209.000006378174,6|8|0,3:2|0:2|3:2,0:0:0:0:
433,383,142373,1,0,3:2:0:0:
343,144,142546,1,10,0:2:0:0:
98,317,142718,6,0,B|77:347|107:399|161:383|201:327|138:238,1,209.000006378174,0|0,3:2|3:2,0:0:0:0:
104,19,143235,2,0,P|53:6|1:0,1,104.500003189087,8|0,0:2|0:0,0:0:0:0:
234,109,143580,2,0,P|149:124|118:133,1,104.500003189087,2|0,3:2|3:2,0:0:0:0:
408,35,143925,2,0,P|349:-14|275:-1,1,156.750004783631,8|0,0:2|0:0,0:0:0:0:
263,13,144270,6,0,P|273:80|285:197,1,156.750004783631,6|0,3:2|0:0,0:0:0:0:
268,198,144615,1,8,0:2:0:0:
512,325,144787,2,0,P|467:264|392:264,1,156.750004783631,6|0,0:2|0:0,0:0:0:0:
363,276,145132,1,0,3:2:0:0:
166,380,145304,1,10,0:2:0:0:
283,110,145477,6,0,P|273:185|259:325,1,209.000006378174,4|0,3:2|3:2,0:0:0:0:
51,88,145994,2,0,P|64:30|149:52,1,156.750004783631,8|0,0:2|0:0,0:0:0:0:
213,0,146339,5,10,0:2:0:0:
224,34,146425,1,8,0:2:0:0:
229,70,146511,1,8,0:2:0:0:
224,106,146597,1,8,0:2:0:0:
209,140,146683,1,10,0:2:0:0:
190,171,146770,1,8,0:2:0:0:
178,206,146856,1,10,0:2:0:0:
178,242,146942,1,8,0:2:0:0:
186,278,147028,6,0,P|238:280|285:240,1,104.500003189087,14|0,0:2|0:0,0:0:0:0:
468,47,147373,2,0,P|426:17|375:20,1,104.500003189087,10|0,0:2|0:0,0:0:0:0:
190,171,147718,5,10,0:2:0:0:
447,244,147890,1,0,3:2:0:0:
230,378,148063,5,10,0:2:0:0:
338,112,148235,1,0,3:2:0:0:
103,243,148408,6,0,P|36:232|-10:229,1,104.500003189087,10|0,0:2|3:2,0:0:0:0:
168,60,148753,5,10,0:2:0:0:
211,301,148925,1,0,3:2:0:0:
338,112,149097,5,10,0:2:0:0:
230,378,149269,1,0,3:2:0:0:
445,184,149442,6,0,B|482:132|447:88|447:88|457:130|433:173,1,185.249991519928,10|0,0:2|0:0,0:0:0:0:
373,212,149787,6,0,P|306:202|253:198,1,104.500003189087,10|0,0:2|0:0,0:0:0:0:
20,384,150132,2,0,P|87:374|140:370,1,104.500003189087,10|0,0:2|0:0,0:0:0:0:
263,96,150477,5,10,0:2:0:0:
61,223,150649,1,0,3:2:0:0:
284,322,150822,5,10,0:2:0:0:
135,98,150994,1,0,3:2:0:0:
378,177,151166,5,10,0:2:0:0:
169,288,151339,1,0,3:2:0:0:
373,382,151511,5,10,0:2:0:0:
289,182,151684,1,10,0:2:0:0:
284,207,151770,1,8,0:2:0:0:
279,233,151856,1,8,0:2:0:0:
390,302,152028,1,10,0:3:0:0:
487,265,152201,1,2,3:2:0:0:
512,193,152373,1,2,3:2:0:0:
421,19,152546,6,0,P|407:98|396:206,1,156.750004783631,6|0,3:2|0:0,0:0:0:0:
414,199,152890,1,8,0:2:0:0:
123,82,153063,2,0,P|171:37|212:39,1,104.500003189087,2|0,3:2|0:0,0:0:0:0:
298,206,153408,1,10,0:2:0:0:
272,210,153494,1,8,0:2:0:0:
249,199,153580,1,10,0:2:0:0:
314,0,153753,5,2,3:2:0:0:
314,0,154097,1,2,3:2:0:0:
367,288,154269,1,10,0:2:0:0:
367,288,154615,1,2,3:2:0:0:
330,283,154701,1,0,3:2:0:0:
294,279,154787,1,0,3:2:0:0:
257,275,154873,1,0,3:2:0:0:
221,271,154959,1,10,0:2:0:0:
44,370,155132,1,0,3:2:0:0:
44,370,155218,1,0,3:2:0:0:
44,370,155304,6,0,P|109:384|163:327,1,142.500005435944,6|0,3:2|0:0,0:0:0:0:
146,181,155822,1,2,3:2:0:0:
2,283,155994,2,0,P|72:270|142:260,1,142.500005435944,8|2,0:2|0:2,0:0:0:0:
32,160,156511,6,0,P|95:169|159:180,1,106.875004076958,0|0,3:2|0:0,0:0:0:0:
146,181,156856,1,8,0:2:0:0:
207,0,157028,2,0,L|137:15,1,71.2500027179719,0|2,3:2|0:2,0:0:0:0:
246,178,157373,2,0,P|294:128|283:60,1,142.500005435944,8|2,0:2|0:2,0:0:0:0:
59,0,157890,1,0,3:2:0:0:
59,0,157977,1,0,3:2:0:0:
59,0,158063,6,0,L|42:85,1,71.2500027179719,6|0,3:2|0:0,0:0:0:0:
144,196,158408,1,2,0:2:0:0:
15,158,158580,1,0,3:2:0:0:
155,202,158753,2,0,P|224:184|293:170,1,142.500005435944,10|2,0:2|0:2,0:0:0:0:
458,103,159270,6,0,P|404:88|350:78,1,106.875004076958,2|0,3:2|0:0,0:0:0:0:
340,81,159615,1,10,0:2:0:0:
373,258,159787,2,0,P|377:223|387:189,1,71.2500027179719,2|0,3:2|0:0,0:0:0:0:
202,286,160132,5,10,0:2:0:0:
238,368,160304,1,0,3:2:0:0:
320,332,160477,1,0,3:2:0:0:
284,250,160649,1,0,3:2:0:0:
148,358,160822,6,0,P|79:340|10:326,1,142.500005435944,6|0,3:2|0:0,0:0:0:0:
121,260,161339,1,2,3:2:0:0:
0,100,161511,2,0,P|20:170|35:243,1,142.500005435944,8|2,0:2|0:2,0:0:0:0:
211,285,162028,1,0,3:2:0:0:
142,176,162201,5,2,3:2:0:0:
83,333,162373,1,8,0:2:0:0:
146,163,162546,2,0,P|142:127|137:92,1,71.2500027179719,0|2,3:2|0:2,0:0:0:0:
265,195,162890,2,0,P|317:214|381:141,1,142.500005435944,8|2,0:2|0:2,0:0:0:0:
473,38,163408,1,0,3:2:0:0:
473,38,163494,1,0,3:2:0:0:
473,38,163580,6,0,L|391:24,1,71.2500027179719,6|0,3:2|0:0,0:0:0:0:
234,105,163925,2,0,L|316:119,1,71.2500027179719,2|0,0:2|3:2,0:0:0:0:
466,207,164270,1,10,0:2:0:0:
367,233,164442,2,0,L|381:151,1,71.2500027179719,2|0,0:2|0:0,0:0:0:0:
493,315,164787,6,0,P|419:312|384:358,1,106.875004076958,0|0,3:2|0:0,0:0:0:0:
394,344,165132,1,8,0:2:0:0:
272,205,165304,1,2,3:2:0:0:
279,374,165477,1,8,0:2:0:0:
279,374,165563,1,8,0:2:0:0:
279,374,165649,5,8,0:2:0:0:
367,233,165822,1,8,0:2:0:0:
221,285,165994,1,8,0:2:0:0:
394,344,166166,1,8,0:2:0:0:
339,127,166339,6,0,P|269:110|199:95,1,142.500005435944,6|0,3:2|0:0,0:0:0:0:
118,151,166856,1,2,3:2:0:0:
272,205,167028,1,10,0:2:0:0:
161,327,167201,2,0,P|173:275|184:222,1,106.875004076958,2|0,0:2|0:0,0:0:0:0:
183,208,167546,1,8,0:2:0:0:
70,333,167718,5,6,3:2:0:0:
234,384,167890,2,0,P|303:366|373:353,1,142.500005435944,0|0,0:0|3:2,0:0:0:0:
485,217,168408,2,0,P|433:225|392:194,1,106.875004076958,10|0,0:2|0:0,0:0:0:0:
384,178,168753,1,2,3:2:0:0:
254,282,168925,1,0,3:2:0:0:
268,53,169097,6,0,P|279:123|291:193,1,142.500005435944,6|2,3:2|0:2,0:0:0:0:
190,113,169615,1,0,3:2:0:0:
343,0,169787,2,0,P|362:33|360:64,1,71.2500027179719,10|0,0:2|0:0,0:0:0:0:
291,193,170132,1,2,0:2:0:0:
268,53,170304,1,8,0:2:0:0:
394,184,170477,6,0,P|384:218|376:253,1,71.2500027179719,4|0,3:2|0:0,0:0:0:0:
489,181,170822,1,2,3:2:0:0:
292,288,170994,1,0,3:2:0:0:
442,343,171166,5,10,0:2:0:0:
475,309,171281,5,8,0:2:0:0:
471,264,171396,5,8,0:2:0:0:
376,253,171511,5,10,0:3:0:0:
381,263,171626,5,8,0:3:0:0:
387,274,171741,5,8,0:3:0:0:
326,384,171856,6,0,P|273:373|220:364,1,106.875004076958,6|0,3:2|0:0,0:0:0:0:
206,351,172201,2,0,P|171:358|137:368,1,71.2500027179719,0|0,3:2|0:0,0:0:0:0:
8,223,172546,2,0,P|39:263|108:247,1,106.875004076958,2|0,0:2|0:0,0:0:0:0:
104,246,172890,2,0,P|99:210|90:176,1,71.2500027179719,0|0,3:2|0:0,0:0:0:0:
184,6,173235,6,0,P|193:60|205:114,1,106.875004076958,2|0,0:2|0:0,0:0:0:0:
210,129,173580,2,0,P|244:120|279:114,1,71.2500027179719,0|2,3:2|0:2,0:0:0:0:
455,58,173925,2,0,P|410:24|354:53,1,106.875004076958,2|0,0:2|0:0,0:0:0:0:
361,54,174270,2,0,P|369:88|375:123,1,71.2500027179719,2|0,3:2|0:0,0:0:0:0:
450,280,174615,6,0,P|460:218|474:156,1,106.875004076958,2|0,0:2|0:0,0:0:0:0:
481,166,174959,2,0,P|507:205|504:232,1,71.2500027179719,0|0,3:2|0:0,0:0:0:0:
391,355,175304,2,0,P|345:366|313:305,1,106.875004076958,2|0,0:2|0:0,0:0:0:0:
307,307,175649,2,0,P|315:272|318:236,1,71.2500027179719,0|0,3:2|0:0,0:0:0:0:
211,93,175994,6,0,P|153:75|96:147,1,142.500005435944,2|0,0:2|3:2,0:0:0:0:
61,318,176511,1,10,0:2:0:0:
61,318,176597,1,8,0:2:0:0:
61,318,176684,5,10,0:2:0:0:
169,176,176856,1,10,0:2:0:0:
26,235,177028,1,8,0:3:0:0:
115,247,177201,1,8,0:3:0:0:
16,68,177373,6,0,P|9:103|3:138,2,71.2500027179719,6|2|2,3:2|0:2|0:2,0:0:0:0:
229,0,177890,6,0,P|242:75|257:151,1,142.5,14|0,0:2|0:0,0:0:0:0:
327,251,178235,6,0,P|291:228|251:239,1,85.4999973907472,10|0,0:3|0:0,0:0:0:0:
215,337,178580,6,0,L|258:326,1,42.7499986953736,6|0,0:3|0:0,0:0:0:0:
273,326,178925,5,0,3:2:0:0:
74,218,179097,1,10,0:2:0:0:
130,375,179270,5,8,0:2:0:0:
130,375,179356,1,8,0:2:0:0:
130,375,179442,1,10,0:2:0:0:
176,176,179615,1,0,3:2:0:0:
29,307,179787,1,2,3:2:0:0:
165,271,179959,1,0,3:2:0:0:
19,138,180132,5,6,3:2:0:0:
19,138,181339,1,2,0:0:0:0:
19,138,181511,2,0,P|60:125|101:114,1,76,2|0,0:0|0:0,0:0:0:0:
157,169,182028,2,0,P|145:205|135:241,1,76,2|0,0:0|0:0,0:0:0:0:
164,357,182718,1,2,0:0:0:0:
164,357,182890,6,0,P|182:339|243:338,1,76,2|0,0:0|0:0,0:0:0:0:
353,362,183580,2,0,L|344:396,2,19,2|0|0,0:0|0:0|0:0,0:0:0:0:
440,267,184097,1,2,0:0:0:0:
440,267,184270,2,0,L|421:186,1,76,2|0,0:0|0:0,0:0:0:0:
430,114,184787,1,2,0:0:0:0:
298,174,185132,2,0,L|206:188,1,76,2|0,0:0|0:0,0:0:0:0:
146,112,185649,6,0,P|122:90|74:93,2,76,2|0|0,0:0|0:0|0:0,0:0:0:0:
130,306,186684,2,0,P|77:255|90:183,1,152,2|0,0:0|0:0,0:0:0:0:
204,36,187718,1,2,0:0:0:0:
204,36,188063,2,0,L|219:107,1,57,2|0,0:0|0:0,0:0:0:0:
218,110,188408,6,0,P|254:134|293:121,1,76,2|0,0:0|0:0,0:0:0:0:
348,74,188925,2,0,L|334:31,1,38,2|0,0:0|0:0,0:0:0:0:
336,37,189615,1,2,0:0:0:0:
419,137,189787,2,0,L|399:196,1,57,2|0,0:0|0:0,0:0:0:0:
336,242,190132,5,10,0:3:0:0:
293,268,190247,5,8,0:3:0:0:
252,243,190362,5,8,0:3:0:0:
202,164,190477,5,8,0:3:0:0:
185,153,190592,5,8,0:3:0:0:
169,159,190707,5,8,0:3:0:0:
96,226,190822,6,0,P|94:235|91:254,1,28.4999991302491,2|0,3:2|0:0,0:0:0:0:
166,270,190994,2,0,P|167:260|170:241,1,28.4999991302491,2|0,0:2|0:0,0:0:0:0:
45,350,191166,6,0,P|112:337|161:384,1,142.500005435944,6|0,3:2|0:0,0:0:0:0:
252,243,191684,1,2,3:2:0:0:
394,363,191856,2,0,P|323:349|253:338,1,142.500005435944,8|2,0:2|0:2,0:0:0:0:
317,166,192373,1,2,3:2:0:0:
317,166,192718,1,8,0:2:0:0:
408,274,192890,2,0,P|373:265|338:257,1,71.2500027179719,0|2,3:2|0:2,0:0:0:0:
166,240,193235,2,0,P|200:232|235:223,1,71.2500027179719,8|2,0:2|0:2,0:0:0:0:
391,115,193580,1,0,0:0:0:0:
391,115,193925,6,0,P|351:75|257:101,1,142.500005435944,4|0,3:2|0:0,0:0:0:0:
109,156,194442,1,2,3:2:0:0:
168,0,194615,2,0,P|179:70|192:140,1,142.500005435944,8|2,0:2|0:2,0:0:0:0:
294,257,195132,1,6,3:2:0:0:
294,257,195477,1,8,0:2:0:0:
362,199,195649,1,2,3:2:0:0:
345,111,195822,1,0,3:2:0:0:
210,228,195994,5,10,0:2:0:0:
210,228,196339,1,2,3:2:0:0:
260,81,196511,1,0,3:2:0:0:
362,198,196684,6,0,P|343:267|328:337,1,142.500005435944,6|0,3:2|0:0,0:0:0:0:
124,225,197373,1,10,0:2:0:0:
194,159,197546,2,0,P|203:193|210:228,1,71.2500027179719,0|2,3:2|0:2,0:0:0:0:
54,291,197890,1,4,3:2:0:0:
54,291,198235,2,0,P|44:256|37:221,1,71.2500027179719,8|0,0:2|3:2,0:0:0:0:
70,127,198580,1,0,3:2:0:0:
210,228,198753,5,10,0:2:0:0:
297,258,198926,1,0,0:0:0:0:
327,171,199098,1,8,0:2:0:0:
240,141,199270,1,8,0:2:0:0:
259,343,199442,6,0,P|327:351|373:301,1,142.500005435944,6|0,3:2|0:0,0:0:0:0:
210,228,199959,1,2,3:2:0:0:
180,384,200132,1,14,0:2:0:0:
297,258,200304,1,0,3:2:0:0:
140,152,200477,2,0,P|105:162|71:171,1,71.2500027179719,14|4,0:2|3:2,0:0:0:0:
213,97,200822,5,2,3:2:0:0:
151,309,200994,2,0,P|132:279|131:243,1,71.2500027179719,8|0,0:2|0:0,0:0:0:0:
305,152,201339,5,10,0:2:0:0:
305,152,201425,1,8,0:2:0:0:
305,152,201511,1,10,0:2:0:0:
435,268,201684,1,8,0:3:0:0:
269,323,201856,1,2,3:2:0:0:
338,247,202028,1,10,0:2:0:0:
512,375,202201,6,0,P|452:362|392:356,1,121.125002310276,6|0,3:2|0:0,0:0:0:0:
364,361,202546,1,2,3:2:0:0:
299,113,202890,2,0,P|358:125|418:131,1,121.125002310276,2|0,0:2|0:0,0:0:0:0:
447,127,203235,1,2,3:2:0:0:
190,261,203580,6,0,P|249:248|309:242,1,121.125002310276,2|0,0:2|0:0,0:0:0:0:
338,247,203925,1,2,3:2:0:0:
125,44,204270,2,0,P|184:56|244:62,1,121.125002310276,2|0,0:2|0:0,0:0:0:0:
326,77,204615,6,0,B|242:79|286:130|180:134,1,142.5,2|0,3:2|0:0,0:0:0:0:
116,130,204959,6,0,P|129:189|140:248,1,121.125002310276,2|0,0:2|0:0,0:0:0:0:
143,282,205304,1,2,3:2:0:0:
326,77,205649,2,0,P|312:136|301:195,1,121.125002310276,2|0,0:2|0:0,0:0:0:0:
299,229,205994,1,2,3:2:0:0:
45,82,206339,6,0,P|102:89|144:48,1,121.125002310276,2|0,0:2|0:0,0:0:0:0:
144,20,206684,1,2,3:2:0:0:
301,195,206856,2,0,P|256:145|161:175,1,161.500003080368,2|2,0:2|0:2,0:0:0:0:
0,313,207373,2,0,P|39:302|78:294,1,80.750001540184,2|2,3:2|0:2,0:0:0:0:
45,82,207718,6,0,P|2:110|26:217,1,161.500003080368,6|8,3:2|0:2,0:0:0:0:
165,351,208235,1,2,0:2:0:0:
171,162,208408,1,0,3:2:0:0:
142,154,208494,1,0,0:0:0:0:
116,167,208580,1,2,3:2:0:0:
106,195,208666,1,0,3:2:0:0:
117,222,208752,1,2,3:2:0:0:
293,150,208925,6,0,P|302:91|315:32,1,121.125002310276,10|0,0:2|0:0,0:0:0:0:
324,16,209270,1,2,3:2:0:0:
365,216,209442,2,0,P|320:253|261:245,1,121.125002310276,14|0,0:2|0:0,0:0:0:0:
61,104,209787,5,10,0:2:0:0:
78,68,209873,1,8,0:2:0:0:
112,47,209959,1,8,0:2:0:0:
152,46,210045,1,8,0:2:0:0:
187,66,210132,5,10,0:2:0:0:
198,85,210218,1,10,0:2:0:0:
201,109,210304,1,10,0:2:0:0:
197,131,210390,1,10,0:2:0:0:
181,151,210477,6,0,B|165:179|127:191|127:191|116:253|155:315,1,190,6|8,3:2|0:2,0:0:0:0:
293,151,210994,1,2,0:2:0:0:
107,96,211166,1,2,3:2:0:0:
229,244,211339,2,0,P|240:289|250:336,1,95,2|10,3:2|0:2,0:0:0:0:
412,184,211684,6,0,P|385:81|365:-22,1,190,2|0,3:2|3:2,0:0:0:0:
201,130,212201,2,0,P|247:138|293:150,1,95,8|0,0:2|0:0,0:0:0:0:
468,1,212546,1,2,3:2:0:0:
275,52,212718,1,2,3:2:0:0:
411,183,212890,2,0,P|419:136|432:91,1,95,8|2,0:2|0:2,0:0:0:0:
254,263,213235,6,0,P|344:259|394:335,1,190,2|8,3:2|0:2,0:0:0:0:
294,150,213753,1,2,0:2:0:0:
213,367,213925,2,0,P|258:353|305:345,1,95,0|0,3:0|3:2,0:0:0:0:
468,247,214270,2,0,P|421:239|375:225,1,95,8|2,0:2|3:2,0:0:0:0:
252,48,214615,6,0,B|307:26|307:26|344:106|267:180,1,190,2|10,3:2|0:2,0:0:0:0:
163,288,215132,2,0,P|155:241|141:195,1,95,2|0,0:2|3:0,0:0:0:0:
0,133,215477,1,2,3:2:0:0:
121,0,215649,2,0,P|107:45|99:92,1,95,8|0,0:2|0:0,0:0:0:0:
42,330,215994,6,0,P|80:273|148:277,1,142.5,6|0,3:2|0:0,0:0:0:0:
163,288,216339,2,0,P|208:274|255:264,1,95,10|0,0:2|0:0,0:0:0:0:
357,100,216684,2,0,P|311:113|264:123,1,95,2|0,3:2|3:2,0:0:0:0:
414,195,217028,1,10,0:2:0:0:
229,35,217201,6,0,P|174:85|207:200,1,190,0|0,3:2|3:2,0:0:0:0:
291,343,217718,2,0,P|303:272|318:203,1,142.5,10|0,0:2|0:0,0:0:0:0:
329,185,218063,1,0,3:2:0:0:
192,323,218235,1,8,0:2:0:0:
405,294,218408,1,10,0:2:0:0:
265,123,218580,1,8,0:0:0:0:
420,311,218753,6,0,B|467:338|467:338|515:274|440:187,1,190,6|10,3:2|0:2,0:0:0:0:
391,16,219270,1,2,0:2:0:0:
369,109,219442,1,0,3:2:0:0:
347,202,219615,1,8,0:3:0:0:
461,82,219787,1,8,0:2:0:0:
255,229,219959,6,0,P|157:210|68:194,1,190,14|0,0:2|3:2,0:0:0:0:
261,63,220477,2,0,P|187:77|120:88,1,142.5,10|0,0:2|0:0,0:0:0:0:
53,29,220822,5,8,0:2:0:0:
81,8,220908,1,8,0:2:0:0:
116,0,220994,1,8,0:2:0:0:
150,5,221080,1,8,0:2:0:0:
180,24,221166,1,10,0:2:0:0:
201,53,221253,1,8,0:2:0:0:
209,87,221339,1,10,0:2:0:0:
202,122,221425,1,8,0:2:0:0:
183,152,221511,6,0,P|172:233|162:314,1,163.875003125668,6|0,3:2|0:0,0:0:0:0:
166,345,221856,1,8,0:2:0:0:
12,186,222028,2,0,B|13:127|-22:60|-22:60|14:5|91:41,1,218.500004167557,2|0,3:2|3:2,0:0:0:0:
288,117,222546,1,8,0:2:0:0:
67,298,222718,6,0,P|136:220|236:247,1,218.500004167557,2|0,3:2|3:2,0:0:0:0:
481,309,223235,2,0,P|400:324|321:344,1,163.875003125668,8|0,0:2|0:0,0:0:0:0:
296,360,223580,1,0,3:2:0:0:
497,212,223753,1,2,3:2:0:0:
272,88,223925,2,0,P|289:139|305:191,1,109.250002083778,8|2,0:2|0:2,0:0:0:0:
461,0,224270,6,0,P|427:96|398:193,1,163.875003125668,0|0,3:2|0:0,0:0:0:0:
404,193,224615,1,8,0:2:0:0:
168,121,224787,2,0,P|220:105|271:87,1,109.250002083778,2|0,0:2|3:2,0:0:0:0:
93,213,225132,1,2,3:2:0:0:
196,15,225304,1,10,0:2:0:0:
259,233,225477,1,2,3:2:0:0:
43,126,225649,6,0,P|-7:177|11:269,1,163.875003125668,2|0,0:2|0:0,0:0:0:0:
32,289,225994,2,0,P|86:299|139:311,1,109.250002083778,10|0,0:2|0:0,0:0:0:0:
361,142,226339,2,0,P|280:126|200:107,1,163.875003125668,2|0,3:2|0:0,0:0:0:0:
176,126,226684,2,0,P|230:136|284:149,1,109.250002083778,10|0,0:2|0:0,0:0:0:0:
508,290,227028,6,0,P|435:280|384:376,1,163.875003125668,6|0,3:2|0:0,0:0:0:0:
385,375,227373,1,8,0:2:0:0:
512,193,227546,2,0,P|493:113|477:32,1,163.875003125668,0|0,0:0|0:0,0:0:0:0:
477,0,227890,1,0,3:2:0:0:
374,207,228063,1,10,0:2:0:0:
156,32,228235,6,0,B|270:7|242:109|404:52,1,218.500004167557,0|0,3:2|3:2,0:0:0:0:
262,348,228753,2,0,P|247:267|232:186,1,163.875003125668,8|0,0:2|0:0,0:0:0:0:
191,121,229097,5,2,3:2:0:0:
171,328,229270,1,8,0:3:0:0:
178,355,229356,1,8,0:3:0:0:
185,384,229442,1,0,3:2:0:0:
325,187,229615,1,0,3:2:0:0:
86,366,229787,6,0,P|71:285|56:204,1,163.875003125668,6|0,3:2|0:0,0:0:0:0:
41,177,230132,1,8,0:2:0:0:
262,25,230304,2,0,P|246:105|232:186,1,163.875003125668,2|0,3:2|0:0,0:0:0:0:
231,219,230649,1,0,3:2:0:0:
135,26,230822,1,10,0:2:0:0:
338,160,230994,6,0,P|427:180|495:72,1,218.500004167557,4|0,3:2|3:2,0:0:0:0:
243,101,231511,1,8,0:2:0:0:
377,307,231684,1,10,0:2:0:0:
388,336,231770,1,8,0:2:0:0:
382,365,231856,1,10,0:2:0:0:
394,80,232028,1,8,0:2:0:0:
227,278,232201,1,10,0:2:0:0:
483,222,232373,1,10,0:2:0:0:
218,84,232546,6,0,P|164:97|111:108,1,109.250002083778,14|0,0:2|0:0,0:0:0:0:
0,343,232890,2,0,P|53:354|106:367,1,109.250002083778,10|0,0:2|0:0,0:0:0:0:
326,163,233235,5,10,0:2:0:0:
38,249,233408,1,0,3:2:0:0:
334,319,233580,5,10,0:2:0:0:
112,109,233753,1,0,3:2:0:0:
420,0,233925,6,0,P|410:53|400:107,1,109.250002083778,10|0,0:2|3:2,0:0:0:0:
183,287,234270,5,10,0:2:0:0:
303,27,234442,1,0,3:2:0:0:
457,266,234615,5,10,0:2:0:0:
216,89,234787,1,0,3:2:0:0:
304,376,234959,6,0,B|368:319|306:255|306:255|281:313,1,185.249991519928,10|0,0:2|0:0,0:0:0:0:
314,384,235304,6,0,P|367:371|420:361,1,109.250002083778,10|0,0:2|0:0,0:0:0:0:
478,84,235649,2,0,P|424:96|371:107,1,109.250002083778,10|0,0:2|0:0,0:0:0:0:
90,174,235994,5,10,0:2:0:0:
372,242,236166,1,0,3:2:0:0:
100,361,236339,5,10,0:2:0:0:
245,103,236511,1,0,3:2:0:0:
353,380,236684,5,10,0:2:0:0:
90,174,236856,1,0,3:2:0:0:
399,89,237028,5,10,0:2:0:0:
255,328,237201,1,10,0:2:0:0:
225,350,237287,1,8,0:2:0:0:
185,331,237373,5,8,0:2:0:0:
279,230,237546,1,10,0:3:0:0:
372,242,237718,1,2,3:2:0:0:
410,312,237890,1,2,3:2:0:0:
345,11,238063,6,0,P|415:-6|487:83,1,163.875003125668,6|0,3:2|0:0,0:0:0:0:
491,81,238408,1,8,0:2:0:0:
245,103,238580,2,0,P|229:75|225:44,1,54.6250010418892,2|0,3:2|0:0,0:0:0:0:
396,93,238753,1,8,0:3:0:0:
409,131,238839,1,8,0:3:0:0:
414,172,238925,1,10,0:3:0:0:
410,213,239011,1,8,0:3:0:0:
398,252,239097,1,2,3:2:0:0:
144,378,239270,6,0,B|137:301|97:242|97:242|122:272|183:280,1,218.500004167557,10|2,0:2|3:2,0:0:0:0:
225,53,239787,2,0,P|167:90|180:193,1,163.875003125668,10|0,0:2|0:0,0:0:0:0:
238,196,240132,5,10,0:2:0:0:
273,176,240218,1,8,0:2:0:0:
295,142,240304,1,8,0:2:0:0:
298,102,240390,1,8,0:2:0:0:
281,71,240476,5,10,0:2:0:0:
266,57,240592,5,8,0:3:0:0:
247,51,240707,5,8,0:3:0:0:
225,53,240822,5,6,3:2:0:0:
167,272,240994,1,2,0:2:0:0:
388,164,241166,1,10,0:2:0:0:
63,163,241339,5,6,3:2:0:0:
284,353,241511,1,2,0:2:0:0:
293,81,241684,1,2,3:2:0:0:
76,256,241856,5,10,0:2:0:0:
400,144,242028,2,0,B|452:175|452:175|390:260|289:193,1,218.500004167557,6|0,3:2|3:2,0:0:0:0:
197,19,242546,1,10,0:2:0:0:
468,72,242718,1,8,0:3:0:0:
213,226,242890,5,10,0:3:0:0:
147,250,243005,5,8,0:3:0:0:
87,205,243120,5,8,0:3:0:0:
134,140,243235,5,10,0:3:0:0:
155,150,243350,5,8,0:3:0:0:
158,167,243465,5,8,0:3:0:0:
68,295,243580,6,0,P|54:214|36:134,1,163.875003125668,6|0,3:2|0:0,0:0:0:0:
7,66,243925,1,8,0:2:0:0:
234,364,244097,6,0,P|247:283|265:203,1,163.875003125668,6|0,3:2|0:0,0:0:0:0:
319,145,244442,1,2,3:2:0:0:
346,176,244528,1,0,3:2:0:0:
341,217,244615,1,10,0:2:0:0:
116,122,244787,2,0,P|193:134|247:76,1,163.875003125668,2|0,3:2|0:0,0:0:0:0:
214,0,245132,5,2,3:2:0:0:
80,320,245304,1,2,3:2:0:0:
80,320,245994,6,0,P|130:310|168:345,1,106.875004076958,2|0,0:2|0:0,0:0:0:0:
174,368,246339,6,0,B|278:392|247:313|363:341,1,190,6|0,3:2|0:0,0:0:0:0:
441,331,247201,2,0,P|435:354|430:377,1,47.5,2|0,0:0|0:0,0:0:0:0:
382,261,247546,6,0,P|357:232|365:173,1,95,2|0,0:0|0:0,0:0:0:0:
441,155,248063,2,0,P|465:183|457:242,1,95,2|0,0:0|0:0,0:0:0:0:
213,110,249097,6,0,B|273:113|334:92|334:92|292:107|275:147,1,190,2|0,0:0|0:0,0:0:0:0:
374,224,249959,2,0,P|366:201|362:178,1,47.5,2|0,0:0|0:0,0:0:0:0:
228,283,250304,6,0,P|274:292|319:306,1,95,2|0,0:0|0:0,0:0:0:0:
213,199,250822,2,0,P|178:209|144:216,1,71.25,2|0,0:0|0:0,0:0:0:0:
92,149,251166,6,0,P|118:132|166:137,1,71.25,2|0,0:0|3:0,0:0:0:0:
64,227,251770,1,0,3:2:0:0:
46,237,251856,6,0,P|62:143|74:49,1,190,6|2,3:2|0:0,0:0:0:0:
365,83,253235,2,0,P|353:149|344:215,1,118.75,2|0,0:0|0:0,0:0:0:0:
359,276,253753,5,8,0:2:0:0:
359,276,254097,1,8,0:3:0:0:
192,134,254270,2,0,P|223:112|274:123,1,71.25,8|0,0:3|0:0,0:0:0:0:
271,126,254615,6,0,P|255:220|243:314,1,190,6|2,3:2|0:0,0:0:0:0:
150,350,255477,2,0,P|157:303|163:256,1,95,2|0,0:0|0:0,0:0:0:0:
112,182,255994,6,0,P|73:180|47:199,1,66.4999979705811,2|2,0:0|0:0,0:0:0:0:
189,108,256704,6,0,P|195:89|191:65,1,38,2|2,0:0|0:0,0:0:0:0:
134,2,257362,5,2,0:0:0:0:
256,192,257562,12,2,261977,0:0:0:0:
