osu file format v14

[General]
AudioFilename: audio.mp3
AudioLeadIn: 0
PreviewTime: 46856
Countdown: 0
SampleSet: Soft
StackLeniency: 0.7
Mode: 0
LetterboxInBreaks: 0
WidescreenStoryboard: 1

[Editor]
Bookmarks: 11856,33925,47718,78063,89097,111166,124959,155304,171856,180132,191166,202201,210477,221511,246339,257373
DistanceSpacing: 1
BeatDivisor: 4
GridSize: 32
TimelineZoom: 1

[Metadata]
Title:FLOWERS
TitleUnicode:FLOWERS
Artist:Shimotsuki Haruka
ArtistUnicode:霜月はるか
Creator:Shirahane Suou
Version:Hard
Source:FLOWERS -Le volume sur printemps-
Tags:春篇 haru hen the volume on spring innocent grey gray japanese pop video game visual novel opening 百合 yuri manyo 鈴湯 suzuyu spokenaway reisevia roda totsuki pache knowledge
BeatmapID:3402318
BeatmapSetID:1666487

[Difficulty]
HPDrainRate:4
CircleSize:3.7
OverallDifficulty:6
ApproachRate:7.5
SliderMultiplier:1.4
SliderTickRate:1

[Events]
//Background and Video events
0,0,"hard.jpg",0,0
//Break Periods
2,78263,88273
2,180332,190342
//Storyboard Layer 0 (Background)
//Storyboard Layer 1 (Fail)
//Storyboard Layer 2 (Pass)
//Storyboard Layer 3 (Foreground)
//Storyboard Layer 4 (Overlay)
//Storyboard Sound Samples

[TimingPoints]
822,344.827586206897,4,2,1,50,1,0
822,-133.333333333333,4,2,1,50,0,0
11856,-133.333333333333,4,2,1,40,0,0
33925,-111.111111111111,4,2,1,50,0,0
47718,-100,4,2,1,70,0,1
78063,-133.333333333333,4,2,1,50,0,0
88753,-133.333333333333,4,2,1,60,0,0
89098,-111.111111111111,4,2,1,60,0,0
124959,-100,4,2,1,70,0,1
155304,-111.111111111111,4,2,1,60,0,0
180132,-111.111111111111,4,2,1,40,0,0
191167,-111.111111111111,4,2,1,60,0,0
210132,-111.111111111111,4,2,1,70,0,0
210477,-100,4,2,1,70,0,1
245390,-133.333333333333,4,2,1,50,0,0
255994,355.029585798817,4,2,1,50,1,0
255994,-133.333333333333,4,2,1,50,0,0
257059,303.030303030303,4,2,1,50,1,0
257362,400,4,2,1,50,1,0
257562,519.480519480519,4,2,1,50,1,0

[Colours]
Combo1 : 253,221,169
Combo2 : 188,207,173
Combo3 : 241,159,105
Combo4 : 218,139,143

[HitObjects]
309,291,822,6,0,B|368:237|455:234|455:234|395:234|341:202,1,262.500010013581,2|0,0:0|0:0,0:0:0:0:
296,153,1856,1,2,0:0:0:0:
296,153,2029,2,0,B|209:128|170:203|200:220|149:288|57:246,1,262.500010013581,2|0,0:0|0:0,0:0:0:0:
6,9,3580,6,0,B|60:47|57:123|57:123|74:48|154:21,1,262.500010013581,2|0,0:0|0:0,0:0:0:0:
218,52,4615,1,2,0:0:0:0:
218,52,4787,2,0,B|293:88|249:169|249:169|226:133|192:130,1,210.000008010865,2|0,0:0|0:0,0:0:0:0:
175,212,5649,5,2,0:0:0:0:
405,358,6339,6,0,P|419:254|439:150,1,210.000008010865,6|2,3:2|0:0,0:0:0:0:
209,4,7718,2,0,P|194:107|174:211,1,210.000008010865,2|2,0:0|0:0,0:0:0:0:
448,223,9098,6,0,P|386:208|288:313,1,210.000008010865,6|2,3:2|0:0,0:0:0:0:
292,383,9960,1,2,0:0:0:0:
87,239,10477,2,0,B|77:171|145:150|145:150|238:236|148:335,1,315.000012016297,2|0,0:0|0:0,0:0:0:0:
25,357,11856,5,2,0:0:0:0:
87,239,12201,2,0,P|92:208|80:176,1,52.5000020027161,2|0,0:0|0:0,0:0:0:0:
29,126,12546,2,0,P|23:100|28:74,2,52.5000020027161,2|0|0,0:0|0:0|0:0,0:0:0:0:
2,206,13063,1,2,0:0:0:0:
257,25,13925,1,2,0:0:0:0:
464,289,14615,5,2,0:0:0:0:
181,110,15305,2,0,P|146:109|119:123,2,52.5000020027161,2|0|0,0:0|0:0|0:0,0:0:0:0:
243,166,15822,2,0,L|228:276,1,105.000004005432,2|0,0:0|0:0,0:0:0:0:
211,352,16339,1,2,0:0:0:0:
61,274,16684,1,2,0:0:0:0:
130,115,17029,1,2,0:0:0:0:
297,128,17374,5,2,0:0:0:0:
409,252,17718,2,0,P|420:282|417:311,1,52.5000020027161,2|0,0:0|0:0,0:0:0:0:
365,366,18063,2,0,L|253:349,1,105.000004005432,2|0,0:0|0:0,0:0:0:0:
205,286,18580,2,0,P|150:276|116:331,1,105.000004005432,2|0,0:0|0:0,0:0:0:0:
80,383,19098,1,2,0:0:0:0:
5,232,19443,1,2,0:0:0:0:
159,167,19787,2,0,L|223:181,1,52.5000020027161,2|0,0:0|0:0,0:0:0:0:
268,239,20132,6,0,P|301:258|368:241,1,105.000004005432,2|0,0:0|0:0,0:0:0:0:
437,204,20649,2,0,L|492:216,2,52.5000020027161,2|0|0,0:0|0:0|0:0,0:0:0:0:
374,146,21167,1,2,0:0:0:0:
431,84,21339,1,2,0:0:0:0:
295,10,21684,1,2,0:0:0:0:
295,10,21856,2,0,L|284:61,1,52.5000020027161,2|0,0:0|0:0,0:0:0:0:
227,131,22201,1,2,0:0:0:0:
254,242,22374,5,2,0:0:0:0:
386,348,22891,5,2,0:0:0:0:
405,173,23236,2,0,P|373:169|336:183,1,52.5000020027161,2|0,0:0|0:0,0:0:0:0:
306,242,23580,2,0,P|280:246|254:242,2,52.5000020027161,2|0|0,0:0|0:0|0:0,0:0:0:0:
388,262,24098,1,2,0:0:0:0:
503,13,24960,1,2,0:0:0:0:
219,192,25649,5,2,0:0:0:0:
64,29,26167,1,2,0:0:0:0:
64,29,26339,2,0,P|100:21|128:32,2,52.5000020027161,2|0|0,0:0|0:0|0:0,0:0:0:0:
0,85,26856,1,2,0:2:0:0:
10,289,27373,2,0,P|58:306|116:273,1,105.000004005432
144,213,27890,1,0,0:0:0:0:
321,110,28408,5,2,0:0:0:0:
504,310,29098,2,0,P|468:347|408:331,1,105.000004005432,2|0,0:0|0:0,0:0:0:0:
354,280,29615,1,2,0:0:0:0:
354,280,29787,2,0,L|365:218,1,52.5000020027161,2|0,0:0|0:0,0:0:0:0:
380,145,30132,1,2,0:0:0:0:
482,278,30477,1,2,0:0:0:0:
157,366,31167,6,0,L|92:353,1,52.5000020027161,2|0,0:0|0:0,0:0:0:0:
60,285,31511,2,0,L|73:220,1,52.5000020027161,2|0,0:0|0:0,0:0:0:0:
141,188,31856,2,0,L|206:201,1,52.5000020027161,2|0,0:0|0:0,0:0:0:0:
274,222,32201,1,0,0:0:0:0:
330,346,32546,5,2,0:0:0:0:
378,77,33235,1,2,0:0:0:0:
195,170,33753,1,2,0:0:0:0:
195,170,33925,6,0,P|212:109|195:50,1,125.999996154785,2|0,0:0|0:0,0:0:0:0:
132,4,34443,1,2,0:0:0:0:
132,4,34615,1,2,3:2:0:0:
48,146,34960,1,2,0:0:0:0:
48,146,35132,6,0,L|47:272,1,125.999996154785,2|0,0:0|0:0,0:0:0:0:
45,354,35649,2,0,P|74:365|112:353,1,62.9999980773926,2|0,0:0|0:0,0:0:0:0:
167,305,35994,2,0,P|197:298|226:309,1,62.9999980773926,2|0,3:2|0:0,0:0:0:0:
284,366,36339,1,2,0:0:0:0:
400,250,36684,6,0,P|417:213|397:118,1,125.999996154785,2|0,0:0|0:0,0:0:0:0:
261,50,37374,2,0,L|252:3,2,41.9999987182618,2|0|0,3:2|0:0|0:0,0:0:0:0:
227,93,37718,2,0,L|218:140,2,41.9999987182618,2|0|0,0:0|0:0|0:0,0:0:0:0:
179,65,38063,6,0,L|106:83,1,62.9999980773926,2|0,0:0|0:0,0:0:0:0:
65,143,38408,1,2,0:0:0:0:
65,143,38580,2,0,L|80:204,1,62.9999980773926,2|0,0:0|3:2,0:0:0:0:
148,249,38925,1,2,0:0:0:0:
305,59,39443,6,0,P|337:41|428:66,1,125.999996154785,2|0,0:0|0:0,0:0:0:0:
476,125,39960,1,2,0:0:0:0:
476,125,40132,1,2,3:2:0:0:
353,233,40477,1,2,0:0:0:0:
353,233,40649,6,0,L|228:233,1,125.999996154785,2|0,0:0|0:0,0:0:0:0:
169,174,41167,2,0,P|141:216|168:291,1,125.999996154785,2|0,0:0|3:2,0:0:0:0:
219,342,41684,1,2,0:0:0:0:
374,152,42201,6,0,P|402:110|375:35,1,125.999996154785,2|0,0:0|0:0,0:0:0:0:
222,2,42891,2,0,P|194:44|221:119,1,125.999996154785,2|0,3:2|0:0,0:0:0:0:
314,241,43580,2,0,P|376:248|438:259,1,125.999996154785,2|0,0:0|0:0,0:0:0:0:
509,215,44098,1,2,0:0:0:0:
509,215,44270,1,2,3:2:0:0:
417,78,44615,2,0,P|356:72|315:117,1,125.999996154785,2|2,0:2|0:2,0:0:0:0:
218,250,45305,5,2,0:2:0:0:
49,160,45822,5,2,0:2:0:0:
213,58,46339,5,2,0:2:0:0:
455,278,47029,6,0,L|446:329,2,31.4999990386963,10|8|0,0:2|0:2|3:2,0:0:0:0:
500,209,47374,2,0,L|487:138,1,62.9999980773926,2|0,0:2|3:2,0:0:0:0:
411,58,47718,6,0,P|345:45|299:98,1,140,6|8,3:2|0:2,0:0:0:0:
236,161,48236,2,0,P|249:229|262:298,1,140,0|0,0:0|3:2,0:0:0:0:
318,369,48753,1,8,0:2:0:0:
377,300,48925,1,2,3:2:0:0:
452,351,49098,6,0,P|501:339|499:248,1,140,2|8,0:2|0:2,0:0:0:0:
462,182,49615,2,0,P|427:186|392:191,1,70,2|0,0:2|3:2,0:0:0:0:
308,227,49960,2,0,P|273:221|238:217,1,70,2|8,3:2|0:2,0:0:0:0:
178,148,50305,1,2,0:2:0:0:
108,261,50477,6,0,P|96:191|80:123,1,140,0|8,3:2|0:2,0:0:0:0:
10,65,50994,1,0,0:2:0:0:
77,3,51167,2,0,P|109:-9|142:0,1,70,0|0,0:2|3:2,0:0:0:0:
212,57,51511,2,0,P|245:66|277:53,1,70,8|2,0:2|3:2,0:0:0:0:
365,27,51856,6,0,P|349:96|338:165,1,140,2|10,0:2|0:2,0:0:0:0:
274,230,52373,2,0,P|253:281|318:360,1,140,2|2,0:2|3:2,0:0:0:0:
393,276,52891,1,8,0:2:0:0:
238,132,53236,6,0,P|203:132|174:151,1,70,6|0,3:2|0:0,0:0:0:0:
125,226,53580,2,0,L|143:307,1,70,10|0,0:2|0:0,0:0:0:0:
210,358,53925,2,0,L|228:277,1,70,2|0,3:2|3:2,0:0:0:0:
294,230,54270,1,10,0:2:0:0:
372,277,54443,6,0,P|429:294|480:235,1,140,0|0,3:2|3:2,0:0:0:0:
510,158,54960,2,0,L|499:88,1,70,10|0,0:2|0:0,0:0:0:0:
440,26,55305,1,0,3:2:0:0:
440,26,55477,1,0,3:2:0:0:
376,90,55649,2,0,P|344:104|311:94,1,70,10|0,0:2|0:0,0:0:0:0:
182,87,55994,6,0,P|232:126|215:198,1,140,6|10,3:2|0:2,0:0:0:0:
267,299,56511,2,0,P|198:282|130:270,1,140,6|8,3:2|0:3,0:0:0:0:
70,200,57029,1,8,0:2:0:0:
20,276,57201,1,6,3:2:0:0:
82,187,57374,6,0,P|75:153|68:119,1,70,2|0,0:2|3:2,0:0:0:0:
20,42,57718,2,0,P|54:35|88:28,1,70,10|10,0:2|0:2,0:0:0:0:
130,5,57977,1,8,0:2:0:0:
130,5,58063,2,0,P|164:12|198:18,1,70,8|8,0:2|0:3,0:0:0:0:
262,84,58408,1,2,3:2:0:0:
204,154,58580,1,2,3:2:0:0:
298,240,58753,6,0,P|366:227|436:217,1,140,6|8,3:2|0:2,0:0:0:0:
495,147,59270,2,0,P|510:81|462:35,1,140,0|0,3:2|3:2,0:0:0:0:
374,9,59787,1,8,0:2:0:0:
336,92,59960,1,2,3:2:0:0:
254,52,60132,6,0,P|184:61|115:75,1,140,2|8,0:2|0:2,0:0:0:0:
47,134,60649,2,0,P|53:169|58:204,1,70,2|0,0:2|3:2,0:0:0:0:
138,248,60994,2,0,P|172:241|207:236,1,70,2|8,3:2|0:2,0:0:0:0:
267,168,61339,1,2,0:2:0:0:
346,272,61511,6,0,P|397:285|454:212,1,140,0|8,3:2|0:2,0:0:0:0:
405,145,62029,2,0,P|335:154|266:168,1,140,0|0,3:2|3:2,0:0:0:0:
208,237,62546,1,8,0:2:0:0:
265,307,62718,1,2,3:2:0:0:
195,365,62891,6,0,L|113:351,1,70,2|0,3:2|3:2,0:0:0:0:
53,298,63236,2,0,B|32:221|32:221|83:165,1,140,10|2,0:2|3:2,0:0:0:0:
134,109,63753,1,0,3:2:0:0:
62,52,63925,1,10,0:2:0:0:
207,165,64270,6,0,P|246:182|323:121,1,140,6|8,3:2|0:2,0:0:0:0:
365,53,64787,2,0,P|297:41|227:32,1,140,0|0,0:0|3:2,0:0:0:0:
154,87,65305,1,10,0:2:0:0:
86,26,65477,6,0,P|39:39|33:130,1,140,0|0,3:2|3:2,0:0:0:0:
91,183,65994,2,0,P|82:217|76:251,1,70,8|0,0:2|0:0,0:0:0:0:
15,319,66339,1,2,3:2:0:0:
15,319,66511,1,0,3:2:0:0:
84,377,66684,2,0,P|118:368|152:362,1,70,8|0,0:2|0:0,0:0:0:0:
226,272,67029,6,0,P|270:255|354:325,1,140,6|8,3:2|0:2,0:0:0:0:
426,373,67546,2,0,P|440:304|456:236,1,140,6|0,3:2|3:2,0:0:0:0:
506,160,68063,1,10,0:2:0:0:
419,98,68236,6,0,P|372:84|310:147,1,140,4|0,3:2|3:2,0:0:0:0:
259,216,68753,2,0,L|279:294,1,70,8|2,0:2|0:2,0:0:0:0:
348,339,69098,2,0,L|365:271,1,70,10|8,0:2|0:2,0:0:0:0:
399,241,69356,1,8,0:2:0:0:
399,241,69443,2,0,L|390:196,3,35,10|8|10|8,0:2|0:2|0:2|0:2,0:0:0:0:
361,173,69787,6,0,P|388:142|485:158,2,140,14|10|10,0:2|0:2|0:2,0:0:0:0:
290,115,70649,1,0,3:2:0:0:
234,187,70822,2,0,L|248:267,1,70,10|0,0:2|3:2,0:0:0:0:
299,364,71167,6,0,L|219:350,1,70,10|0,0:2|3:2,0:0:0:0:
81,300,71511,2,0,L|149:287,1,70,10|0,0:2|3:2,0:0:0:0:
246,255,71856,1,10,0:2:0:0:
246,255,72029,1,0,3:2:0:0:
147,185,72201,6,0,P|133:135|164:95,1,105,10|0,0:2|0:0,0:0:0:0:
205,75,72546,6,0,P|273:89|342:100,2,140,10|10|10,0:2|0:2|0:2,0:0:0:0:
137,14,73408,1,0,3:2:0:0:
73,78,73580,2,0,P|58:120|67:154,1,70,10|0,0:2|3:2,0:0:0:0:
152,225,73925,6,0,P|167:183|158:149,1,70,10|0,0:2|3:2,0:0:0:0:
57,242,74270,2,0,L|75:322,1,70,10|10,0:2|0:2,0:0:0:0:
89,358,74529,1,8,0:2:0:0:
89,358,74615,2,0,P|131:375|160:365,1,70,8|10,0:2|0:3,0:0:0:0:
225,313,74960,1,2,3:2:0:0:
282,383,75132,1,2,3:2:0:0:
351,289,75305,6,0,P|344:220|334:151,1,140,6|8,3:2|0:2,0:0:0:0:
272,83,75822,2,0,P|228:73|184:98,1,70,2|8,3:2|0:2,0:0:0:0:
139,143,76167,1,10,0:2:0:0:
199,211,76339,1,10,0:2:0:0:
104,296,76511,6,0,P|55:303|6:218,1,140,2|2,3:2|3:2,0:0:0:0:
0,108,77029,2,0,P|34:101|69:96,1,70,10|0,0:2|0:2,0:0:0:0:
149,53,77373,2,0,L|194:64,3,35,10|8|8|8,0:2|0:2|0:2|0:2,0:0:0:0:
220,87,77718,2,0,L|265:76,3,35,10|0|0|0,0:2|3:2|3:2|3:2,0:0:0:0:
286,54,78063,5,6,3:0:0:0:
258,85,89098,5,4,3:2:0:0:
370,204,89443,2,0,L|352:285,1,62.9999980773926,2|2,1:2|0:2,0:0:0:0:
293,317,89787,2,0,P|262:287|166:312,1,125.999996154785,2|0,1:2|1:2,0:0:0:0:
115,345,90305,1,2,3:2:0:0:
114,345,90477,2,0,P|107:314|98:284,1,62.9999980773926,2|2,1:2|0:2,0:0:0:0:
22,213,90822,1,0,1:2:0:0:
168,143,91167,1,0,1:2:0:0:
27,59,91511,1,2,1:2:0:0:
176,152,91856,6,0,P|218:162|276:110,2,125.999996154785,0|2|0,3:2|1:2|1:2,0:0:0:0:
26,82,92891,1,2,1:2:0:0:
114,57,93063,2,0,P|98:118|85:179,1,125.999996154785,2|0,3:2|0:0,0:0:0:0:
1,243,93580,1,2,1:2:0:0:
127,350,93925,2,0,P|133:319|141:288,1,62.9999980773926,2|0,1:2|3:2,0:0:0:0:
205,236,94270,1,2,1:2:0:0:
325,347,94615,5,0,3:2:0:0:
448,239,94960,1,0,1:2:0:0:
346,110,95305,2,0,P|289:100|270:114,1,62.9999980773926,2|0,1:2|0:0,0:0:0:0:
222,150,95649,1,2,1:2:0:0:
156,99,95822,2,0,P|168:145|185:235,1,125.999996154785,0|0,3:2|0:0,0:0:0:0:
135,318,96339,1,2,1:2:0:0:
12,208,96684,2,0,P|6:176|2:145,1,62.9999980773926,0|0,1:2|3:2,0:0:0:0:
24,69,97029,1,2,1:2:0:0:
24,69,97201,1,2,0:2:0:0:
100,97,97374,6,0,P|162:91|225:84,2,125.999996154785,0|2|0,3:2|1:2|1:2,0:0:0:0:
201,232,98408,1,2,1:2:0:0:
201,232,98580,1,0,3:2:0:0:
265,180,98753,2,0,P|311:168|369:229,1,125.999996154785,2|0,1:2|1:2,0:0:0:0:
482,332,99443,2,0,L|417:345,1,62.9999980773926,2|0,1:2|3:2,0:0:0:0:
346,379,99787,2,0,L|281:366,1,62.9999980773926,2|0,1:2|0:0,0:0:0:0:
214,322,100132,5,4,3:2:0:0:
340,217,100477,2,0,P|351:184|338:139,1,62.9999980773926,2|2,1:2|0:2,0:0:0:0:
283,104,100822,2,0,L|143:124,1,125.999996154785,2|0,1:2|1:2,0:0:0:0:
110,189,101339,1,2,3:2:0:0:
110,189,101511,2,0,L|40:173,1,62.9999980773926,2|2,1:2|0:2,0:0:0:0:
0,99,101856,1,0,1:2:0:0:
148,29,102201,2,0,L|209:43,1,62.9999980773926,0|2,1:2|3:2,0:0:0:0:
273,94,102546,1,2,1:2:0:0:
189,235,102891,6,0,P|149:189|167:132,2,125.999996154785,0|2|0,3:2|1:2|1:2,0:0:0:0:
322,330,103925,1,2,1:2:0:0:
365,260,104098,2,0,P|352:198|342:136,1,125.999996154785,2|0,3:2|0:0,0:0:0:0:
363,42,104615,1,2,1:2:0:0:
483,153,104960,2,0,P|476:184|470:215,1,62.9999980773926,2|0,1:2|3:2,0:0:0:0:
460,297,105305,1,2,1:2:0:0:
308,358,105649,5,0,3:2:0:0:
234,211,105994,1,0,1:2:0:0:
128,336,106339,2,0,P|97:327|67:319,1,62.9999980773926,2|0,1:2|0:0,0:0:0:0:
8,262,106684,1,2,1:2:0:0:
76,215,106857,2,0,P|113:168|89:113,1,125.999996154785,0|0,3:2|0:0,0:0:0:0:
9,53,107374,1,2,1:2:0:0:
165,5,107718,2,0,P|197:10|226:17,1,62.9999980773926,0|0,1:2|3:2,0:0:0:0:
284,76,108063,1,0,1:2:0:0:
182,204,108408,6,0,P|198:258|211:326,2,125.999996154785,2|2|2,3:2|1:2|1:2,0:0:0:0:
94,62,109443,1,2,1:2:0:0:
56,133,109615,2,0,P|102:144|164:98,1,125.999996154785,0|0,3:2|0:0,0:0:0:0:
188,24,110132,1,2,1:2:0:0:
307,144,110477,1,0,1:2:0:0:
307,144,110649,1,2,3:2:0:0:
367,88,110822,2,0,P|372:57|377:25,1,62.9999980773926,0|0,1:2|0:0,0:0:0:0:
462,114,111167,6,0,P|449:180|440:247,1,125.999996154785,4|2,3:2|0:2,0:0:0:0:
480,310,111684,1,8,0:2:0:0:
328,372,112029,2,0,L|261:355,1,62.9999980773926,0|2,3:2|0:2,0:0:0:0:
234,280,112374,6,0,P|195:265|131:320,1,125.999996154785,2|0,3:2|0:0,0:0:0:0:
59,356,112891,2,0,P|55:324|50:293,1,62.9999980773926,2|0,3:2|0:0,0:0:0:0:
3,226,113236,2,0,P|8:194|11:163,1,62.9999980773926,8|0,0:2|3:2,0:0:0:0:
44,88,113580,1,10,0:3:0:0:
44,88,113753,1,8,0:3:0:0:
110,134,113925,6,0,P|161:143|215:97,1,125.999996154785,6|2,3:2|0:2,0:0:0:0:
225,15,114443,1,8,0:2:0:0:
344,125,114787,2,0,P|335:156|328:186,1,62.9999980773926,0|0,3:2|0:0,0:0:0:0:
359,263,115132,6,0,P|315:220|254:226,1,125.999996154785,0|0,3:2|0:0,0:0:0:0:
210,296,115649,1,0,3:2:0:0:
84,190,115994,2,0,P|89:159|96:128,1,62.9999980773926,8|0,0:2|0:0,0:0:0:0:
163,79,116339,1,0,3:2:0:0:
163,79,116511,1,0,3:2:0:0:
107,18,116684,6,0,P|56:3|-1:61,1,125.999996154785,6|2,3:2|0:2,0:0:0:0:
4,127,117201,1,8,0:2:0:0:
146,218,117546,1,0,3:2:0:0:
146,218,117718,1,10,0:2:0:0:
65,235,117891,6,0,P|34:265|53:346,1,125.999996154785,2|0,3:2|0:0,0:0:0:0:
118,381,118408,2,0,P|179:367|241:356,1,125.999996154785,2|8,3:2|0:2,0:0:0:0:
311,312,118925,1,8,0:3:0:0:
368,377,119098,1,8,0:3:0:0:
368,377,119270,1,8,0:2:0:0:
420,313,119443,6,0,B|439:242|439:242|396:184,1,125.999996154785,4|2,3:2|0:2,0:0:0:0:
330,172,119960,1,8,0:2:0:0:
398,22,120305,2,0,P|424:5|455:8,1,62.9999980773926,0|2,3:2|0:2,0:0:0:0:
510,68,120649,6,0,L|489:199,1,125.999996154785,8|0,0:3|3:2,0:0:0:0:
497,274,121167,2,0,P|465:277|434:283,1,62.9999980773926,10|8,0:2|0:2,0:0:0:0:
404,309,121425,1,8,0:2:0:0:
404,309,121511,2,0,P|373:303|341:299,1,62.9999980773926,8|0,0:2|3:2,0:0:0:0:
284,240,121856,1,2,3:2:0:0:
233,305,122029,1,0,0:0:0:0:
169,254,122201,1,2,0:2:0:0:
273,127,122546,5,2,0:2:0:0:
404,309,123063,5,2,0:2:0:0:
169,351,123580,5,2,0:2:0:0:
15,61,124270,5,10,0:2:0:0:
85,19,124443,2,0,P|123:10|167:77,1,125.999996154785,6|2,3:2|3:2,0:0:0:0:
146,109,124874,1,0,3:2:0:0:
146,109,124959,6,0,P|133:177|126:247,1,140,6|8,3:2|0:2,0:0:0:0:
184,317,125477,2,0,P|224:337|302:278,1,140,0|0,0:0|3:2,0:0:0:0:
361,225,125994,1,8,0:2:0:0:
430,284,126167,1,2,3:2:0:0:
474,204,126339,6,0,P|466:134|455:65,1,140,2|8,0:2|0:2,0:0:0:0:
383,8,126856,2,0,P|337:4|299:36,1,70,2|0,0:2|3:2,0:0:0:0:
283,99,127201,2,0,P|250:111|216:105,1,70,2|8,3:2|0:2,0:0:0:0:
146,47,127546,1,2,0:2:0:0:
102,139,127718,6,0,P|114:207|124:277,1,140,0|8,3:2|0:2,0:0:0:0:
84,360,128236,1,0,0:0:0:0:
172,378,128408,2,0,P|206:372|241:366,1,70,0|0,0:2|3:2,0:0:0:0:
317,316,128753,2,0,P|351:321|386:327,1,70,8|2,0:2|3:2,0:0:0:0:
465,372,129098,6,0,P|508:322|469:243,1,140,2|10,3:2|0:2,0:0:0:0:
423,192,129615,2,0,P|353:201|285:216,1,140,2|2,0:2|3:2,0:0:0:0:
190,280,130132,1,8,0:2:0:0:
54,158,130477,6,0,P|40:127|58:76,1,70,6|0,3:2|0:0,0:0:0:0:
113,31,130822,2,0,P|148:40|182:46,1,70,10|0,0:2|0:0,0:0:0:0:
240,116,131167,2,0,P|274:107|308:101,1,70,2|0,3:2|3:2,0:0:0:0:
374,39,131511,1,10,0:2:0:0:
451,87,131684,6,0,P|490:141|475:208,1,140,0|0,3:2|3:2,0:0:0:0:
421,282,132201,2,0,P|386:275|352:270,1,70,10|0,0:2|0:0,0:0:0:0:
273,224,132546,1,0,3:2:0:0:
273,224,132718,1,8,0:2:0:0:
236,307,132891,2,0,P|228:340|239:373,1,70,2|0,3:2|3:2,0:0:0:0:
352,270,133235,6,0,L|366:119,1,140,6|10,3:2|0:2,0:0:0:0:
298,39,133753,2,0,P|256:23|180:89,1,140,2|0,3:2|3:2,0:0:0:0:
135,150,134270,1,8,0:2:0:0:
207,205,134443,1,6,3:2:0:0:
126,277,134615,6,0,P|91:269|57:264,1,70,2|0,0:2|3:2,0:0:0:0:
2,191,134960,2,0,P|9:156|14:122,1,70,10|2,0:2|0:2,0:0:0:0:
76,54,135305,2,0,L|119:47,3,35,8|8|8|8,0:2|0:2|0:2|0:2,0:0:0:0:
153,64,135649,2,0,L|196:57,3,35,10|0|2|0,0:2|0:0|3:2|3:2,0:0:0:0:
225,32,135994,6,0,P|285:13|352:69,1,140,6|8,3:2|0:2,0:0:0:0:
400,125,136511,2,0,P|388:194|378:263,1,140,0|0,3:2|3:2,0:0:0:0:
321,334,137029,1,8,0:2:0:0:
254,272,137201,1,2,3:2:0:0:
172,314,137374,6,0,P|128:328|50:264,1,140,2|8,0:2|0:2,0:0:0:0:
9,200,137891,2,0,P|15:165|22:131,1,70,2|0,0:2|3:2,0:0:0:0:
99,81,138236,2,0,P|133:87|167:94,1,70,2|8,3:2|0:2,0:0:0:0:
222,166,138580,1,2,0:2:0:0:
321,108,138753,6,0,P|307:176|297:245,1,140,0|8,3:2|0:2,0:0:0:0:
351,320,139270,2,0,P|397:342|466:288,1,140,0|0,0:0|3:2,0:0:0:0:
509,216,139787,1,8,0:2:0:0:
440,156,139960,1,2,3:2:0:0:
505,93,140132,6,0,P|507:53|480:15,1,70,2|0,3:2|3:2,0:0:0:0:
406,0,140477,2,0,L|256:25,1,140,10|2,0:2|3:2,0:0:0:0:
205,89,140994,1,0,3:2:0:0:
273,149,141167,1,10,0:2:0:0:
105,79,141511,6,0,P|93:148|85:217,1,140,6|8,3:2|0:2,0:0:0:0:
131,296,142029,2,0,P|182:280|235:340,1,140,0|0,0:0|3:2,0:0:0:0:
316,379,142546,1,10,0:2:0:0:
367,304,142718,6,0,B|385:224|385:224|372:189|343:167,1,140,0|0,3:2|3:2,0:0:0:0:
280,120,143236,2,0,P|245:123|210:128,1,70,8|0,0:2|0:0,0:0:0:0:
145,191,143580,1,2,3:2:0:0:
145,191,143753,1,0,3:2:0:0:
70,139,143925,2,0,P|48:92|59:58,1,70,8|0,0:2|0:0,0:0:0:0:
133,0,144270,6,0,B|209:-13|186:51|271:33,1,140,6|8,3:2|0:2,0:0:0:0:
373,3,144787,2,0,P|354:70|338:138,1,140,6|0,0:2|3:2,0:0:0:0:
267,196,145305,1,10,0:2:0:0:
350,270,145477,6,0,P|382:286|467:215,1,140,4|0,3:2|3:2,0:0:0:0:
505,156,145994,2,0,P|471:145|437:138,1,70,8|2,0:2|0:2,0:0:0:0:
383,64,146339,2,0,L|325:75,3,35,10|8|8|8,0:2|0:2|0:2|0:2,0:0:0:0:
314,101,146684,2,0,L|256:90,3,35,10|8|10|8,0:2|0:2|0:2|0:2,0:0:0:0:
247,61,147029,6,0,P|256:130|264:199,2,140,14|10|10,0:2|0:2|0:2,0:0:0:0:
174,5,147891,1,0,3:2:0:0:
114,73,148063,2,0,P|70:81|36:60,1,70,10|0,0:2|3:2,0:0:0:0:
45,179,148408,6,0,P|89:171|123:192,1,70,10|0,0:2|3:2,0:0:0:0:
233,218,148753,2,0,P|204:183|205:143,1,70,10|0,0:2|3:2,0:0:0:0:
245,81,149098,1,10,0:2:0:0:
245,81,149270,1,0,3:2:0:0:
334,175,149443,6,0,P|326:226|318:278,1,105,10|0,0:2|0:0,0:0:0:0:
288,312,149787,6,0,L|436:338,2,140,10|10|10,0:2|0:2|0:2,0:0:0:0:
198,295,150649,1,0,3:2:0:0:
137,363,150822,2,0,P|102:365|72:348,1,70,10|0,0:2|3:2,0:0:0:0:
40,260,151167,6,0,L|58:177,1,70,10|0,0:2|3:2,0:0:0:0:
129,100,151511,2,0,L|147:183,1,70,10|10,0:2|0:2,0:0:0:0:
177,207,151770,1,8,0:2:0:0:
177,207,151856,2,0,P|213:210|242:190,1,70,8|10,0:2|0:3,0:0:0:0:
304,126,152201,1,2,3:2:0:0:
236,64,152374,1,2,3:2:0:0:
337,11,152546,6,0,P|406:21|475:33,1,140,6|8,3:2|0:2,0:0:0:0:
509,116,153063,2,0,P|500:150|495:185,1,70,2|0,3:2|0:0,0:0:0:0:
436,269,153408,1,10,0:2:0:0:
379,198,153580,1,10,0:2:0:0:
302,291,153753,6,0,P|255:308|197:234,1,140,2|2,3:2|3:2,0:0:0:0:
175,140,154270,2,0,P|208:130|242:124,1,70,10|0,0:2|0:2,0:0:0:0:
334,118,154615,2,0,L|320:63,3,35,2|0|0|0,3:2|3:2|3:2|3:0,0:0:0:0:
316,39,154959,2,0,L|261:25,3,35,10|0|0|0,0:2|3:2|3:0|3:0,0:0:0:0:
241,39,155304,6,0,P|200:20|126:64,1,125.999996154785,6|0,3:2|0:0,0:0:0:0:
99,133,155822,1,2,3:2:0:0:
99,133,155994,2,0,P|112:194|123:256,1,125.999996154785,8|2,0:2|0:2,0:0:0:0:
183,323,156511,1,0,3:2:0:0:
183,322,156684,2,0,P|176:353|171:384,2,62.9999980773926,2|8|0,0:2|0:2|3:2,0:0:0:0:
284,182,157374,2,0,P|339:167|391:225,1,125.999996154785,8|2,0:2|0:2,0:0:0:0:
479,344,158063,6,0,P|417:332|354:324,1,125.999996154785,6|2,3:2|0:2,0:0:0:0:
287,277,158580,1,0,3:2:0:0:
287,277,158753,2,0,P|224:284|162:296,1,125.999996154785,10|2,0:2|0:2,0:0:0:0:
101,351,159270,1,2,3:2:0:0:
22,213,159615,1,10,0:2:0:0:
22,213,159787,2,0,P|28:182|34:151,1,62.9999980773926,2|0,3:2|0:0,0:0:0:0:
90,91,160132,5,10,0:2:0:0:
90,91,160305,1,0,3:2:0:0:
145,158,160477,1,0,3:2:0:0:
145,158,160649,1,0,3:2:0:0:
206,73,160822,6,0,P|239:47|333:68,1,125.999996154785,6|0,3:2|0:0,0:0:0:0:
381,115,161339,1,2,3:2:0:0:
381,115,161511,2,0,P|368:176|357:238,1,125.999996154785,8|2,0:2|0:2,0:0:0:0:
305,303,162029,1,0,3:2:0:0:
305,302,162201,2,0,P|273:304|242:300,2,62.9999980773926,2|8|0,3:2|0:2|3:2,0:0:0:0:
454,371,162891,2,0,P|490:326|453:253,1,125.999996154785,8|2,0:2|0:2,0:0:0:0:
365,140,163580,6,0,P|302:149|241:163,1,125.999996154785,6|2,3:2|0:2,0:0:0:0:
175,212,164098,1,0,3:2:0:0:
175,212,164270,2,0,P|112:202|51:188,1,125.999996154785,10|0,0:2|0:0,0:0:0:0:
6,119,164787,1,0,3:2:0:0:
135,17,165132,5,8,0:2:0:0:
135,17,165305,2,0,L|218:28,1,62.9999980773926,2|8,3:2|0:2,0:0:0:0:
207,34,165563,1,8,0:2:0:0:
214,43,165649,2,0,L|297:32,1,62.9999980773926,8|8,0:2|0:2,0:0:0:0:
356,6,165994,1,8,0:2:0:0:
356,6,166167,1,8,0:2:0:0:
417,82,166339,6,0,L|397:222,1,125.999996154785,6|0,3:2|0:0,0:0:0:0:
341,265,166856,1,2,3:2:0:0:
341,265,167029,2,0,P|297:222|238:235,1,125.999996154785,10|0,0:2|0:0,0:0:0:0:
192,304,167546,1,8,0:2:0:0:
192,304,167718,2,0,L|211:371,2,62.9999980773926,6|0|0,3:2|0:0|0:0,0:0:0:0:
51,219,168408,2,0,P|32:180|65:109,1,125.999996154785,10|2,0:2|3:2,0:0:0:0:
127,56,168925,1,0,3:2:0:0:
184,114,169098,6,0,P|246:103|308:94,1,125.999996154785,6|2,3:2|0:2,0:0:0:0:
369,39,169615,1,0,3:2:0:0:
369,39,169787,2,0,P|408:24|479:74,1,125.999996154785,10|2,0:2|0:2,0:0:0:0:
507,145,170305,1,8,0:2:0:0:
507,145,170477,2,0,P|444:151|382:164,1,125.999996154785,4|2,3:2|3:2,0:0:0:0:
322,220,170994,1,0,3:2:0:0:
375,282,171167,6,0,L|425:289,2,41.9999987182618,10|8|8,0:2|0:2|0:2,0:0:0:0:
344,327,171511,2,0,L|351:377,2,41.9999987182618,10|8|8,0:3|0:3|0:3,0:0:0:0:
296,299,171856,6,0,P|232:285|187:349,1,125.999996154785,6|0,3:2|3:2,0:0:0:0:
75,206,172546,2,0,P|139:220|184:156,1,125.999996154785,2|0,0:2|3:2,0:0:0:0:
310,82,173236,2,0,P|298:143|288:206,1,125.999996154785,2|0,0:2|3:2,0:0:0:0:
340,276,173753,1,2,0:2:0:0:
340,276,173925,2,0,P|398:291|444:251,1,125.999996154785,2|2,0:2|3:2,0:0:0:0:
510,101,174615,6,0,P|448:89|385:81,1,125.999996154785,2|0,0:2|3:2,0:0:0:0:
236,12,175305,2,0,B|163:0|183:59|101:42,1,125.999996154785,2|0,0:2|3:2,0:0:0:0:
42,189,175994,2,0,P|84:153|152:171,1,125.999996154785,2|0,0:2|3:2,0:0:0:0:
222,214,176511,1,10,0:2:0:0:
222,214,176684,2,0,P|215:244|210:275,1,62.9999980773926,10|10,0:2|0:2,0:0:0:0:
143,321,177029,1,8,0:3:0:0:
143,321,177201,1,8,0:3:0:0:
205,374,177374,6,0,P|266:362|329:352,1,125.999996154785,6|2,3:2|0:2,0:0:0:0:
379,287,177891,1,14,0:2:0:0:
222,214,178236,1,10,0:3:0:0:
354,100,178580,1,6,0:3:0:0:
379,287,178925,5,0,3:2:0:0:
331,203,179098,2,0,P|361:194|392:190,1,62.9999980773926,10|8,0:2|0:2,0:0:0:0:
404,179,179356,1,8,0:2:0:0:
414,169,179443,2,0,P|445:173|475:181,1,62.9999980773926,10|0,0:2|3:2,0:0:0:0:
512,259,179787,1,2,3:2:0:0:
512,259,179960,1,0,3:2:0:0:
460,333,180132,5,6,3:2:0:0:
470,78,191167,6,0,B|360:61|401:144|274:115,1,188.999994232178,6|2,3:2|3:2,0:0:0:0:
229,67,191856,2,0,P|242:128|254:190,1,125.999996154785,8|2,0:2|0:2,0:0:0:0:
260,272,192374,1,2,3:2:0:0:
129,182,192718,1,8,0:2:0:0:
129,182,192891,2,0,P|122:151|116:120,1,62.9999980773926,0|2,3:2|0:2,0:0:0:0:
167,54,193236,2,0,P|197:59|228:66,1,62.9999980773926,8|2,0:2|0:2,0:0:0:0:
293,119,193580,1,0,0:0:0:0:
184,242,193925,6,0,B|130:299|191:365|191:365|248:310,1,188.999994232178,4|2,3:2|3:2,0:0:0:0:
291,279,194615,2,0,P|340:265|404:315,1,125.999996154785,8|2,0:2|0:2,0:0:0:0:
436,376,195132,1,6,3:2:0:0:
507,230,195477,1,8,0:2:0:0:
507,230,195649,2,0,P|500:199|494:168,1,62.9999980773926,2|0,3:2|3:2,0:0:0:0:
440,105,195994,1,10,0:2:0:0:
320,216,196339,1,2,3:2:0:0:
320,216,196511,1,0,3:2:0:0:
260,159,196684,6,0,P|211:150|165:219,1,125.999996154785,6|0,3:2|0:0,0:0:0:0:
69,338,197374,1,10,0:2:0:0:
69,338,197546,2,0,P|64:306|57:276,1,62.9999980773926,0|2,3:2|0:2,0:0:0:0:
10,209,197891,1,4,3:2:0:0:
112,82,198236,1,8,0:2:0:0:
112,82,198408,2,0,P|116:113|123:143,1,62.9999980773926,0|0,3:2|3:2,0:0:0:0:
196,180,198753,2,0,P|226:173|257:168,1,62.9999980773926,10|0,0:2|0:0,0:0:0:0:
315,109,199098,1,8,0:2:0:0:
315,109,199270,1,8,0:2:0:0:
388,145,199443,6,0,P|422:176|405:262,1,125.999996154785,6|0,3:2|0:0,0:0:0:0:
352,301,199960,1,2,3:2:0:0:
352,301,200132,2,0,P|321:294|290:288,1,62.9999980773926,14|0,0:2|3:2,0:0:0:0:
217,250,200477,1,14,0:2:0:0:
88,351,200822,5,2,3:2:0:0:
88,351,200994,2,0,P|109:307|62:233,1,125.999996154785,8|10,0:2|0:2,0:0:0:0:
66,235,201425,1,8,0:2:0:0:
54,235,201511,2,0,L|70:154,1,62.9999980773926,10|8,0:2|0:3,0:0:0:0:
109,103,201856,1,2,3:2:0:0:
171,156,202029,1,10,0:2:0:0:
228,97,202201,6,0,P|255:73|346:91,1,125.999996154785,6|2,3:2|3:2,0:0:0:0:
399,145,202718,1,0,0:0:0:0:
399,145,202891,2,0,L|377:277,1,125.999996154785,2|2,0:2|3:2,0:0:0:0:
234,347,203580,6,0,L|212:215,2,125.999996154785,2|2|2,0:2|3:2|0:2,0:0:0:0:
378,269,204615,2,0,P|398:233|377:178,1,94.499997116089,2|0,3:2|0:0,0:0:0:0:
350,159,204960,6,0,L|198:133,1,125.999996154785,2|2,0:2|3:2,0:0:0:0:
181,74,205477,1,0,0:0:0:0:
181,74,205649,2,0,L|105:92,1,62.9999980773926,2|0,0:2|0:0,0:0:0:0:
46,125,205994,1,2,3:2:0:0:
107,276,206339,6,0,P|150:316|225:283,1,125.999996154785,2|2,0:2|3:2,0:0:0:0:
271,246,206856,2,0,L|248:107,1,125.999996154785,2|2,0:2|0:2,0:0:0:0:
192,63,207374,1,2,3:2:0:0:
139,125,207546,1,2,0:2:0:0:
55,63,207718,6,0,P|48:126|39:188,1,125.999996154785,6|8,3:2|0:2,0:0:0:0:
13,287,208236,2,0,P|44:279|75:275,1,62.9999980773926,2|0,0:2|3:2,0:0:0:0:
146,316,208580,1,2,3:2:0:0:
189,246,208753,1,2,3:2:0:0:
259,324,208925,6,0,P|314:342|362:283,1,125.999996154785,10|2,0:2|3:2,0:0:0:0:
386,221,209443,2,0,L|371:142,1,62.9999980773926,14|0,0:2|0:0,0:0:0:0:
343,83,209787,2,0,L|300:73,3,31.4999990386963,10|8|8|8,0:2|0:2|0:2|0:2,0:0:0:0:
290,40,210132,2,0,L|247:50,3,31.4999990386963,10|10|10|10,0:2|0:2|0:2|0:2,0:0:0:0:
240,89,210477,6,0,P|174:111|120:57,1,140,6|8,3:2|0:2,0:0:0:0:
57,15,210994,1,2,0:2:0:0:
57,15,211167,1,2,3:2:0:0:
3,88,211339,2,0,P|8:122|13:157,1,70,2|10,3:2|0:2,0:0:0:0:
70,228,211684,6,0,P|122:186|185:209,1,140,2|0,3:2|3:2,0:0:0:0:
265,251,212201,2,0,P|260:285|255:320,1,70,8|0,0:2|0:0,0:0:0:0:
187,381,212546,1,2,3:2:0:0:
187,381,212718,1,2,3:2:0:0:
117,321,212891,2,0,P|80:311|34:332,1,70,8|2,0:2|0:2,0:0:0:0:
12,236,213236,6,0,P|55:226|52:138,1,140,2|8,3:2|0:2,0:0:0:0:
1,72,213753,1,2,0:2:0:0:
76,22,213925,2,0,P|111:23|146:29,1,70,0|0,3:0|3:2,0:0:0:0:
215,89,214270,1,8,0:2:0:0:
286,31,214443,1,2,3:2:0:0:
354,90,214615,6,0,P|338:158|326:227,1,140,2|10,3:2|0:2,0:0:0:0:
375,303,215132,2,0,P|429:323|495:261,1,140,2|2,0:2|3:2,0:0:0:0:
447,174,215649,1,8,0:2:0:0:
265,154,215994,6,0,P|230:160|196:168,1,70,6|0,3:2|0:0,0:0:0:0:
124,225,216339,2,0,P|89:216|55:210,1,70,10|0,0:2|0:0,0:0:0:0:
0,133,216684,2,0,P|-7:96|13:61,1,70,2|0,3:2|3:2,0:0:0:0:
68,1,217029,1,10,0:2:0:0:
132,65,217201,6,0,P|188:82|242:19,1,140,0|0,3:2|3:2,0:0:0:0:
330,13,217718,2,0,P|322:48|317:82,1,70,10|0,0:2|0:0,0:0:0:0:
256,150,218063,1,0,3:2:0:0:
328,205,218236,1,8,0:2:0:0:
268,273,218408,2,0,P|229:277|189:248,1,70,10|8,0:2|0:0,0:0:0:0:
97,205,218753,6,0,P|107:274|115:343,1,140,6|10,3:2|0:2,0:0:0:0:
18,357,219270,2,0,P|7:287|0:218,1,140,2|8,0:2|0:3,0:0:0:0:
36,135,219787,1,8,0:2:0:0:
97,205,219960,1,14,0:2:0:0:
159,138,220132,6,0,P|192:121|234:131,1,70,2|0,0:2|3:2,0:0:0:0:
253,211,220477,2,0,P|286:227|328:217,1,70,10|2,0:2|0:2,0:0:0:0:
383,160,220822,2,0,L|372:95,3,35,8|8|8|8,0:2|0:2|0:2|0:2,0:0:0:0:
336,104,221167,2,0,L|341:69,3,35,10|8|10|8,0:2|0:2|0:2|0:2,0:0:0:0:
363,29,221511,6,0,P|429:17|478:64,1,140,6|8,3:2|0:2,0:0:0:0:
507,151,222029,2,0,P|495:220|485:289,1,140,2|0,3:2|3:2,0:0:0:0:
425,358,222546,1,8,0:2:0:0:
358,296,222718,1,2,3:2:0:0:
276,336,222891,6,0,P|206:324|137:314,1,140,2|8,0:2|0:2,0:0:0:0:
70,252,223408,2,0,P|54:211|66:175,1,70,2|0,0:2|3:2,0:0:0:0:
130,129,223753,2,0,P|164:134|199:139,1,70,2|8,3:2|0:2,0:0:0:0:
268,199,224098,1,2,0:2:0:0:
354,128,224270,6,0,P|378:85|327:10,1,140,0|8,3:2|0:2,0:0:0:0:
249,41,224787,2,0,P|179:29|110:19,1,140,2|2,0:2|3:2,0:0:0:0:
31,66,225305,1,10,0:2:0:0:
84,139,225477,1,2,3:2:0:0:
27,210,225649,6,0,L|44:292,1,70,2|0,0:2|3:2,0:0:0:0:
109,338,225994,2,0,B|183:350|159:283|256:305,1,140,10|2,0:2|3:2,0:0:0:0:
310,358,226511,1,0,3:2:0:0:
354,278,226684,1,10,0:2:0:0:
507,376,227029,6,0,P|472:344|491:253,1,140,6|8,3:2|0:2,0:0:0:0:
511,172,227546,2,0,P|442:158|372:149,1,140,0|0,0:0|3:2,0:0:0:0:
294,103,228063,1,10,0:2:0:0:
241,177,228236,6,0,B|221:261|221:261|267:316,1,140,0|0,3:2|3:2,0:0:0:0:
323,362,228753,2,0,P|356:350|390:342,1,70,8|0,0:2|0:0,0:0:0:0:
464,289,229098,2,0,P|476:244|460:211,1,70,2|8,3:2|0:3,0:0:0:0:
444,191,229356,1,8,0:3:0:0:
444,191,229443,2,0,P|436:157|448:125,1,70,0|0,3:2|3:2,0:0:0:0:
492,29,229787,6,0,P|440:72|375:54,1,140,6|8,3:2|0:2,0:0:0:0:
278,2,230305,2,0,P|268:71|259:140,1,140,2|0,3:2|3:2,0:0:0:0:
305,219,230822,1,10,0:2:0:0:
212,292,230994,6,0,P|143:278|74:266,1,140,4|0,3:2|3:2,0:0:0:0:
9,202,231511,2,0,P|0:160|15:124,1,70,8|10,0:2|0:2,0:0:0:0:
43,105,231770,1,8,0:2:0:0:
43,105,231856,2,0,L|120:96,1,70,10|8,0:2|0:2,0:0:0:0:
189,146,232201,1,10,0:2:0:0:
231,65,232374,1,10,0:2:0:0:
305,165,232546,6,0,P|326:222|305:311,2,140,14|10|10,0:2|0:2|0:2,0:0:0:0:
375,106,233408,1,0,3:2:0:0:
300,53,233580,2,0,L|202:70,1,70,10|0,0:2|3:2,0:0:0:0:
127,137,233925,6,0,L|144:235,1,70,10|0,0:2|3:2,0:0:0:0:
221,293,234270,2,0,L|238:195,1,70,10|0,0:2|3:2,0:0:0:0:
305,165,234615,1,10,0:2:0:0:
305,165,234787,1,0,3:2:0:0:
372,226,234960,2,0,P|412:238|470:193,1,105,10|0,0:2|0:0,0:0:0:0:
503,184,235305,6,0,L|482:39,2,140,10|10|10,0:2|0:2|0:2,0:0:0:0:
512,274,236167,1,0,3:2:0:0:
430,313,236339,2,0,P|395:305|361:299,1,70,10|0,0:2|3:2,0:0:0:0:
285,212,236684,6,0,P|241:206|205:231,1,70,10|0,0:2|3:2,0:0:0:0:
167,323,237029,2,0,P|134:334|100:327,1,70,10|10,0:2|0:2,0:0:0:0:
66,298,237287,1,8,0:2:0:0:
66,298,237374,2,0,L|82:218,1,70,8|10,0:2|0:3,0:0:0:0:
129,153,237718,1,2,3:2:0:0:
60,92,237891,1,2,3:2:0:0:
154,23,238063,6,0,P|202:6|268:72,1,140,6|8,3:2|0:2,0:0:0:0:
312,135,238580,2,0,P|306:170|301:205,1,70,2|8,3:2|0:3,0:0:0:0:
352,281,238925,1,10,0:3:0:0:
301,357,239098,1,2,3:2:0:0:
219,283,239270,6,0,P|167:265|93:330,1,140,10|2,0:2|3:2,0:0:0:0:
0,360,239787,2,0,P|10:290|18:221,1,140,10|10,0:2|0:2,0:0:0:0:
44,184,240218,1,8,0:2:0:0:
44,184,240305,2,0,L|36:137,2,35,8|8|10,0:2|0:2|0:2,0:0:0:0:
133,177,240649,1,0,0:0:0:0:
198,253,240822,6,0,L|183:337,2,70,6|2|10,3:2|0:2|0:2,0:0:0:0:
299,198,241339,2,0,L|314:282,2,70,6|2|2,3:2|0:2|3:2,0:0:0:0:
227,141,241856,1,10,0:2:0:0:
324,55,242029,6,0,P|253:46|177:19,1,140,6|0,3:2|3:2,0:0:0:0:
109,70,242546,2,0,P|81:109|85:149,1,70,10|8,0:2|0:3,0:0:0:0:
112,214,242891,2,0,L|163:206,2,46.6666666666667,10|8|8,0:3|0:3|0:3,0:0:0:0:
63,251,243236,2,0,L|12:243,2,46.6666666666667,10|8|8,0:3|0:3|0:3,0:0:0:0:
93,299,243580,6,0,P|162:307|231:318,1,140,6|8,3:2|0:2,0:0:0:0:
319,261,244098,2,0,P|341:234|309:130,1,140,6|2,3:2|3:2,0:0:0:0:
248,83,244615,1,10,0:2:0:0:
158,177,244787,6,0,L|245:194,1,70,2|0,3:2|0:0,0:0:0:0:
319,261,245132,1,2,3:2:0:0:
204,324,245305,1,2,3:2:0:0:
485,82,246339,6,0,B|432:-8|331:45|331:45|382:128,1,262.500010013581,6|0,3:2|0:0,0:0:0:0:
428,186,247374,1,2,0:0:0:0:
428,186,247546,2,0,B|384:256|383:344|383:344|382:286|343:232,1,262.500010013581,2|0,0:0|0:0,0:0:0:0:
122,11,249098,6,0,B|38:-5|10:66|10:66|35:138|123:124,1,262.500010013581,2|0,0:0|0:0,0:0:0:0:
193,144,250132,1,2,0:0:0:0:
193,144,250305,2,0,B|222:141|248:123|248:123|212:281,1,210.000008010865,2|0,0:0|0:0,0:0:0:0:
178,346,251167,6,0,P|105:362|66:300,1,157.500006008148,2|0,0:0|3:0,0:0:0:0:
80,263,251770,1,0,3:2:0:0:
80,263,251856,6,0,P|182:243|284:215,1,210.000008010865,6|2,3:2|0:0,0:0:0:0:
512,40,253236,2,0,P|432:24|352:2,1,157.500006008148,2|8,0:0|0:2,0:0:0:0:
216,91,254098,1,8,0:3:0:0:
216,91,254270,1,8,0:3:0:0:
343,200,254615,6,0,B|425:241|458:159|458:159|376:118,1,210.000008010865,6|2,3:2|0:0,0:0:0:0:
321,93,255477,1,2,0:0:0:0:
115,225,255994,2,0,P|93:258|106:324,1,105.000004005432,2|2,0:0|0:0,0:0:0:0:
246,338,256704,2,0,P|268:305|255:239,1,105.000004005432,2|2,0:0|0:0,0:0:0:0:
197,122,257362,5,2,0:0:0:0:
256,192,257562,12,2,261977,0:0:0:0:
