osu file format v14

[General]
AudioFilename: audio.mp3
AudioLeadIn: 0
PreviewTime: 46856
Countdown: 0
SampleSet: Soft
StackLeniency: 0.7
Mode: 0
LetterboxInBreaks: 0
WidescreenStoryboard: 1

[Editor]
Bookmarks: 11856,33925,47718,78063,89097,111166,124959,155304,171856,180132,191166,202201,210477,221511,246339,257373,261977
DistanceSpacing: 1
BeatDivisor: 4
GridSize: 32
TimelineZoom: 1

[Metadata]
Title:FLOWERS
TitleUnicode:FLOWERS
Artist:Shimotsuki Haruka
ArtistUnicode:霜月はるか
Creator:Shirahane Suou
Version:Easy
Source:FLOWERS -Le volume sur printemps-
Tags:春篇 haru hen the volume on spring innocent grey gray japanese pop video game visual novel opening 百合 yuri manyo 鈴湯 suzuyu spokenaway reisevia roda totsuki pache knowledge
BeatmapID:3402317
BeatmapSetID:1666487

[Difficulty]
HPDrainRate:2
CircleSize:3
OverallDifficulty:3
ApproachRate:4
SliderMultiplier:0.899999999999999
SliderTickRate:1

[Events]
//Background and Video events
0,0,"easy.jpg",0,0
//Break Periods
2,78263,87778
2,180332,189847
//Storyboard Layer 0 (Background)
//Storyboard Layer 1 (Fail)
//Storyboard Layer 2 (Pass)
//Storyboard Layer 3 (Foreground)
//Storyboard Layer 4 (Overlay)
//Storyboard Sound Samples

[TimingPoints]
822,344.827586206897,4,2,1,50,1,0
11856,-100,4,2,1,40,0,0
33925,-100,4,2,1,50,0,0
47718,-100,4,2,1,70,0,1
78063,-100,4,2,1,50,0,0
88753,-100,4,2,1,60,0,0
124959,-100,4,2,1,70,0,1
155304,-100,4,2,1,60,0,0
180132,-100,4,2,1,40,0,0
191167,-100,4,2,1,60,0,0
210132,-100,4,2,1,70,0,0
210477,-100,4,2,1,70,0,1
245390,-100,4,2,1,50,0,0
255994,355.029585798817,4,2,1,50,1,0
257059,303.030303030303,4,2,1,50,1,0
257362,400,4,2,1,50,1,0
257562,519.480519480519,4,2,1,50,1,0

[Colours]
Combo1 : 253,221,169
Combo2 : 188,207,173
Combo3 : 241,159,105
Combo4 : 218,139,143

[HitObjects]
115,50,822,6,0,B|199:9|270:66|234:92|313:169|408:110,1,315,2|0,0:0|0:0,0:0:0:0:
152,342,3580,2,0,B|33:287|112:160|112:160|171:236,1,315,2|0,0:0|0:0,0:0:0:0:
364,214,6339,6,0,P|393:150|355:41,1,180,6|2,3:2|0:0,0:0:0:0:
182,51,7718,2,0,P|153:115|191:224,1,180,2|2,0:0|0:0,0:0:0:0:
358,257,9098,2,0,P|306:248|305:347,1,180,6|2,3:2|0:0,0:0:0:0:
482,336,10477,1,2,0:0:0:0:
215,163,11856,6,0,P|200:121|217:80,1,89.9999999999999,2|0,0:0|0:0,0:0:0:0:
278,14,12546,1,2,0:0:0:0:
350,128,13063,2,0,L|350:362,1,225,2|0,0:0|0:0,0:0:0:0:
169,354,14615,6,0,P|150:313|164:272,1,89.9999999999999,2|0,0:0|0:0,0:0:0:0:
186,185,15305,2,0,B|221:191|247:213|247:213|273:184|323:183,1,135,2|0,0:0|0:0,0:0:0:0:
405,275,16339,2,0,L|406:379,2,89.9999999999999,2|0|0,0:0|0:0|0:0,0:0:0:0:
454,199,17374,5,2,0:0:0:0:
314,85,18063,2,0,P|279:74|222:98,2,89.9999999999999,2|0|0,0:0|0:0|0:0,0:0:0:0:
319,175,19098,1,2,0:0:0:0:
173,346,19960,6,0,P|111:370|50:345,1,135,2|0,0:0|0:0,0:0:0:0:
7,266,20822,2,0,P|10:217|88:199,1,135,2|0,0:0|0:0,0:0:0:0:
161,241,21684,2,0,P|213:249|214:141,1,180,2|0,0:0|0:0,0:0:0:0:
161,30,22891,6,0,L|72:30,1,89.9999999999999,2|0,0:0|0:0,0:0:0:0:
7,93,23580,1,2,0:0:0:0:
123,161,24098,2,0,P|134:273|117:385,1,225,2|0,0:0|0:0,0:0:0:0:
298,380,25649,6,0,P|283:331|301:277,1,89.9999999999999,2|0,0:0|0:0,0:0:0:0:
360,235,26339,2,0,B|395:176|395:176|359:113,1,135,2|0,0:0|0:0,0:0:0:0:
270,18,27374,2,0,P|214:14|199:82,1,135,2|0,0:0|0:0,0:0:0:0:
263,197,28408,5,2,0:0:0:0:
168,350,29098,2,0,P|105:374|31:344,1,135,2|0,0:0|0:0,0:0:0:0:
103,233,30132,1,2,0:0:0:0:
17,3,31167,6,0,P|0:55|18:94,1,89.9999999999999,2|0,0:0|0:0,0:0:0:0:
87,135,31856,1,2,0:0:0:0:
160,82,32201,1,2,0:0:0:0:
235,131,32546,2,0,B|332:152|302:65|420:98,1,180,2|0,0:0|0:0,0:0:0:0:
505,242,33925,6,0,L|407:242,1,89.9999999999999,2|0,0:0|0:0,0:0:0:0:
342,296,34615,1,2,3:2:0:0:
233,216,35132,2,0,P|215:168|231:84,1,135,2|0,0:0|0:0,0:0:0:0:
295,26,35994,2,0,P|329:16|396:27,1,89.9999999999999,2|0,3:2|0:0,0:0:0:0:
465,56,36684,6,0,B|487:95|487:95|468:143,1,89.9999999999999,2|0,0:0|0:0,0:0:0:0:
400,194,37374,2,0,B|378:233|378:233|397:281,1,89.9999999999999,2|0,3:2|0:0,0:0:0:0:
478,307,38063,2,0,L|293:333,1,180,2|0,0:0|3:2,0:0:0:0:
171,205,39443,6,0,L|171:109,1,89.9999999999999,2|0,0:0|0:0,0:0:0:0:
213,35,40132,1,2,3:2:0:0:
318,118,40649,2,0,B|382:145|382:145|454:112,2,135,2|0|0,0:0|0:0|0:0,0:0:0:0:
213,35,42201,6,0,P|166:21|115:44,1,89.9999999999999,2|0,0:0|0:0,0:0:0:0:
63,95,42891,2,0,L|63:194,1,89.9999999999999,2|0,3:2|0:0,0:0:0:0:
124,250,43580,2,0,P|171:264|222:241,1,89.9999999999999,2|0,0:0|0:0,0:0:0:0:
270,186,44270,1,2,3:2:0:0:
342,239,44615,2,0,P|354:281|340:323,1,89.9999999999999,2|2,0:2|0:2,0:0:0:0:
264,373,45305,5,2,0:2:0:0:
17,148,47028,6,0,B|-5:109|-5:109|18:62,1,89.9999999999999,10|2,0:2|0:2,0:0:0:0:
88,16,47718,6,0,P|128:7|180:16,1,89.9999999999999,6|8,3:2|0:2,0:0:0:0:
242,75,48408,1,0,3:2:0:0:
186,145,48753,1,8,0:2:0:0:
245,212,49098,2,0,B|305:237|305:237|369:211,1,135,2|2,0:2|0:2,0:0:0:0:
431,148,49960,1,2,3:2:0:0:
377,75,50305,6,0,L|229:75,1,135,2|8,0:2|0:2,0:0:0:0:
186,145,51167,1,0,0:2:0:0:
119,84,51511,1,8,0:2:0:0:
56,148,51856,2,0,B|45:199|45:199|57:230|57:230|46:284,2,135,2|2|8,0:2|0:2|0:2,0:0:0:0:
119,84,53236,6,0,P|162:66|208:85,1,89.9999999999999,6|10,3:2|0:2,0:0:0:0:
268,138,53925,1,2,3:2:0:0:
203,200,54270,2,0,B|194:247|159:278|159:278|152:333|207:369,1,180,10|10,0:2|0:2,0:0:0:0:
278,377,55305,1,0,3:2:0:0:
320,297,55649,1,10,0:2:0:0:
385,358,55994,6,0,B|448:378|448:378|508:346,1,135,6|6,3:2|3:2,0:0:0:0:
510,210,57029,1,8,0:2:0:0:
433,162,57374,2,0,P|365:157|298:163,1,135,2|10,0:2|0:2,0:0:0:0:
205,261,58408,1,2,3:2:0:0:
137,202,58753,6,0,P|119:169|135:112,1,89.9999999999999,6|8,3:2|0:2,0:0:0:0:
198,61,59443,1,0,0:0:0:0:
269,115,59787,1,8,0:2:0:0:
345,67,60132,2,0,B|411:52|411:52|447:62|464:115,1,135,2|2,0:2|0:2,0:0:0:0:
509,170,60994,1,2,3:2:0:0:
470,251,61339,6,0,P|380:258|316:272,1,135,2|8,0:2|0:2,0:0:0:0:
167,327,62546,1,8,0:2:0:0:
98,267,62891,2,0,P|104:223|108:178,1,89.9999999999999,2|10,3:2|0:2,0:0:0:0:
151,99,63580,1,2,3:2:0:0:
226,147,63925,1,10,0:2:0:0:
296,90,64270,6,0,P|338:76|381:89,2,89.9999999999999,6|8|0,3:2|0:2|3:2,0:0:0:0:
226,147,65305,1,10,0:2:0:0:
279,218,65649,2,0,P|288:261|295:306,1,89.9999999999999,2|8,0:2|0:2,0:0:0:0:
228,366,66339,2,0,P|184:356|139:349,1,89.9999999999999,2|8,3:2|0:2,0:0:0:0:
58,309,67029,6,0,P|20:255|39:193,1,135,6|6,3:2|3:2,0:0:0:0:
88,118,67891,1,0,3:2:0:0:
164,165,68236,2,0,P|208:173|313:180,1,135,4|8,3:2|0:2,0:0:0:0:
376,137,69098,2,0,P|393:113|378:50,1,89.9999999999999,10|10,0:2|0:2,0:0:0:0:
305,12,69787,6,0,L|213:26,1,89.9999999999999,14|10,0:2|0:2,0:0:0:0:
155,92,70477,1,10,0:2:0:0:
86,33,70822,1,10,0:2:0:0:
22,96,71167,2,0,L|8:188,1,89.9999999999999,10|10,0:2|0:2,0:0:0:0:
72,247,71856,1,10,0:2:0:0:
15,317,72201,1,10,0:2:0:0:
89,367,72546,6,0,L|181:350,1,89.9999999999999,10|10,0:2|0:2,0:0:0:0:
248,294,73236,1,10,0:2:0:0:
317,350,73580,1,10,0:2:0:0:
366,275,73925,2,0,B|378:211|378:211|359:169|318:158,2,135,10|10|2,0:2|0:2|3:2,0:0:0:0:
317,350,75305,6,0,P|250:339|183:330,1,135,6|2,3:2|3:2,0:0:0:0:
111,275,76167,1,10,0:2:0:0:
165,203,76511,5,2,3:2:0:0:
49,133,77029,1,10,0:2:0:0:
103,61,77374,2,0,P|138:38|188:45,1,89.9999999999999,10|10,0:2|0:2,0:0:0:0:
262,87,78063,5,4,3:2:0:0:
262,87,89098,5,4,3:2:0:0:
323,152,89443,2,0,P|338:188|325:241,1,89.9999999999999,2|2,1:2|1:2,0:0:0:0:
221,320,90305,2,0,P|191:332|167:250,1,135,2|0,3:2|1:2,0:0:0:0:
198,178,91167,2,0,P|190:133|182:89,1,89.9999999999999,0|2,1:2|1:2,0:0:0:0:
109,35,91856,5,0,3:2:0:0:
70,116,92201,2,0,P|77:160|85:204,1,89.9999999999999,2|0,1:2|1:2,0:0:0:0:
191,288,93063,2,0,B|232:283|262:260|262:260|292:265|314:301,1,135,2|2,3:2|1:2,0:0:0:0:
367,359,93925,1,2,1:2:0:0:
453,334,94270,1,2,1:2:0:0:
471,245,94615,5,0,3:2:0:0:
384,86,95305,1,2,1:2:0:0:
330,158,95649,2,0,P|300:172|231:154,1,89.9999999999999,2|2,1:2|1:2,0:0:0:0:
180,100,96339,1,2,1:2:0:0:
61,235,97029,1,2,1:2:0:0:
118,304,97374,6,0,P|156:316|212:289,1,89.9999999999999,0|2,3:2|1:2,0:0:0:0:
250,223,98063,1,0,1:2:0:0:
350,313,98580,2,0,P|364:247|381:181,1,135,0|0,3:2|1:2,0:0:0:0:
331,106,99443,2,0,P|302:81|248:87,1,89.9999999999999,2|2,1:2|1:2,0:0:0:0:
177,133,100132,5,4,3:2:0:0:
238,198,100477,2,0,P|249:241|258:285,1,89.9999999999999,2|2,1:2|1:2,0:0:0:0:
167,384,101339,2,0,P|119:339|56:353,1,135,2|0,3:2|1:2,0:0:0:0:
1,282,102201,2,0,P|10:237|17:193,1,89.9999999999999,0|2,1:2|1:2,0:0:0:0:
4,104,102891,5,0,3:2:0:0:
73,47,103236,2,0,P|108:38|164:68,1,89.9999999999999,2|0,1:2|1:2,0:0:0:0:
248,157,104098,2,0,P|280:168|357:111,1,135,2|2,3:2|1:2,0:0:0:0:
415,47,104960,1,2,1:2:0:0:
486,101,105305,1,2,1:2:0:0:
457,185,105649,5,0,3:2:0:0:
291,256,106339,2,0,P|249:270|206:257,1,89.9999999999999,2|2,1:2|1:2,0:0:0:0:
135,202,107028,1,2,1:2:0:0:
66,261,107374,2,0,P|75:304|84:349,2,89.9999999999999,2|0|0,1:2|1:2|1:2,0:0:0:0:
15,186,108408,6,0,P|24:142|33:97,1,89.9999999999999,2|2,3:2|1:2,0:0:0:0:
91,28,109098,1,2,1:2:0:0:
166,77,109443,2,0,B|263:98|233:11|351:44,1,180,2|2,1:2|1:2,0:0:0:0:
407,91,110477,2,0,P|400:135|394:180,1,89.9999999999999,0|0,1:2|1:2,0:0:0:0:
340,252,111167,6,0,P|317:296|363:373,1,135,4|8,3:2|0:2,0:0:0:0:
441,377,112029,1,0,3:2:0:0:
502,311,112374,2,0,P|491:244|483:177,1,135,2|2,3:2|3:2,0:0:0:0:
427,106,113236,1,8,0:2:0:0:
351,154,113580,1,10,0:3:0:0:
295,82,113925,6,0,P|233:61|179:98,1,135,6|8,3:2|0:2,0:0:0:0:
112,157,114787,1,0,3:2:0:0:
178,218,115132,1,0,3:2:0:0:
72,301,115649,1,0,3:2:0:0:
145,352,115994,2,0,P|187:364|228:348,1,89.9999999999999,8|0,0:2|3:2,0:0:0:0:
273,269,116684,6,0,P|320:253|389:318,1,135,6|8,3:2|0:2,0:0:0:0:
446,365,117546,1,0,3:2:0:0:
502,295,117891,2,0,P|489:228|479:161,1,135,2|2,3:2|3:2,0:0:0:0:
508,76,118753,1,8,0:2:0:0:
442,14,119098,1,8,0:3:0:0:
374,73,119443,6,0,P|307:85|240:93,1,135,4|8,3:2|0:2,0:0:0:0:
161,49,120305,1,0,3:2:0:0:
95,110,120649,2,0,P|88:142|111:246,1,135,8|10,0:3|0:2,0:0:0:0:
180,293,121511,2,0,P|226:298|261:268,1,89.9999999999999,8|2,0:2|3:2,0:0:0:0:
282,185,122201,1,2,0:2:0:0:
196,155,122546,5,2,0:2:0:0:
353,344,124270,6,0,P|398:366|448:354,1,89.9999999999999,10|6,0:2|0:2,0:0:0:0:
488,286,124960,6,0,L|471:195,1,89.9999999999999,6|8,3:2|0:2,0:0:0:0:
416,126,125649,1,0,3:2:0:0:
345,181,125994,1,8,0:2:0:0:
276,122,126339,2,0,B|210:107|210:107|174:117|157:170,1,135,2|2,0:2|0:2,0:0:0:0:
104,220,127201,1,2,3:2:0:0:
166,284,127546,6,0,P|232:270|298:259,1,135,2|8,0:2|0:2,0:0:0:0:
363,197,128408,1,0,0:2:0:0:
291,141,128753,1,8,0:2:0:0:
354,76,129098,2,0,B|402:68|402:68|432:79|432:79|499:69,2,135,2|2|8,3:2|0:2|0:2,0:0:0:0:
275,119,130477,6,0,P|243:128|188:93,1,89.9999999999999,6|10,3:2|0:2,0:0:0:0:
110,69,131167,1,2,3:2:0:0:
57,142,131511,2,0,B|41:236|41:236|78:275|125:253,1,180,10|10,0:2|0:2,0:0:0:0:
193,206,132546,1,0,3:2:0:0:
266,258,132891,1,2,3:2:0:0:
342,210,133236,6,0,P|385:200|457:259,1,135,6|2,3:2|3:2,0:0:0:0:
405,376,134270,1,8,0:2:0:0:
320,344,134615,2,0,P|253:354|186:364,1,135,2|2,0:2|0:2,0:0:0:0:
56,324,135649,1,10,0:2:0:0:
104,247,135994,6,0,P|96:202|87:158,1,89.9999999999999,6|8,3:2|0:2,0:0:0:0:
22,96,136684,1,0,0:0:0:0:
54,12,137029,1,8,0:2:0:0:
138,38,137374,2,0,P|206:40|273:36,1,135,2|2,0:2|0:2,0:0:0:0:
357,2,138236,1,2,3:2:0:0:
410,73,138580,6,0,B|425:146|362:120|391:216,1,135,2|8,0:2|0:0,0:0:0:0:
454,349,139787,1,8,0:2:0:0:
510,278,140132,2,0,P|512:234|499:191,1,89.9999999999999,2|10,3:2|0:2,0:0:0:0:
451,113,140822,1,2,3:2:0:0:
372,156,141167,1,10,0:2:0:0:
302,99,141511,6,0,P|294:54|288:10,2,89.9999999999999,6|8|0,3:2|0:2|3:2,0:0:0:0:
246,170,142546,1,10,0:2:0:0:
168,123,142891,2,0,P|128:116|84:145,1,89.9999999999999,2|8,0:2|0:2,0:0:0:0:
35,214,143580,2,0,P|47:257|56:301,1,89.9999999999999,2|8,3:2|0:2,0:0:0:0:
135,346,144270,6,0,P|172:312|252:323,1,135,6|6,3:2|0:2,0:0:0:0:
331,363,145132,1,0,3:2:0:0:
372,282,145477,2,0,P|360:215|350:148,1,135,4|8,3:2|0:2,0:0:0:0:
388,66,146339,2,0,P|421:37|465:42,1,89.9999999999999,10|10,0:2|0:2,0:0:0:0:
505,123,147029,6,0,L|490:218,1,89.9999999999999,14|10,0:2|0:2,0:0:0:0:
422,269,147718,1,10,0:2:0:0:
487,330,148063,1,10,0:2:0:0:
412,380,148408,2,0,P|368:370|323:365,1,89.9999999999999,10|10,0:2|0:2,0:0:0:0:
273,290,149098,1,10,0:2:0:0:
199,341,149443,1,10,0:2:0:0:
139,274,149787,6,0,P|123:234|150:184,1,89.9999999999999,10|10,0:2|0:2,0:0:0:0:
200,125,150477,1,10,0:2:0:0:
139,58,150822,1,10,0:2:0:0:
213,7,151167,2,0,B|284:-5|284:-5|291:24|326:48,2,135,10|10|2,0:2|0:2|3:2,0:0:0:0:
139,58,152546,6,0,P|105:53|88:143,1,135,6|2,3:2|3:2,0:0:0:0:
144,189,153408,1,10,0:2:0:0:
80,252,153753,5,2,3:2:0:0:
186,335,154270,1,10,0:2:0:0:
247,268,154615,2,0,P|258:236|239:177,1,89.9999999999999,2|10,3:2|0:2,0:0:0:0:
169,132,155305,6,0,P|220:144|280:81,1,135,6|2,3:2|3:2,0:0:0:0:
387,14,156339,1,2,0:2:0:0:
435,88,156684,2,0,P|423:155|416:222,1,135,2|2,0:2|0:2,0:0:0:0:
352,341,157718,1,2,0:2:0:0:
283,282,158063,6,0,P|232:275|193:302,1,89.9999999999999,6|2,3:2|0:2,0:0:0:0:
143,363,158753,1,10,0:2:0:0:
46,268,159270,2,0,P|35:205|90:175,1,135,2|2,3:2|3:2,0:0:0:0:
179,187,160132,2,0,L|196:96,1,89.9999999999999,10|0,0:2|3:2,0:0:0:0:
245,23,160822,6,0,P|312:29|378:39,1,135,6|2,3:2|3:2,0:0:0:0:
475,133,161856,1,2,0:2:0:0:
430,211,162201,2,0,P|398:239|301:214,1,135,2|2,3:2|0:2,0:0:0:0:
221,126,163236,1,2,0:2:0:0:
179,205,163580,6,0,P|183:249|186:294,1,89.9999999999999,6|2,3:2|0:2,0:0:0:0:
250,358,164270,2,0,P|297:367|341:329,1,89.9999999999999,10|0,0:2|0:0,0:0:0:0:
390,277,164960,1,2,0:2:0:0:
464,328,165305,1,2,3:2:0:0:
502,246,165649,2,0,P|491:202|481:158,1,89.9999999999999,8|8,0:2|0:2,0:0:0:0:
411,101,166339,6,0,B|314:80|344:167|226:134,1,180,6|10,3:2|0:2,0:0:0:0:
93,37,167718,2,0,P|118:12|182:16,1,89.9999999999999,6|0,3:2|0:0,0:0:0:0:
252,50,168408,1,10,0:2:0:0:
202,125,168753,1,2,3:2:0:0:
269,184,169098,6,0,P|312:193|353:176,1,89.9999999999999,6|2,3:2|0:2,0:0:0:0:
404,102,169787,1,10,0:2:0:0:
464,168,170132,2,0,P|507:244|482:327,1,180,2|2,0:2|3:2,0:0:0:0:
402,370,171167,1,10,0:2:0:0:
353,294,171511,1,10,0:3:0:0:
285,353,171856,5,6,3:2:0:0:
137,249,172546,2,0,P|122:224|148:164,1,89.9999999999999,2|0,0:2|3:2,0:0:0:0:
214,118,173236,2,0,B|256:121|283:172|283:172|315:140|373:141,1,180,2|2,0:2|0:2,0:0:0:0:
430,80,174270,1,2,3:2:0:0:
502,133,174615,5,2,0:2:0:0:
394,277,175305,2,0,P|363:291|306:268,1,89.9999999999999,2|0,0:2|3:2,0:0:0:0:
256,203,175994,2,0,B|208:206|169:180|169:180|114:188|93:250,1,180,2|10,0:2|0:2,0:0:0:0:
155,304,177029,1,8,0:3:0:0:
90,367,177374,6,0,P|44:368|48:288,1,135,6|14,3:2|0:2,0:0:0:0:
102,231,178236,1,10,0:3:0:0:
35,170,178580,2,0,P|18:107|32:30,1,135,6|10,0:3|0:2,0:0:0:0:
109,0,179443,2,0,P|153:8|197:14,1,89.9999999999999,10|2,0:2|3:2,0:0:0:0:
280,50,180132,5,6,3:2:0:0:
385,105,191167,6,0,P|295:102|205:110,1,180,6|8,3:2|0:2,0:0:0:0:
103,199,192374,2,0,P|83:238|114:320,1,135,2|0,3:2|3:2,0:0:0:0:
192,360,193236,1,8,0:2:0:0:
255,296,193580,1,0,0:0:0:0:
334,338,193925,6,0,P|396:344|396:239,1,180,4|8,3:2|0:2,0:0:0:0:
238,188,195305,2,0,L|143:208,1,89.9999999999999,2|2,0:2|3:2,0:0:0:0:
62,184,195994,1,10,0:2:0:0:
50,94,196339,1,2,3:2:0:0:
114,30,196684,6,0,B|202:9|202:9|246:21|260:72,1,180,6|10,3:2|0:2,0:0:0:0:
219,152,197718,1,2,0:2:0:0:
283,214,198063,2,0,P|374:214|463:167,1,180,2|10,0:2|0:2,0:0:0:0:
381,10,199443,6,0,B|278:-10|308:77|192:44,1,180,6|14,3:2|0:2,0:0:0:0:
132,7,200477,1,14,0:2:0:0:
89,86,200822,2,0,P|97:130|104:174,1,89.9999999999999,2|0,3:2|0:0,0:0:0:0:
173,233,201511,1,10,0:2:0:0:
127,310,201856,1,2,3:2:0:0:
200,362,202201,5,6,3:2:0:0:
264,298,202546,2,0,P|272:208|279:118,1,180,2|2,3:2|3:2,0:0:0:0:
121,32,203925,2,0,P|112:121|105:211,1,180,2|2,3:2|3:2,0:0:0:0:
175,268,204960,5,2,0:2:0:0:
242,208,205305,2,0,B|339:187|309:274|427:241,1,180,2|2,3:2|3:2,0:0:0:0:
499,88,206684,2,0,B|402:67|432:154|314:121,1,180,2|2,3:2|3:2,0:0:0:0:
263,65,207718,6,0,P|218:46|173:116,1,135,6|2,3:2|0:2,0:0:0:0:
209,185,208580,2,0,P|199:228|192:273,1,89.9999999999999,2|10,3:2|0:2,0:0:0:0:
86,357,209443,2,0,P|79:312|69:268,1,89.9999999999999,14|10,0:2|0:2,0:0:0:0:
11,199,210132,1,10,0:2:0:0:
80,141,210477,6,0,P|124:148|168:158,1,89.9999999999999,6|8,3:2|0:2,0:0:0:0:
227,225,211167,2,0,P|277:246|338:187,1,135,2|2,3:2|3:2,0:0:0:0:
415,91,212201,1,8,0:2:0:0:
338,44,212546,2,0,P|293:49|248:56,1,89.9999999999999,2|8,3:2|0:2,0:0:0:0:
173,106,213236,6,0,P|166:150|160:195,1,89.9999999999999,2|8,3:2|0:2,0:0:0:0:
224,258,213925,1,0,3:0:0:0:
161,322,214270,1,8,0:2:0:0:
229,380,214615,2,0,P|295:366|361:356,2,135,2|2|8,3:2|0:2|0:2,0:0:0:0:
161,322,215994,6,0,P|131:289|132:245,1,89.9999999999999,6|10,3:2|0:2,0:0:0:0:
175,165,216684,1,2,3:2:0:0:
246,219,217029,2,0,B|344:238|344:238|379:214|371:162,1,180,10|10,0:2|0:2,0:0:0:0:
307,105,218063,1,0,3:2:0:0:
374,45,218408,1,10,0:2:0:0:
447,96,218753,6,0,P|469:129|468:228,1,135,6|2,3:2|0:2,0:0:0:0:
391,330,219787,1,8,0:2:0:0:
313,284,220132,2,0,B|244:271|244:271|211:329,1,135,2|2,0:2|0:2,0:0:0:0:
85,374,221167,1,10,0:2:0:0:
45,293,221511,6,0,L|64:194,1,89.9999999999999,6|8,3:2|0:2,0:0:0:0:
125,140,222201,1,0,0:0:0:0:
59,78,222546,1,8,0:2:0:0:
133,27,222891,2,0,P|176:13|248:57,1,135,2|2,0:2|0:2,0:0:0:0:
300,130,223753,1,2,3:2:0:0:
227,183,224098,6,0,P|204:225|224:314,1,135,2|8,0:2|0:2,0:0:0:0:
276,376,224960,1,0,3:2:0:0:
329,303,225305,1,10,0:2:0:0:
398,360,225649,2,0,P|439:372|490:338,1,89.9999999999999,2|10,0:2|0:2,0:0:0:0:
503,265,226339,1,2,3:2:0:0:
434,206,226684,1,10,0:2:0:0:
482,130,227029,6,0,P|490:103|459:42,2,89.9999999999999,6|8|0,3:2|0:2|3:2,0:0:0:0:
434,206,228063,1,10,0:2:0:0:
349,173,228408,2,0,P|306:183|261:187,1,89.9999999999999,2|8,0:2|0:2,0:0:0:0:
194,248,229098,2,0,P|150:237|105:233,1,89.9999999999999,2|0,3:2|3:2,0:0:0:0:
23,195,229787,6,0,P|66:243|59:308,1,135,6|2,3:2|3:2,0:0:0:0:
125,370,230649,1,0,3:2:0:0:
195,313,230994,2,0,P|250:292|313:345,1,135,4|8,3:2|0:2,0:0:0:0:
383,381,231856,1,10,0:2:0:0:
439,310,232201,1,10,0:2:0:0:
381,241,232546,6,0,P|368:207|380:141,1,89.9999999999999,14|10,0:2|0:2,0:0:0:0:
433,87,233236,1,10,0:2:0:0:
387,9,233580,1,10,0:2:0:0:
309,53,233925,2,0,P|264:57|203:49,1,89.9999999999999,10|10,0:2|0:2,0:0:0:0:
143,3,234615,1,10,0:2:0:0:
80,67,234960,1,10,0:2:0:0:
123,145,235305,6,0,B|138:187|138:187|123:239,1,89.9999999999999,10|10,0:2|0:2,0:0:0:0:
62,294,235994,1,10,0:2:0:0:
126,356,236339,1,10,0:2:0:0:
203,309,236684,2,0,P|233:295|308:353,2,135,10|10|2,0:2|0:2|3:2,0:0:0:0:
126,356,238063,6,0,P|84:370|24:304,1,135,6|2,3:2|3:2,0:0:0:0:
76,240,238925,1,10,0:3:0:0:
13,175,239270,5,10,0:2:0:0:
101,73,239787,1,10,0:2:0:0:
167,133,240132,2,0,P|211:143|255:123,1,89.9999999999999,10|10,0:2|0:2,0:0:0:0:
313,60,240822,6,0,P|352:40|442:69,1,135,6|6,3:2|3:2,0:0:0:0:
499,126,241684,1,2,3:2:0:0:
442,195,242029,2,0,P|430:261|420:328,1,135,6|10,3:2|0:2,0:0:0:0:
346,380,242891,1,10,0:3:0:0:
296,304,243236,1,10,0:3:0:0:
220,352,243580,6,0,P|186:362|120:296,1,135,6|6,3:2|3:2,0:0:0:0:
175,229,244443,1,2,3:2:0:0:
112,164,244787,5,2,3:2:0:0:
5,247,245305,1,2,3:2:0:0:
274,254,246339,6,0,B|377:191|303:64|303:64|237:153,1,315,6|0,3:2|0:0,0:0:0:0:
0,286,249098,2,0,B|84:245|155:302|119:328|198:405|293:346,1,315,2|0,0:0|0:0,0:0:0:0:
449,90,251856,6,0,P|359:77|271:62,1,180,6|2,3:2|0:0,0:0:0:0:
240,240,253236,2,0,P|329:252|417:267,1,180,2|2,0:0|0:0,0:0:0:0:
486,325,254270,1,8,0:3:0:0:
412,376,254615,6,0,P|323:361|234:348,1,180,6|2,3:2|0:0,0:0:0:0:
107,220,255994,2,0,P|62:226|18:236,1,89.9999999999999,2|2,0:0|0:0,0:0:0:0:
29,326,256704,2,0,P|73:319|117:309,1,89.9999999999999,2|2,0:0|0:0,0:0:0:0:
256,192,257362,12,2,261977,0:0:0:0:
