osu file format v14

[General]
AudioFilename: audio.mp3
AudioLeadIn: 0
PreviewTime: 46530
Countdown: 0
SampleSet: Soft
StackLeniency: 0.5
Mode: 0
LetterboxInBreaks: 0
WidescreenStoryboard: 1

[Editor]
Bookmarks: 11358,33427,44461,47220,69289,70151,70496,71186,71530,71875,72910,73255,83082,94117
DistanceSpacing: 1
BeatDivisor: 4
GridSize: 4
TimelineZoom: 1

[Metadata]
Title:FLOWERS
TitleUnicode:FLOWERS
Artist:Shimotsuki Haruka
ArtistUnicode:霜月はるか
Creator:Log Off Now
Version:Normal
Source:Flowers -Le volume sur printemps-
Tags:visual novel innocent grey jast usa galgame 鈴湯 Suzuyu spring
BeatmapID:1487399
BeatmapSetID:702218

[Difficulty]
HPDrainRate:4
CircleSize:3.3
OverallDifficulty:5
ApproachRate:5
SliderMultiplier:1
SliderTickRate:1

[Events]
//Background and Video events
0,0,"flowers-bg.jpg",0,0
Video,0,"video.avi"
//Break Periods
//Storyboard Layer 0 (Background)
//Storyboard Layer 1 (Fail)
//Storyboard Layer 2 (Pass)
//Storyboard Layer 3 (Foreground)
//Storyboard Sound Samples

[TimingPoints]
324,344.827586206897,4,2,1,35,1,0
11358,-100,4,2,1,20,0,0
33427,-100,4,2,1,35,0,0
46530,-100,4,2,1,50,0,0
47220,-100,4,2,1,60,0,1
82048,-100,4,2,1,60,0,0
82392,-100,4,2,1,40,0,0
94289,-100,4,2,1,20,0,0

[Colours]
Combo1 : 255,117,117
Combo2 : 162,253,168
Combo3 : 103,216,210
Combo4 : 252,190,200

[HitObjects]
5,186,324,6,0,P|66:148|176:207,1,200,2|2,0:0|0:0,0:0:0:0:
175,249,1186,1,2,0:0:0:0:
118,331,1530,2,0,B|236:385|236:271|356:338,1,250,2|0,0:0|0:0,0:0:0:0:
503,202,3082,6,0,P|431:201|369:93,1,200,2|2,0:0|0:0,0:0:0:0:
380,53,3944,1,2,0:0:0:0:
284,82,4289,2,0,B|166:136|166:22|46:89,1,250,2|0,0:0|0:0,0:0:0:0:
128,271,5841,6,0,B|186:276|186:276|247:251|247:251|329:258,1,200,4|2,1:2|0:0,0:0:0:0:
383,67,7220,2,0,P|354:127|228:142,1,200,2|2,0:0|0:0,0:0:0:0:
49,66,8599,2,0,B|43:124|43:124|68:185|68:185|61:267,1,200,4|2,1:2|0:0,0:0:0:0:
256,192,9979,12,0,11358,0:0:0:0:
180,319,12737,6,0,P|243:301|331:315,2,150,2|2|2,0:0|0:0|0:0,0:0:0:0:
90,273,14117,2,0,L|81:173,1,100,2|2,0:0|0:0,0:0:0:0:
153,103,14806,2,0,L|148:53,2,50,2|0|2,0:0|0:0|0:0,0:0:0:0:
187,141,15324,2,0,P|236:152|292:132,1,100,0|0,0:0|0:0,0:0:0:0:
328,118,15841,2,0,P|330:172|325:241,2,100,2|2|2,0:0|0:0|0:0,0:0:0:0:
303,20,16875,1,0,0:0:0:0:
135,128,17565,6,0,L|144:230,1,100,2|2,0:0|0:0,0:0:0:0:
183,319,18255,2,0,P|232:330|288:310,1,100,2|0,0:0|0:0,0:0:0:0:
371,353,18944,1,2,0:0:0:0:
443,284,19289,2,0,P|446:257|444:234,1,50,0|0,0:0|0:0,0:0:0:0:
424,187,19634,6,0,L|432:87,1,100,2|0,0:0|0:0,0:0:0:0:
335,58,20324,2,0,L|330:8,2,50,2|0|2,0:0|0:0|0:0,0:0:0:0:
311,102,20841,2,0,P|267:119|208:103,1,100,2|2,0:0|0:0,0:0:0:0:
167,100,21358,2,0,L|162:150,2,50,2|0|2,0:0|0:0|0:0,0:0:0:0:
133,62,21875,1,2,0:0:0:0:
63,195,22392,5,0,0:0:0:0:
140,257,22737,2,0,P|164:258|189:255,1,50,2|0,0:0|0:0,0:0:0:0:
228,223,23082,2,0,L|344:232,1,100,2|0,0:0|0:0,0:0:0:0:
377,233,23599,1,2,0:0:0:0:
427,235,23772,6,0,P|432:300|402:383,2,150,2|2|2,0:0|0:0|0:0,0:0:0:0:
411,136,25151,2,0,P|372:149|306:141,1,100,2|0,0:0|0:0,0:0:0:0:
220,107,25841,2,0,L|225:57,2,50,2|0|2,0:0|0:0|0:0,0:0:0:0:
178,135,26358,2,0,P|131:120|75:134,1,100,2|0,0:0|0:0,0:0:0:0:
44,162,26875,2,0,P|46:216|41:285,2,100,2|0|0,0:0|0:0|0:0,0:0:0:0:
6,69,27910,1,0,0:0:0:0:
192,140,28599,6,0,P|258:149|301:131,1,100,2|2,0:0|0:0,0:0:0:0:
385,111,29289,2,0,L|377:232,1,100,2|0,0:0|0:0,0:0:0:0:
378,210,30668,6,0,P|329:197|281:208,2,100,2|0|0,0:0|0:0|0:0,0:0:0:0:
328,297,31703,2,0,B|225:343|225:244|120:303,1,200,2|2,0:0|0:0,0:0:0:0:
104,333,32565,1,0,0:0:0:0:
8,303,32910,1,0,0:0:0:0:
24,154,33427,6,0,L|36:43,1,100,2|0,0:0|0:0,0:0:0:0:
125,97,34117,2,0,B|175:114|175:114|281:95,2,150,0|2|2,1:0|0:0|0:0,0:0:0:0:
49,162,35496,1,0,1:0:0:0:
88,253,35841,2,0,L|81:358,2,100,2|2|2,0:0|0:0|0:0,0:0:0:0:
177,208,36875,6,0,B|224:193|224:193|287:201,1,100,2|2,1:2|0:0,0:0:0:0:
323,286,37565,2,0,B|375:295|375:295|469:269,2,150,2|2|0,0:0|0:0|0:0,0:0:0:0:
230,324,38944,1,0,0:0:0:0:
188,232,39289,6,0,L|197:122,1,100,2|2,0:0|1:2,0:0:0:0:
207,32,39979,1,0,0:0:0:0:
207,32,40151,2,0,P|276:62|352:34,1,150,2|2,0:0|0:0,0:0:0:0:
428,93,41013,1,0,1:0:0:0:
428,93,41186,2,0,B|412:144|412:144|425:249,1,150,2|2,0:0|0:0,0:0:0:0:
390,334,42048,6,0,P|344:347|279:332,2,100,2|2|2,0:0|1:2|0:0,0:0:0:0:
338,248,43082,1,2,0:0:0:0:
375,155,43427,1,2,0:0:0:0:
194,68,44117,1,2,0:0:0:0:
231,161,44461,5,2,0:0:0:0:
183,248,44806,2,0,P|118:235|23:257,2,150,2|2|2,0:0|0:0|0:0,0:0:0:0:
368,323,46530,2,0,L|364:374,2,50,8|0|0,0:0|1:0|0:0,0:0:0:0:
441,255,47220,6,0,L|433:155,1,100,6|8,1:2|0:0,0:0:0:0:
422,55,47910,2,0,L|471:49,2,50,0|0|8,0:0|1:0|0:0,0:0:0:0:
322,65,48599,2,0,P|318:136|321:174,1,100,2|8,0:0|0:0,0:0:0:0:
291,206,49117,2,0,P|240:221|183:210,2,100,2|2|2,0:0|1:2|0:0,0:0:0:0:
315,249,49979,6,0,L|307:349,1,100,0|8,1:0|0:0,0:0:0:0:
207,334,50668,2,0,L|211:384,2,50,0|0|8,0:0|1:0|0:0,0:0:0:0:
200,233,51358,2,0,P|146:246|86:226,1,100,2|10,0:0|0:0,0:0:0:0:
87,188,51875,2,0,L|82:85,1,100,2|2,0:0|1:2,0:0:0:0:
81,37,52392,1,8,0:0:0:0:
176,68,52737,6,0,P|227:79|276:76,1,100,6|10,1:2|0:0,0:0:0:0:
371,50,53427,1,2,0:0:0:0:
345,146,53772,2,0,B|300:246|399:246|345:346,1,200,10|10,0:0|0:0,0:0:0:0:
250,326,54806,2,0,P|244:351|241:389,2,50,0|0|10,1:0|1:0|0:0,0:0:0:0:
168,267,55496,6,0,L|159:167,1,100,4|8,1:2|0:0,0:0:0:0:
157,117,56013,2,0,P|205:124|253:110,1,100,4|4,1:2|0:3,0:0:0:0:
297,84,56530,1,8,0:0:0:0:
341,60,56703,6,0,L|440:68,1,100,4|0,1:2|1:0,0:0:0:0:
490,71,57220,1,8,0:0:0:0:
471,169,57565,2,0,L|466:218,1,50,8|8,0:0|0:3,0:0:0:0:
500,254,57910,2,0,L|504:303,1,50,4|0,0:3|1:0,0:0:0:0:
505,353,58255,6,0,P|437:374|390:361,1,100,4|8,1:2|0:0,0:0:0:0:
358,283,58944,2,0,P|364:258|367:220,2,50,0|0|8,0:0|1:0|0:0,0:0:0:0:
268,295,59634,2,0,P|197:291|159:294,1,100,2|8,0:0|0:0,0:0:0:0:
124,268,60151,2,0,P|73:283|16:272,2,100,2|2|2,0:0|1:2|0:0,0:0:0:0:
138,219,61013,6,0,L|130:119,1,100,0|8,1:0|0:0,0:0:0:0:
218,71,61703,2,0,L|214:21,2,50,0|0|8,0:0|1:0|0:0,0:0:0:0:
225,170,62392,2,0,P|279:186|324:164,1,100,2|10,0:0|0:0,0:0:0:0:
380,91,63082,2,0,P|434:75|479:97,1,100,2|10,1:2|0:0,0:0:0:0:
426,180,63772,6,0,B|376:270|475:270|430:370,1,200,4|0,1:2|0:0,0:0:0:0:
341,325,64806,1,10,0:0:0:0:
249,364,65151,2,0,P|203:380|156:364,1,100,2|8,0:0|0:0,0:0:0:0:
75,305,65841,2,0,L|25:310,2,50,2|0|8,1:2|1:0|0:0,0:0:0:0:
143,231,66530,6,0,L|243:241,1,100,4|8,0:0|0:0,0:0:0:0:
292,246,67048,2,0,P|277:198|284:149,1,100,4|4,1:2|0:3,0:0:0:0:
318,112,67565,1,8,0:0:0:0:
304,64,67737,6,0,L|205:56,1,100,4|0,1:2|1:0,0:0:0:0:
153,52,68255,1,8,0:0:0:0:
68,104,68599,2,0,L|63:153,1,50,8|8,0:3|0:0,0:0:0:0:
99,190,68944,2,0,L|103:239,1,50,8|8,0:0|0:0,0:0:0:0:
106,289,69289,6,0,B|152:301|152:301|216:286,1,100,4|8,0:0|0:0,0:0:0:0:
293,324,69979,2,0,L|353:334,1,50,8|0,0:0|1:0,0:0:0:0:
384,304,70324,2,0,L|433:295,1,50,8|0,0:0|1:0,0:0:0:0:
482,303,70668,5,8,0:0:0:0:
491,203,71013,2,0,L|431:213,1,50,8|0,0:0|1:0,0:0:0:0:
400,183,71358,2,0,L|351:174,1,50,8|0,0:0|1:0,0:0:0:0:
302,188,71703,1,8,0:0:0:0:
282,89,72048,6,0,P|219:75|167:88,1,100,8|8,0:0|0:0,0:0:0:0:
106,143,72737,2,0,L|96:203,1,50,8|0,0:0|1:0,0:0:0:0:
126,234,73082,2,0,L|135:283,1,50,8|0,0:0|1:0,0:0:0:0:
125,332,73427,6,0,P|165:352|228:328,1,100,8|8,0:0|0:0,0:0:0:0:
259,312,73944,2,0,L|317:318,1,50,8|8,0:0|0:0,0:0:0:0:
358,323,74289,2,0,P|364:367|363:391,2,50,8|4|0,0:3|0:3|1:0,0:0:0:0:
385,281,74806,6,0,L|375:164,1,100,4|8,1:2|0:0,0:0:0:0:
304,111,75496,2,0,P|256:123|195:104,1,100,8|8,0:3|0:0,0:0:0:0:
175,73,76013,1,2,1:3:0:0:
83,113,76358,1,0,1:0:0:0:
83,113,76530,2,0,L|91:234,1,100,8|8,0:0|0:3,0:0:0:0:
98,312,77220,1,8,0:2:0:0:
197,316,77565,6,0,B|232:304|232:304|302:316,1,100,4|8,1:2|0:0,0:0:0:0:
342,328,78082,2,0,P|330:271|340:211,1,100,4|8,1:2|0:3,0:0:0:0:
351,182,78599,1,8,0:0:0:0:
322,140,78772,6,0,B|287:128|287:128|224:138,1,100,4|0,1:2|1:0,0:0:0:0:
175,146,79289,1,8,0:0:0:0:
97,82,79634,2,0,L|37:90,2,50,8|0|4,0:3|0:0|0:3,0:0:0:0:
166,8,80324,6,0,L|264:21,1,100,4|8,1:2|0:0,0:0:0:0:
256,70,80841,2,0,P|245:123|261:177,1,100,4|8,1:2|0:3,0:0:0:0:
282,209,81358,5,8,0:0:0:0:
282,209,81530,1,2,1:3:0:0:
216,284,81875,1,8,0:0:0:0:
216,284,82048,1,8,0:0:0:0:
298,339,82392,2,0,L|402:332,1,100,2|2,0:0|0:0,0:0:0:0:
474,267,83082,6,0,P|499:184|434:93,1,200,6|2,1:2|0:0,0:0:0:0:
396,121,83944,1,2,0:0:0:0:
322,53,84289,2,0,B|202:-14|202:100|84:46,1,250,2|0,0:0|0:0,0:0:0:0:
60,244,85841,6,0,P|94:180|219:176,1,200,2|2,0:0|0:0,0:0:0:0:
239,214,86703,1,2,0:0:0:0:
171,287,87048,2,0,B|291:354|291:240|409:294,1,250,2|0,0:0|0:0,0:0:0:0:
495,171,88427,1,4,0:3:0:0:
495,171,88599,6,0,P|495:117|489:57,1,100,4|0,1:2|0:0,0:0:0:0:
399,111,89289,2,0,P|342:129|289:114,1,100,2|0,0:0|0:0,0:0:0:0:
218,68,89979,2,0,P|161:50|108:65,1,100,2|0,0:0|0:0,0:0:0:0:
86,92,90496,2,0,L|96:199,1,100,8|8,0:3|0:3,0:0:0:0:
78,238,91013,1,4,0:3:0:0:
136,319,91358,6,0,P|193:337|246:322,1,100,4|0,1:2|0:0,0:0:0:0:
297,254,92048,2,0,L|287:154,1,100,2|0,0:0|0:0,0:0:0:0:
282,54,92737,2,0,P|332:39|380:52,2,100,2|0|2,0:0|0:0|0:0,0:0:0:0:
199,111,93772,2,0,P|165:102|136:85,2,50,0|0|2,0:0|0:0|0:0,0:0:0:0:
256,192,94289,12,2,98729,0:0:0:0:
