osu file format v14

[General]
AudioFilename: audio.mp3
AudioLeadIn: 0
PreviewTime: 46530
Countdown: 0
SampleSet: Soft
StackLeniency: 0.5
Mode: 0
LetterboxInBreaks: 0
WidescreenStoryboard: 1

[Editor]
Bookmarks: 11358,33427,44461,47220,69289,70151,70496,71186,71530,71875,72910,73255,83082,94117
DistanceSpacing: 1
BeatDivisor: 4
GridSize: 4
TimelineZoom: 1

[Metadata]
Title:FLOWERS
TitleUnicode:FLOWERS
Artist:Shimotsuki Haruka
ArtistUnicode:霜月はるか
Creator:Log Off Now
Version:Easy
Source:Flowers -Le volume sur printemps-
Tags:visual novel innocent grey jast usa galgame 鈴湯 Suzuyu spring
BeatmapID:1486134
BeatmapSetID:702218

[Difficulty]
HPDrainRate:3
CircleSize:3
OverallDifficulty:3
ApproachRate:3
SliderMultiplier:0.899999999999999
SliderTickRate:1

[Events]
//Background and Video events
0,0,"flowers-bg.jpg",0,0
Video,0,"video.avi"
//Break Periods
//Storyboard Layer 0 (Background)
//Storyboard Layer 1 (Fail)
//Storyboard Layer 2 (Pass)
//Storyboard Layer 3 (Foreground)
//Storyboard Sound Samples

[TimingPoints]
324,344.827586206897,4,2,1,35,1,0
11358,-100,4,2,1,20,0,0
33427,-100,4,2,1,35,0,0
46530,-100,4,2,1,50,0,0
47220,-100,4,2,1,60,0,1
82048,-100,4,2,1,60,0,0
82392,-100,4,2,1,40,0,0
94289,-100,4,2,1,20,0,0

[Colours]
Combo1 : 255,117,117
Combo2 : 162,253,168
Combo3 : 103,216,210
Combo4 : 252,190,200

[HitObjects]
25,125,324,6,0,P|77:99|160:177,1,180,2|2,0:0|0:0,0:0:0:0:
136,302,1530,2,0,B|244:353|244:250|351:311,1,225,2|0,0:0|0:0,0:0:0:0:
500,210,3082,6,0,P|456:162|449:45,1,180,2|2,0:0|0:0,0:0:0:0:
325,111,4289,2,0,B|216:162|216:59|110:119,1,225,2|0,0:0|0:0,0:0:0:0:
28,280,5841,6,0,B|84:285|84:285|142:261|142:261|221:268,1,180,4|2,0:0|0:0,0:0:0:0:
381,285,7220,2,0,P|415:202|394:114,1,180,2|2,0:0|0:0,0:0:0:0:
222,165,8599,2,0,B|217:221|217:221|241:279|241:279|235:339,1,180,4|2,0:0|0:0,0:0:0:0:
256,192,9979,12,0,11358,0:0:0:0:
144,202,12737,6,0,P|144:253|149:344,2,135,2|2|2,0:0|0:0|0:0,0:0:0:0:
176,117,14117,2,0,P|232:134|279:122,1,89.9999999999999,2|2,0:0|0:0,0:0:0:0:
339,82,14806,2,0,B|380:65|380:65|486:79,1,135,2|0,0:0|0:0,0:0:0:0:
502,208,15841,1,2,0:0:0:0:
425,256,16186,1,2,0:0:0:0:
362,191,16530,6,0,P|317:173|258:183,1,89.9999999999999,2|0,0:0|0:0,0:0:0:0:
131,331,17565,2,0,P|82:346|35:335,1,89.9999999999999,2|2,0:0|0:0,0:0:0:0:
5,258,18255,2,0,P|-1:200|5:152,1,89.9999999999999,2|0,0:0|0:0,0:0:0:0:
58,98,18944,1,2,0:0:0:0:
212,191,19634,6,0,P|219:241|211:284,1,89.9999999999999,2|0,0:0|0:0,0:0:0:0:
252,360,20324,2,0,B|293:343|293:343|382:354,1,135,2|2,0:0|0:0,0:0:0:0:
488,271,21358,2,0,B|505:230|505:230|493:140,1,135,2|2,0:0|0:0,0:0:0:0:
471,6,22392,5,0,0:0:0:0:
316,99,23082,2,0,P|268:116|213:103,1,89.9999999999999,2|0,0:0|0:0,0:0:0:0:
153,63,23772,6,0,P|87:55|11:68,2,135,2|2|2,0:0|0:0|0:0,0:0:0:0:
145,152,25151,2,0,P|140:196|153:246,1,89.9999999999999,2|0,0:0|0:0,0:0:0:0:
233,276,25841,2,0,B|274:259|274:259|363:270,1,135,2|2,0:0|0:0,0:0:0:0:
498,283,26875,1,2,0:0:0:0:
461,200,27220,1,0,0:0:0:0:
490,115,27565,2,0,P|498:69|487:15,1,89.9999999999999,0|0,0:0|0:0,0:0:0:0:
331,109,28599,6,0,P|282:124|235:113,1,89.9999999999999,2|2,0:0|0:0,0:0:0:0:
155,102,29289,2,0,P|157:157|163:211,1,89.9999999999999,2|0,0:0|0:0,0:0:0:0:
371,360,30668,6,0,P|322:375|275:364,1,89.9999999999999,2|0,0:0|0:0,0:0:0:0:
213,312,31358,1,0,0:0:0:0:
126,336,31703,2,0,B|76:347|76:347|30:338,1,89.9999999999999,2|0,0:0|0:0,0:0:0:0:
7,162,32737,1,2,0:0:0:0:
185,188,33427,6,0,B|245:194|245:194|303:170|303:170|359:175,1,180,2|0,0:0|1:0,0:0:0:0:
494,188,34634,2,0,P|514:129|480:47,1,135,2|2,0:0|0:0,0:0:0:0:
405,39,35496,1,0,1:0:0:0:
272,161,36186,6,0,B|266:221|266:221|290:279|290:279|285:335,1,180,2|2,0:0|1:2,0:0:0:0:
199,363,37220,1,2,0:0:0:0:
126,310,37565,2,0,L|116:204,1,89.9999999999999,2|0,0:0|0:0,0:0:0:0:
110,130,38255,1,0,1:0:0:0:
289,143,38944,6,0,P|332:154|374:142,1,89.9999999999999,0|2,0:0|0:0,0:0:0:0:
462,118,39634,2,0,B|476:170|476:170|462:262,1,135,2|2,1:2|0:0,0:0:0:0:
328,249,40668,2,0,B|276:235|276:235|195:247,1,135,2|2,0:0|0:0,0:0:0:0:
63,275,41703,5,2,0:0:0:0:
27,192,42048,2,0,P|24:132|27:86,2,89.9999999999999,2|2|2,0:0|1:2|0:0,0:0:0:0:
116,200,43082,1,2,0:0:0:0:
164,124,43427,1,2,0:0:0:0:
320,213,44117,1,2,0:0:0:0:
368,289,44462,5,2,0:0:0:0:
441,236,44806,2,0,P|450:181|446:94,2,135,2|2|2,0:0|0:0|0:0,0:0:0:0:
289,333,46530,1,8,0:0:0:0:
207,294,46875,1,0,0:0:0:0:
129,340,47220,6,0,B|84:245|174:245|121:152,1,180,6|0,1:2|0:0,0:0:0:0:
86,87,48255,1,8,0:0:0:0:
166,47,48599,2,0,B|208:33|208:33|315:45,2,135,2|2|8,0:0|0:0|0:0,0:0:0:0:
211,125,49979,6,0,P|267:167|372:136,1,180,0|0,0:0|0:0,0:0:0:0:
440,88,51013,1,8,0:0:0:0:
487,164,51358,2,0,B|501:206|501:206|489:313,2,135,2|2|8,0:0|0:0|0:0,0:0:0:0:
412,215,52737,6,0,P|369:225|311:221,1,89.9999999999999,6|10,0:0|0:0,0:0:0:0:
252,167,53427,1,2,0:0:0:0:
221,252,53772,2,0,P|211:287|80:335,1,180,10|10,0:0|0:0,0:0:0:0:
30,271,54806,2,0,L|42:176,1,89.9999999999999,0|10,0:0|0:0,0:0:0:0:
99,112,55496,6,0,B|141:126|141:126|248:114,1,135,4|4,0:0|0:0,0:0:0:0:
364,94,56530,1,8,0:0:0:0:
422,162,56875,2,0,B|436:204|436:204|424:311,1,135,0|8,0:0|0:0,0:0:0:0:
303,351,57910,1,4,0:3:0:0:
231,296,58255,6,0,B|136:251|136:341|43:288,1,180,4|0,0:0|0:0,0:0:0:0:
13,217,59289,1,8,0:0:0:0:
54,137,59634,2,0,B|68:95|68:95|56:-12,2,135,2|2|8,0:0|0:0|0:0,0:0:0:0:
119,198,61013,6,0,P|177:152|282:168,1,180,0|0,0:0|0:0,0:0:0:0:
332,236,62048,1,8,0:0:0:0:
385,163,62392,2,0,B|395:116|395:116|387:66,1,89.9999999999999,2|10,0:0|0:0,0:0:0:0:
308,32,63082,2,0,B|261:42|261:42|211:34,1,89.9999999999999,2|10,0:0|0:0,0:0:0:0:
130,23,63772,6,0,B|125:79|125:79|149:137|149:137|143:197,1,180,4|0,0:0|0:0,0:0:0:0:
134,287,64806,1,10,0:0:0:0:
216,251,65151,2,0,P|271:238|310:245,1,89.9999999999999,2|8,0:0|0:0,0:0:0:0:
385,280,65841,1,2,0:0:0:0:
443,109,66530,6,0,B|401:95|401:95|294:107,1,135,4|4,0:0|0:0,0:0:0:0:
178,127,67564,1,8,0:0:0:0:
200,214,67910,2,0,B|206:255|206:255|196:302,1,89.9999999999999,0|8,0:0|0:0,0:0:0:0:
118,346,68599,1,8,0:3:0:0:
32,316,68944,1,8,0:0:0:0:
51,228,69289,6,0,L|44:138,1,89.9999999999999,4|8,0:0|0:0,0:0:0:0:
109,75,69979,2,0,P|151:86|207:71,1,89.9999999999999,8|8,0:0|0:0,0:0:0:0:
283,56,70668,2,0,L|276:145,1,89.9999999999999,8|8,0:0|0:0,0:0:0:0:
264,235,71358,1,8,0:0:0:0:
345,273,71703,1,8,0:0:0:0:
418,221,72048,6,0,L|411:131,1,89.9999999999999,8|8,0:0|0:0,0:0:0:0:
335,81,72737,2,0,P|291:90|248:79,1,89.9999999999999,8|8,0:0|0:0,0:0:0:0:
159,61,73427,2,0,L|165:150,1,89.9999999999999,8|8,0:0|0:0,0:0:0:0:
174,240,74117,1,8,0:0:0:0:
249,190,74462,1,4,0:3:0:0:
324,237,74806,6,0,B|419:282|419:192|512:245,1,180,4|8,0:0|0:3,0:0:0:0:
421,349,76013,2,0,B|379:363|379:363|288:352,1,135,0|8,0:0|0:0,0:0:0:0:
238,279,76875,2,0,L|248:189,1,89.9999999999999,8|8,0:3|0:2,0:0:0:0:
222,103,77565,6,0,P|161:129|85:107,1,135,4|4,0:0|0:0,0:0:0:0:
15,73,78427,1,8,0:3:0:0:
1,162,78772,2,0,L|10:302,1,135,4|8,0:0|0:0,0:0:0:0:
78,354,79634,1,8,0:3:0:0:
167,348,79979,1,4,0:3:0:0:
223,277,80324,6,0,P|284:250|348:265,1,135,4|4,0:0|0:0,0:0:0:0:
429,305,81186,1,8,0:3:0:0:
479,230,81530,2,0,L|471:88,1,135,0|8,0:0|0:0,0:0:0:0:
320,319,83082,6,0,P|264:335|196:244,1,180,2|2,0:0|0:0,0:0:0:0:
255,131,84288,2,0,B|147:80|147:183|40:122,1,225,2|0,0:0|0:0,0:0:0:0:
79,298,85841,6,0,P|127:254|244:247,1,180,2|2,0:0|0:0,0:0:0:0:
355,311,87048,2,0,B|415:205|312:205|363:96,1,225,2|0,0:0|0:0,0:0:0:0:
203,13,88599,6,0,B|146:17|146:17|94:51|94:51|33:56,1,180,4|2,0:0|0:0,0:0:0:0:
21,236,89979,2,0,P|80:195|160:194,2,135,2|8|4,0:0|0:3|0:3,0:0:0:0:
55,318,91358,6,0,B|111:322|111:322|168:298|168:298|229:304,1,180,4|2,0:0|0:0,0:0:0:0:
409,321,92737,2,0,P|422:271|408:219,1,89.9999999999999,2|0,0:0|0:0,0:0:0:0:
355,166,93427,2,0,P|342:116|356:64,1,89.9999999999999,2|0,0:0|0:0,0:0:0:0:
423,27,94117,1,2,0:0:0:0:
256,192,94289,12,2,98729,0:0:0:0:
