osu file format v14

[General]
AudioFilename: audio.mp3
AudioLeadIn: 0
PreviewTime: 46530
Countdown: 0
SampleSet: Soft
StackLeniency: 0.5
Mode: 0
LetterboxInBreaks: 0
WidescreenStoryboard: 0

[Editor]
Bookmarks: 11358,33427,44461,47220,69289,70151,70496,71186,71530,71875,72910,73255,83082,94117
DistanceSpacing: 1.3
BeatDivisor: 4
GridSize: 4
TimelineZoom: 1

[Metadata]
Title:FLOWERS
TitleUnicode:FLOWERS
Artist:Shimotsuki Haruka
ArtistUnicode:霜月はるか
Creator:Log Off Now
Version:Equinox
Source:Flowers -Le volume sur printemps-
Tags:visual novel innocent grey jast usa galgame 鈴湯 Suzuyu spring
BeatmapID:1485851
BeatmapSetID:702218

[Difficulty]
HPDrainRate:6
CircleSize:4
OverallDifficulty:8.5
ApproachRate:9
SliderMultiplier:1.7
SliderTickRate:1

[Events]
//Background and Video events
0,0,"flowers-bg.jpg",0,0
Video,0,"video.avi"
//Break Periods
//Storyboard Layer 0 (Background)
//Storyboard Layer 1 (Fail)
//Storyboard Layer 2 (Pass)
//Storyboard Layer 3 (Foreground)
//Storyboard Sound Samples

[TimingPoints]
324,344.827586206897,4,2,1,35,1,0
324,-166.666666666667,4,2,1,35,0,0
1530,-200,4,2,1,35,0,0
2392,-166.666666666667,4,2,1,35,0,0
4289,-200,4,2,1,35,0,0
5151,-166.666666666667,4,2,1,35,0,0
9979,-200,4,2,1,35,0,0
11358,-133.333333333333,4,2,1,20,0,0
22220,-133.333333333333,4,2,1,5,0,0
22392,-133.333333333333,4,2,1,20,0,0
33427,-125,4,2,1,35,0,0
45841,-200,4,2,1,35,0,0
46530,-100,4,2,1,50,0,0
47220,-100,4,2,1,60,0,1
77565,-83.3333333333333,4,2,1,60,0,1
79634,-90.9090909090909,4,2,1,60,0,1
79979,-100,4,2,1,60,0,1
82048,-100,4,2,1,60,0,0
82392,-100,4,2,1,40,0,0
83082,-166.666666666667,4,2,1,40,0,0
84289,-200,4,2,1,40,0,0
85151,-166.666666666667,4,2,1,40,0,0
87048,-200,4,2,1,40,0,0
87910,-166.666666666667,4,2,1,40,0,0
94289,-166.666666666667,4,2,1,20,0,0

[Colours]
Combo1 : 255,117,117
Combo2 : 162,253,168
Combo3 : 103,216,210
Combo4 : 252,190,200

[HitObjects]
179,189,324,6,0,P|227:205|307:141,1,152.999995330811,2|0,0:0|0:0,0:0:0:0:
343,72,1013,1,2,0:0:0:0:
418,41,1186,1,2,0:0:0:0:
458,49,1358,1,0,0:0:0:0:
480,63,1530,2,0,B|519:159|422:161|449:267,1,212.5,2|0,0:0|0:0,0:0:0:0:
448,263,3082,6,0,P|389:217|318:238,1,152.999995330811,2|0,0:0|0:0,0:0:0:0:
272,310,3772,1,2,0:0:0:0:
196,341,3945,1,2,0:0:0:0:
156,333,4117,1,0,0:0:0:0:
134,314,4289,2,0,B|95:218|192:216|165:110,1,212.5,2|0,0:0|0:0,0:0:0:0:
165,113,5841,6,0,P|236:132|293:86,1,152.999995330811,4|0,1:2|0:0,0:0:0:0:
365,180,6530,2,0,P|339:250|384:326,1,152.999995330811,2|0,0:0|0:0,0:0:0:0:
435,245,7220,2,0,P|472:236|516:238,2,76.4999976654053,2|0|0,0:0|0:0|0:0,0:0:0:0:
363,342,7910,2,0,P|338:342|313:336,2,50.9999984436036,2|0|0,0:0|0:0|0:0,0:0:0:0:
357,262,8427,1,0,0:0:0:0:
272,248,8599,6,0,P|223:297|228:384,1,152.999995330811,4|0,1:2|0:0,0:0:0:0:
139,261,9289,2,0,P|61:236|-11:284,1,152.999995330811,2|0,0:0|0:0,0:0:0:0:
73,334,9979,1,2,0:0:0:0:
256,192,10065,12,0,11358,0:0:0:0:
104,196,11703,6,0,P|96:144|98:123,1,63.7500024318696,2|0,0:0|0:0,0:0:0:0:
165,72,12048,2,0,P|210:84|294:45,1,127.500004863739,2|0,0:0|0:0,0:0:0:0:
373,8,12565,1,2,0:0:0:0:
360,114,12737,2,0,P|360:145|367:176,1,63.7500024318696,2|0,0:0|0:0,0:0:0:0:
367,176,13255,2,0,P|418:148|487:169,1,127.500004863739,2|0,0:0|0:0,0:0:0:0:
436,292,13772,2,0,P|428:261|428:229,1,63.7500024318696,2|0,0:0|0:0,0:0:0:0:
428,229,14030,1,0,0:0:0:0:
428,229,14117,1,2,0:0:0:0:
436,236,14461,5,2,0:0:0:0:
405,257,14634,1,0,0:0:0:0:
334,258,14806,1,2,0:0:0:0:
279,201,14979,1,0,0:0:0:0:
295,113,15151,1,2,0:0:0:0:
369,76,15324,1,0,0:0:0:0:
369,76,15841,6,0,P|347:49|341:11,1,63.7500024318696,2|0,0:0|0:0,0:0:0:0:
295,113,16186,2,0,P|272:135|243:146,1,63.7500024318696,2|0,0:0|0:0,0:0:0:0:
334,258,16530,2,0,P|356:197|417:168,1,127.500004863739,2|0,0:0|0:0,0:0:0:0:
408,168,17220,1,0,0:0:0:0:
415,199,17392,1,0,0:0:0:0:
422,230,17565,6,0,P|422:261|415:292,1,63.7500024318696,2|0,0:0|0:0,0:0:0:0:
271,250,17910,2,0,P|302:250|333:257,1,63.7500024318696,2|0,0:0|0:0,0:0:0:0:
244,325,18255,2,0,P|207:298|209:201,1,127.500004863739,2|0,0:0|0:0,0:0:0:0:
314,70,18944,1,2,0:0:0:0:
147,43,19289,1,0,0:0:0:0:
140,74,19461,1,0,0:0:0:0:
133,104,19634,2,0,P|133:148|154:257,1,127.500004863739,2|0,0:0|0:0,0:0:0:0:
166,254,20151,5,0,0:0:0:0:
194,268,20324,1,2,0:0:0:0:
244,264,20496,1,0,0:0:0:0:
298,201,20668,1,2,0:0:0:0:
270,109,20841,1,2,0:0:0:0:
270,109,21186,5,2,0:0:0:0:
298,201,21358,1,2,0:0:0:0:
393,225,21530,1,0,0:0:0:0:
485,182,21703,1,2,0:0:0:0:
425,48,21875,2,0,P|376:44|424:119,1,191.250007295609,2|0,0:0|0:0,0:0:0:0:
418,122,22737,6,0,P|418:153|411:184,1,63.7500024318696,2|0,0:0|0:0,0:0:0:0:
370,281,23082,2,0,P|313:254|251:265,1,127.500004863739,2|0,0:0|0:0,0:0:0:0:
168,323,23599,1,2,0:0:0:0:
114,231,23772,2,0,P|106:200|106:168,1,63.7500024318696,2|0,0:0|0:0,0:0:0:0:
106,169,24289,2,0,P|157:197|226:176,1,127.500004863739,2|0,0:0|0:0,0:0:0:0:
160,53,24806,2,0,P|160:84|168:115,1,63.7500024318696,2|0,0:0|0:0,0:0:0:0:
244,68,25151,2,0,P|295:40|364:61,1,127.500004863739,2|0,0:0|0:0,0:0:0:0:
377,74,25668,5,0,0:0:0:0:
390,108,25841,1,2,0:0:0:0:
375,178,26013,1,0,0:0:0:0:
308,219,26186,1,2,0:0:0:0:
231,189,26358,2,0,B|167:167|167:209|98:184,1,127.500004863739,2|0,0:0|0:0,0:0:0:0:
20,241,26875,2,0,P|3:181|27:122,1,127.500004863739,2|0,0:0|0:0,0:0:0:0:
104,272,27392,2,0,P|104:303|96:334,1,63.7500024318696,2|0,0:0|0:0,0:0:0:0:
95,334,27910,1,0,0:0:0:0:
95,334,28599,6,0,P|125:325|157:325,1,63.7500024318696,2|0,0:0|0:0,0:0:0:0:
232,369,28944,2,0,P|262:377|294:377,1,63.7500024318696,2|0,0:0|0:0,0:0:0:0:
355,316,29289,2,0,P|365:250|346:192,1,127.500004863739,2|0,0:0|0:0,0:0:0:0:
346,193,30668,6,0,P|286:225|208:197,2,127.500004863739,2|0|0,0:0|0:0|0:0,0:0:0:0:
391,7,31703,2,0,P|393:58|408:148,1,127.500004863739,2|0,0:0|0:0,0:0:0:0:
438,289,32392,2,0,P|447:319|447:351,1,63.7500024318696,2|0,0:0|0:0,0:0:0:0:
371,248,32737,2,0,P|426:212|494:237,1,127.500004863739,2|0,0:0|0:0,0:0:0:0:
352,325,33255,1,0,0:0:0:0:
339,323,33341,1,0,0:0:0:0:
326,321,33427,6,0,B|280:317|280:317|230:335|230:335|168:330,1,136,2|0,0:0|0:0,0:0:0:0:
89,326,33944,1,0,0:0:0:0:
222,239,34117,2,0,B|245:194|245:194|234:87,1,136,0|0,1:0|0:0,0:0:0:0:
121,140,34634,2,0,P|56:157|-10:108,1,136,2|0,0:0|0:0,0:0:0:0:
65,9,35151,2,0,P|74:52|65:88,1,68,2|0,0:0|0:0,0:0:0:0:
49,194,35496,2,0,P|45:227|54:260,1,68,0|0,1:0|0:0,0:0:0:0:
205,334,35841,6,0,B|241:336|241:336|291:318|291:318|337:322,2,136,2|2|2,0:0|0:0|0:0,0:0:0:0:
157,255,36703,1,0,0:0:0:0:
68,345,36875,2,0,P|46:351|24:353,2,45.3333333333333,2|0|0,1:2|0:0|0:0,0:0:0:0:
182,251,37220,2,0,P|204:252|226:259,2,45.3333333333333,2|0|0,0:0|0:0|0:0,0:0:0:0:
20,169,37565,6,0,P|56:167|89:153,1,68,2|0,0:0|0:0,0:0:0:0:
160,95,37910,1,0,0:0:0:0:
262,198,38082,2,0,P|260:234|246:267,1,68,2|0,0:0|1:0,0:0:0:0:
170,176,38427,1,2,0:0:0:0:
276,113,38599,2,0,L|429:122,1,136,0|0,0:0|0:0,0:0:0:0:
412,121,39289,6,0,P|414:177|403:207,1,68,2|0,0:0|0:0,0:0:0:0:
348,264,39634,2,0,P|335:232|334:198,1,68,2|0,1:2|0:0,0:0:0:0:
402,98,39979,1,0,0:0:0:0:
277,25,40151,6,0,B|231:21|231:21|181:39|181:39|119:34,1,136,2|0,0:0|0:0,0:0:0:0:
19,129,40668,2,0,B|10:214|10:214|33:259,1,136,2|0,0:0|1:0,0:0:0:0:
147,194,41186,2,0,P|193:184|215:260,1,136,2|0,0:0|0:0,0:0:0:0:
214,267,41617,1,0,0:0:0:0:
208,278,41703,1,2,0:0:0:0:
336,163,42048,6,0,P|385:147|433:152,1,68,2|0,0:0|0:0,0:0:0:0:
460,240,42392,2,0,P|426:236|394:223,1,68,2|0,1:2|0:0,0:0:0:0:
286,103,42737,2,0,P|237:87|189:92,1,68,2|0,0:0|0:0,0:0:0:0:
117,201,43082,2,0,P|150:214|232:159,1,136,2|2,0:0|0:0,0:0:0:0:
302,21,43599,1,0,0:0:0:0:
321,122,43772,2,0,P|326:167|319:205,1,68,0|0,1:0|0:0,0:0:0:0:
380,43,44117,2,0,P|430:31|477:40,1,68,2|0,0:0|0:0,0:0:0:0:
512,70,44461,5,2,0:0:0:0:
220,86,44806,1,2,0:0:0:0:
472,237,45324,1,2,0:0:0:0:
178,340,45841,6,0,P|92:339|67:261,1,170,2|8,0:0|0:0,0:0:0:0:
82,235,46617,1,8,0:0:0:0:
95,199,46703,6,0,P|60:142|13:208,1,170,0|0,1:0|0:0,0:0:0:0:
162,249,47220,6,0,P|168:143|120:82,1,170,6|8,1:2|0:0,0:0:0:0:
259,166,47737,2,0,P|315:182|375:162,1,85,0|0,0:0|0:0,0:0:0:0:
489,80,48082,1,0,1:0:0:0:
476,248,48255,1,8,0:0:0:0:
339,146,48427,1,2,1:2:0:0:
277,300,48599,6,0,L|287:385,1,85,2|0,0:0|1:0,0:0:0:0:
440,333,48944,1,8,0:0:0:0:
327,236,49117,2,0,P|271:220|211:240,1,85,2|0,0:0|1:0,0:0:0:0:
117,365,49461,2,0,P|157:352|189:325,1,85,2|8,1:2|0:0,0:0:0:0:
127,86,49806,1,2,0:0:0:0:
127,86,49979,6,0,B|91:131|91:131|110:243,2,170,0|8|0,1:0|0:0|0:0,0:0:0:0:
303,132,50841,1,0,1:0:0:0:
116,267,51013,1,8,0:0:0:0:
148,67,51186,1,2,1:2:0:0:
216,288,51358,6,0,L|234:386,1,85,2|0,0:0|1:0,0:0:0:0:
303,132,51703,1,10,0:0:0:0:
116,267,51875,2,0,P|60:283|0:263,1,85,2|0,0:0|1:0,0:0:0:0:
179,147,52220,1,2,1:2:0:0:
324,309,52392,2,0,L|240:293,1,85,8|0,0:0|0:0,0:0:0:0:
418,162,52737,6,0,L|400:260,1,85,6|0,1:2|0:0,0:0:0:0:
286,91,53082,2,0,L|304:189,1,85,10|0,0:0|0:0,0:0:0:0:
193,0,53427,2,0,L|175:98,1,85,2|0,0:0|1:0,0:0:0:0:
111,310,53772,6,0,L|80:142,1,170,10|0,0:0|0:0,0:0:0:0:
9,322,54289,1,0,1:0:0:0:
186,195,54461,2,0,P|240:181|296:203,1,85,10|0,0:0|0:0,0:0:0:0:
420,268,54806,1,0,1:0:0:0:
310,354,54979,1,0,1:0:0:0:
361,171,55151,2,0,L|376:87,1,85,10|0,0:0|0:0,0:0:0:0:
227,348,55496,6,0,P|170:320|191:197,1,170,4|8,1:2|0:0,0:0:0:0:
420,268,56013,2,0,L|336:253,1,85,4|0,1:2|0:0,0:0:0:0:
144,219,56358,1,4,0:3:0:0:
172,23,56530,1,8,0:0:0:0:
241,264,56703,6,0,L|226:348,1,85,4|0,1:2|0:0,0:0:0:0:
380,154,57048,1,0,1:0:0:0:
123,226,57220,1,8,0:0:0:0:
360,253,57392,1,8,0:0:0:0:
402,260,57478,1,8,0:0:0:0:
444,267,57564,1,8,0:0:0:0:
264,184,57737,1,8,0:3:0:0:
349,353,57910,1,4,0:3:0:0:
444,267,58082,1,0,1:0:0:0:
226,347,58255,6,0,B|137:374|137:318|56:347,1,170,4|8,1:2|0:0,0:0:0:0:
179,188,58772,2,0,P|186:236|180:273,1,85,0|0,0:0|0:0,0:0:0:0:
81,139,59117,1,0,1:0:0:0:
278,166,59289,1,8,0:0:0:0:
175,304,59461,1,2,1:2:0:0:
300,147,59634,6,0,P|341:139|383:145,1,85,2|0,0:0|1:0,0:0:0:0:
507,277,59979,1,8,0:0:0:0:
485,72,60151,2,0,L|473:176,1,85,2|0,0:0|1:0,0:0:0:0:
357,315,60496,2,0,L|347:230,1,85,2|8,1:2|0:0,0:0:0:0:
322,13,60841,1,2,0:0:0:0:
322,13,61013,6,0,B|277:49|277:49|165:30,2,170,0|8|0,1:0|0:0|0:0,0:0:0:0:
184,140,61875,1,0,1:0:0:0:
392,89,62048,1,8,0:0:0:0:
162,144,62220,1,2,1:2:0:0:
420,257,62392,6,0,P|433:209|426:165,1,85,2|0,0:0|1:0,0:0:0:0:
335,350,62737,2,0,P|376:377|420:384,1,85,10|0,0:0|0:0,0:0:0:0:
299,230,63082,2,0,P|257:239|223:264,1,85,2|0,1:2|1:0,0:0:0:0:
422,146,63427,2,0,P|387:110|346:93,1,85,10|0,0:0|0:0,0:0:0:0:
317,341,63772,6,0,B|298:230|298:230|334:185,2,170,4|8|0,1:2|0:0|0:0,0:0:0:0:
458,256,64634,1,0,1:0:0:0:
314,168,64806,1,10,0:0:0:0:
218,301,64979,6,0,L|232:384,1,85,0|2,1:0|0:0,0:0:0:0:
343,250,65324,1,0,1:0:0:0:
199,162,65496,2,0,L|115:176,1,85,8|0,0:0|0:0,0:0:0:0:
326,144,65841,1,2,1:2:0:0:
223,279,66013,1,0,1:0:0:0:
195,129,66186,2,0,L|209:46,1,85,8|0,0:0|0:0,0:0:0:0:
432,268,66530,6,0,P|404:325|281:304,1,170,4|8,0:0|0:0,0:0:0:0:
340,85,67048,2,0,L|326:169,1,85,4|0,1:2|0:0,0:0:0:0:
302,356,67392,1,4,0:3:0:0:
221,146,67565,1,8,0:0:0:0:
432,268,67737,6,0,L|348:254,1,85,4|0,1:2|0:0,0:0:0:0:
137,218,68082,1,0,1:0:0:0:
236,102,68255,2,0,L|320:88,1,85,8|0,0:0|0:0,0:0:0:0:
335,331,68599,5,8,0:3:0:0:
302,356,68686,1,8,0:0:0:0:
260,360,68771,1,8,0:0:0:0:
224,339,68857,1,8,0:0:0:0:
205,301,68943,1,8,0:0:0:0:
212,260,69030,1,8,0:0:0:0:
240,229,69116,1,8,0:0:0:0:
281,219,69202,1,8,0:0:0:0:
320,234,69289,6,0,P|370:240|405:218,1,85,4|0,0:0|0:0,0:0:0:0:
256,46,69634,2,0,P|250:96|266:145,1,85,8|0,0:0|0:0,0:0:0:0:
335,332,69979,5,8,0:0:0:0:
371,119,70151,1,0,1:0:0:0:
227,354,70324,5,8,0:0:0:0:
236,138,70496,1,0,1:0:0:0:
119,376,70668,6,0,L|110:290,1,85,8|0,0:0|0:0,0:0:0:0:
150,30,71013,1,8,0:0:0:0:
110,261,71185,1,0,1:0:0:0:
267,6,71358,5,8,0:0:0:0:
277,240,71530,1,0,1:0:0:0:
404,23,71703,5,8,0:0:0:0:
131,42,71875,1,0,1:0:0:0:
282,208,72048,6,0,P|285:148|274:107,1,85,8|0,0:0|0:0,0:0:0:0:
126,277,72392,2,0,P|119:318|123:361,1,85,8|0,0:0|0:0,0:0:0:0:
277,98,72737,5,8,0:0:0:0:
237,329,72909,1,0,1:0:0:0:
401,74,73082,5,8,0:0:0:0:
419,321,73254,1,0,1:0:0:0:
283,193,73427,6,0,P|223:190|181:201,1,85,8|0,0:0|0:0,0:0:0:0:
340,353,73772,2,0,P|400:356|442:345,1,85,8|8,0:0|0:0,0:0:0:0:
453,342,74030,1,8,0:0:0:0:
482,335,74117,1,8,0:0:0:0:
384,110,74289,1,8,0:3:0:0:
342,326,74461,1,4,0:3:0:0:
508,192,74634,1,0,1:0:0:0:
274,208,74806,6,0,B|104:216,1,170,4|8,1:2|0:0,0:0:0:0:
252,118,75324,1,0,0:0:0:0:
147,300,75496,2,0,P|144:360|155:402,1,85,8|8,0:3|0:0,0:0:0:0:
178,378,75754,1,8,0:0:0:0:
207,374,75841,1,8,0:0:0:0:
0,326,76013,1,2,1:3:0:0:
207,374,76358,5,0,1:0:0:0:
0,326,76530,1,8,0:0:0:0:
0,326,76875,5,8,0:3:0:0:
1,310,76961,1,8,0:0:0:0:
3,294,77047,1,8,0:0:0:0:
4,279,77133,1,8,0:0:0:0:
6,263,77219,1,8,0:2:0:0:
7,248,77306,1,8,0:3:0:0:
9,232,77392,1,8,0:3:0:0:
10,216,77478,1,4,0:3:0:0:
12,201,77565,6,0,P|108:182|113:81,1,203.999993774414,4|8,1:2|0:0,0:0:0:0:
47,128,78082,2,0,B|145:174|145:101|245:134,1,203.999993774414,4|8,1:2|0:3,0:0:0:0:
390,193,78599,1,8,0:0:0:0:
426,120,78772,6,0,P|330:139|325:240,1,203.999993774414,4|0,1:2|1:0,0:0:0:0:
435,344,79289,1,8,0:0:0:0:
472,184,79461,1,8,0:0:0:0:
375,288,79634,5,8,0:3:0:0:
375,288,79749,2,0,P|334:309|297:304,1,62.3333352355958,8|8,0:3|0:3,0:0:0:0:
253,196,79979,1,4,0:3:0:0:
253,196,80094,2,0,P|280:203|304:219,1,56.6666666666667,4|4,0:3|0:3,0:0:0:0:
178,237,80324,6,0,P|173:164|277:114,1,170,4|8,1:2|0:0,0:0:0:0:
187,267,80841,2,0,B|98:307|98:247|20:275,1,170,4|8,1:2|0:3,0:0:0:0:
57,348,81358,1,8,0:0:0:0:
100,147,81530,1,2,1:3:0:0:
51,373,81875,5,8,0:0:0:0:
108,111,82047,1,8,0:0:0:0:
51,373,82392,5,2,0:0:0:0:
108,111,82737,1,2,0:0:0:0:
108,111,83082,6,0,P|156:95|236:159,1,152.999995330811,6|0,1:2|0:0,0:0:0:0:
271,229,83771,1,2,0:0:0:0:
348,260,83944,1,2,0:0:0:0:
388,252,84116,1,0,0:0:0:0:
408,238,84289,2,0,B|447:142|350:140|377:34,1,212.5,2|0,0:0|0:0,0:0:0:0:
376,37,85840,6,0,P|331:97|257:96,1,152.999995330811,2|0,0:0|0:0,0:0:0:0:
193,40,86530,1,2,0:0:0:0:
111,31,86703,1,2,0:0:0:0:
75,50,86875,1,0,0:0:0:0:
58,67,87048,2,0,B|31:169|128:171|89:267,1,212.5,2|0,0:0|0:0,0:0:0:0:
96,275,88427,1,4,0:3:0:0:
96,275,88513,1,4,0:3:0:0:
96,275,88599,6,0,P|168:286|220:234,1,152.999995330811,4|0,1:2|0:0,0:0:0:0:
318,122,89289,2,0,P|299:194|352:265,1,152.999995330811,2|0,0:0|0:0,0:0:0:0:
393,180,89979,2,0,P|434:169|493:205,1,101.999996887207,2|0,0:0|0:0,0:0:0:0:
479,229,90496,2,0,B|467:276|467:276|478:331,1,101.999996887207,8|8,0:3|0:3,0:0:0:0:
485,363,91013,1,4,0:3:0:0:
387,94,91358,6,0,P|344:59|249:84,1,152.999995330811,4|0,1:2|0:0,0:0:0:0:
148,166,92048,2,0,P|173:88|125:16,1,152.999995330811,2|0,0:0|0:0,0:0:0:0:
0,105,92737,2,0,P|47:120|93:100,1,101.999996887207,2|0,0:0|0:0,0:0:0:0:
232,12,93427,2,0,P|279:-2|325:17,1,101.999996887207,2|0,0:0|0:0,0:0:0:0:
360,88,93944,1,0,0:0:0:0:
404,24,94117,1,2,0:0:0:0:
256,192,94289,12,2,98729,0:0:0:0:
