osu file format v14

[General]
AudioFilename: audio.mp3
AudioLeadIn: 0
PreviewTime: 46504
Countdown: 0
SampleSet: Soft
StackLeniency: 0.7
Mode: 2
LetterboxInBreaks: 0
WidescreenStoryboard: 0

[Editor]
Bookmarks: 385,11419,22453,33488,47281,58316,69350,83143,94609,98790
DistanceSpacing: 1.1
BeatDivisor: 4
GridSize: 4
TimelineZoom: 1

[Metadata]
Title:FLOWERS
TitleUnicode:FLOWERS
Artist:Shimotsuki Haruka
ArtistUnicode:霜月はるか
Creator:JBHyperion
Version:Collab Cup
Source:Flowers -Le volume sur printemps-
Tags:visual novel innocent grey jast usa galgame 鈴湯 suzuyu spring ajamez jemzuu celerih jbh hyperion log off now
BeatmapID:2120512
BeatmapSetID:1013070

[Difficulty]
HPDrainRate:3
CircleSize:2.4
OverallDifficulty:6
ApproachRate:6
SliderMultiplier:1.2
SliderTickRate:1

[Events]
//Background and Video events
0,0,"FLOWERS BG.jpg",0,0
//Break Periods
//Storyboard Layer 0 (Background)
//Storyboard Layer 1 (Fail)
//Storyboard Layer 2 (Pass)
//Storyboard Layer 3 (Foreground)
//Storyboard Layer 4 (Overlay)
//Storyboard Sound Samples

[TimingPoints]
385,344.827586206897,4,2,1,35,1,0
385,-100,4,2,1,35,0,0
10040,-100,4,2,1,35,0,0
11419,-100,4,2,1,20,0,0
37281,337.078651685393,4,2,1,35,1,0
37618,361.44578313253,4,2,1,35,1,0
37798,344.827586206897,4,2,1,35,1,0
39004,344.827586206897,4,2,1,35,1,0
46590,-100,4,2,1,50,0,0
47279,-100,4,2,1,60,0,1
69348,-100,4,2,1,60,0,0
82452,-100,4,2,1,40,0,0
94693,-100,4,2,1,15,0,0
95038,-100,4,2,1,22,0,0
95383,-100,4,2,1,30,0,0
95728,-100,4,2,1,38,0,0
96762,-100,4,2,1,32,0,0
96934,-100,4,2,1,30,0,0
97193,-100,4,2,1,25,0,0
97452,-100,4,2,1,20,0,0
97797,-100,4,2,1,15,0,0
98141,-100,4,2,1,10,0,0

[Colours]
Combo1 : 218,226,226
Combo2 : 173,207,218
Combo3 : 193,241,184

[HitObjects]
330,231,385,6,0,P|409:210|323:136,1,240,2|2,0:0|0:0,0:0:0:0:
133,165,1591,1,2,0:0:0:0:
304,281,3143,6,0,P|350:205|231:149,1,240,2|0,0:0|0:0,0:0:0:0:
66,251,4350,2,0,L|29:71,1,180,2|0,0:0|0:0,0:0:0:0:
334,200,5902,5,4,1:2:0:0:
125,165,6591,1,2,0:0:0:0:
334,200,7281,2,0,P|417:139|321:85,1,240,2|2,0:0|0:0,0:0:0:0:
88,188,8660,6,0,L|323:302,2,240,4|2|2,1:2|0:0|0:0,0:0:0:0:
328,222,11764,6,0,L|342:95,1,120,2|2,0:0|0:0,0:0:0:0:
114,164,12798,2,0,L|99:91,1,60,2|0,0:0|0:0,0:0:0:0:
243,138,13316,1,2,0:0:0:0:
100,203,13660,1,0,0:0:0:0:
264,255,14005,6,0,P|312:200|245:131,1,180,0|2,0:0|0:0,0:0:0:0:
120,164,14867,2,0,L|304:124,1,180,2|0,0:0|0:0,0:0:0:0:
125,188,15902,2,0,L|10:131,2,120,2|2|2,0:0|0:0|0:0,0:0:0:0:
272,189,16936,5,2,0:0:0:0:
127,307,17626,2,0,L|91:166,1,120,2|2,0:0|0:0,0:0:0:0:
225,210,18316,2,0,L|261:69,1,120,2|0,0:0|0:0,0:0:0:0:
356,182,19350,1,2,0:0:0:0:
300,222,19522,6,0,L|129:129,1,180
279,141,20385,2,0,P|354:126|384:24,1,180,2|2,0:0|0:0,0:0:0:0:
159,229,21419,2,0,P|84:214|54:112,1,180,2|2,0:0|0:0,0:0:0:0:
297,238,22798,6,0,L|173:199,1,120,2|2,0:0|0:0,0:0:0:0:
413,152,23833,2,0,L|428:79,1,60,2|0,0:0|0:0,0:0:0:0:
284,160,24350,1,2,0:0:0:0:
395,150,24695,1,0,0:0:0:0:
233,271,25040,6,0,P|147:249|124:169,1,180,0|0,0:0|0:0,0:0:0:0:
260,158,25902,2,0,L|444:118,1,180,2|0,0:0|0:0,0:0:0:0:
211,228,26936,2,0,L|84:186,2,120,2|0|0,0:0|0:0|0:0,0:0:0:0:
82,243,27971,5,2,0:0:0:0:
345,255,28660,2,0,L|381:114,1,120,2|0,0:0|0:0,0:0:0:0:
249,180,29350,2,0,L|213:39,1,120,2|0,0:0|0:0,0:0:0:0:
419,105,30729,6,0,L|276:128,2,120,2|0|2,0:0|0:0|0:0,0:0:0:0:
272,223,31764,2,0,P|129:219|111:114,1,260,2|2,0:0|0:0,0:0:0:0:
188,139,32683,2,0,L|197:16,1,120,0|0,0:0|0:0,0:0:0:0:
37,167,33488,5,2,0:0:0:0:
200,222,33833,2,0,L|329:180,1,120,0|0,0:0|1:0,0:0:0:0:
172,152,34522,1,0,0:0:0:0:
248,175,34695,2,0,P|286:161|232:70,1,180,2|2,0:0|0:0,0:0:0:0:
34,148,35902,1,2,0:0:0:0:
168,206,36247,6,0,L|299:164,1,120,2|2,0:0|0:0,0:0:0:0:
423,255,36936,2,0,L|285:223,1,120,2|2,1:2|0:0,0:0:0:0:
148,291,37618,2,0,L|139:212,1,60,2|0,0:0|0:0,0:0:0:0:
287,241,38142,2,0,P|336:190|273:109,1,180,2|0,0:0|0:0,0:0:0:0:
133,144,39004,5,0,0:0:0:0:
296,185,39348,2,0,L|419:164,1,120,2|2,0:0|1:2,0:0:0:0:
271,245,40038,1,0,0:0:0:0:
202,265,40210,2,0,P|162:243|213:152,1,180,2|2,0:0|0:0,0:0:0:0:
396,159,41245,2,0,L|219:103,1,180,2|2,0:0|0:0,0:0:0:0:
378,95,42107,6,0,L|252:72,2,120,2|2|2,0:0|1:2|0:0,0:0:0:0:
223,250,43141,2,0,L|193:128,1,120,2|2,0:0|0:0,0:0:0:0:
430,163,44176,1,2,0:0:0:0:
462,68,44521,5,2,0:0:0:0:
300,195,44866,2,0,P|211:160|185:81,2,180,2|2|2,0:0|0:0|0:0,0:0:0:0:
113,280,46590,2,0,L|87:155,1,120,8|2,0:0|0:0,0:0:0:0:
271,205,47279,6,0,P|356:154|275:78,1,240,6|0,1:2|0:0,0:0:0:0:
68,191,48486,2,0,L|114:146,1,60,2|2,1:2|0:0,0:0:0:0:
233,240,49004,1,8,0:0:0:0:
289,263,49176,2,0,L|316:123,1,120,2|2,0:0|1:2,0:0:0:0:
164,200,49866,6,0,P|79:173|92:95,1,180,2|8,0:0|0:0,0:0:0:0:
203,98,50728,1,0,0:0:0:0:
403,207,51245,1,2,1:2:0:0:
340,237,51417,6,0,L|214:213,1,120,2|10,0:0|0:0,0:0:0:0:
288,182,51935,1,2,0:0:0:0:
427,209,52279,1,2,1:2:0:0:
200,278,52797,6,0,L|330:256,2,120,6|10|2,1:2|0:0|0:0,0:0:0:0:
73,222,53831,2,0,P|50:152|189:85,1,240,10|10,0:0|0:0,0:0:0:0:
285,139,54866,1,0,1:0:0:0:
392,143,55210,1,10,0:0:0:0:
226,264,55555,6,0,L|86:239,1,120,4|8,1:2|0:0,0:0:0:0:
45,270,56072,1,4,1:2:0:0:
172,209,56417,1,4,0:3:0:0:
333,238,56762,6,0,L|378:180,1,60,4|0,1:2|0:0,0:0:0:0:
201,322,57279,2,0,L|156:264,1,60,8|8,0:0|0:0,0:0:0:0:
399,264,57969,2,0,L|410:202,1,60,4|0,0:3|1:0,0:0:0:0:
311,157,58314,6,0,L|69:294,1,240,4|0,1:2|0:0,0:0:0:0:
298,278,59521,1,2,1:2:0:0:
360,271,59693,2,0,L|395:136,1,120,2|8,0:0|0:0,0:0:0:0:
308,167,60210,1,2,0:0:0:0:
171,204,60555,1,2,1:2:0:0:
338,308,60900,6,0,P|428:274|443:166,1,180,2|8,0:0|0:0,0:0:0:0:
323,197,61762,1,0,0:0:0:0:
122,109,62279,1,2,1:2:0:0:
184,94,62452,2,0,L|309:115,2,120,2|10|2,0:0|0:0|1:2,0:0:0:0:
325,204,63486,1,10,0:0:0:0:
154,349,63831,6,0,L|114:211,1,120,4|8,1:2|0:0,0:0:0:0:
218,238,64521,1,0,0:0:0:0:
373,195,64866,1,10,0:0:0:0:
209,202,65210,6,0,P|121:164|216:98,1,240,0|2,0:0|1:2,0:0:0:0:
306,127,66245,1,8,0:0:0:0:
136,285,66590,6,0,L|79:95,1,180,4|4,0:0|1:2,0:0:0:0:
152,133,67279,1,0,0:0:0:0:
283,105,67624,1,8,0:0:0:0:
122,237,67969,6,0,L|300:180,1,180,0|0,0:0|0:0,0:0:0:0:
356,204,68659,1,8,0:3:0:0:
223,298,69004,2,0,L|196:224,1,60,8|8,0:0|0:0,0:0:0:0:
296,232,69348,6,0,P|384:192|408:116,1,180,4|0,0:0|0:0,0:0:0:0:
320,116,70038,2,0,L|194:156,1,120,8|8,0:0|0:0,0:0:0:0:
64,76,70728,6,0,L|211:98,1,120,8|8,0:0|0:0,0:0:0:0:
312,112,71417,1,8,0:0:0:0:
112,240,71762,2,0,L|108:176,1,60,8|0,0:0|1:0,0:0:0:0:
204,240,72107,6,0,L|395:205,2,180,8|0|8,0:0|0:0|0:0,0:0:0:0:
48,240,73486,6,0,P|8:168|64:76,1,180,8|8,0:0|0:0,0:0:0:0:
132,88,74176,2,0,L|264:88,1,120,8|4,0:0|0:3,0:0:0:0:
420,88,74866,6,0,B|420:180|420:180|332:192,1,180,4|0,1:2|0:0,0:0:0:0:
176,192,75728,2,0,L|236:192,1,60,8|8,0:0|0:0,0:0:0:0:
308,192,76072,5,2,1:3:0:0:
152,192,76417,2,0,L|147:263,1,60,0|8,1:0|0:0,0:0:0:0:
304,252,76935,2,0,L|424:252,1,120,8|8,0:3|0:2,0:0:0:0:
256,252,77624,6,0,B|196:252|196:252|196:192,1,120,4|8,1:2|0:0,0:0:0:0:
272,168,78141,1,4,1:2:0:0:
348,168,78314,2,0,B|408:168|408:168|408:108,1,120,0|8,0:0|0:0,0:0:0:0:
324,108,78831,5,4,1:2:0:0:
180,108,79176,2,0,L|172:48,1,60,0|8,1:0|0:0,0:0:0:0:
340,48,79693,2,0,P|368:96|340:148,1,120,8|4,0:3|0:3,0:0:0:0:
268,148,80210,1,8,0:3:0:0:
196,144,80383,6,0,L|84:192,1,120,4|8,1:2|0:0,0:0:0:0:
144,192,80900,1,4,1:2:0:0:
284,252,81245,2,0,L|288:192,1,60,8|8,0:3|0:0,0:0:0:0:
216,192,81590,6,0,L|80:192,1,120,2|8,1:3|0:0,0:0:0:0:
36,192,82107,1,8,0:0:0:0:
192,192,82452,2,0,L|196:324,1,120,2|2,0:0|0:0,0:0:0:0:
364,312,83141,5,6,1:2:0:0:
208,312,83831,1,2,0:0:0:0:
212,228,84004,1,2,0:0:0:0:
276,172,84176,1,0,0:0:0:0:
360,172,84348,6,0,P|416:128|360:56,1,180,2|0,0:0|0:0,0:0:0:0:
240,56,85210,1,2,0:0:0:0:
48,56,85900,6,0,L|44:184,1,120,2|0,0:0|0:0,0:0:0:0:
188,176,86590,2,0,L|256:152,2,60,0|2|0,0:0|0:0|0:0,0:0:0:0:
116,176,87107,5,2,0:0:0:0:
312,176,87624,2,0,L|316:312,1,120,2|0,0:0|0:0,0:0:0:0:
184,296,88314,1,0,0:0:0:0:
16,296,88659,6,0,B|16:176|16:176|136:176,1,240,4|2,1:2|0:0,0:0:0:0:
340,176,90038,5,2,0:0:0:0:
248,176,90275,1,0,0:0:0:0:
140,176,90555,2,0,P|93:129|86:61,1,120,8|8,0:3|0:3,0:0:0:0:
152,60,91072,1,4,0:3:0:0:
332,60,91417,6,0,B|452:60,1,120,4|0,1:2|0:0,0:0:0:0:
320,60,92107,2,0,L|196:60,1,120,2|0,0:0|0:0,0:0:0:0:
344,60,92797,6,0,L|348:192,1,120,2|0,0:0|0:0,0:0:0:0:
192,180,93486,1,2,0:0:0:0:
324,180,93831,1,0,0:0:0:0:
256,192,94636,12,2,98802,0:0:0:0:
