osu file format v14

[General]
AudioFilename: audio.mp3
AudioLeadIn: 0
PreviewTime: 47081
Countdown: 0
SampleSet: Soft
StackLeniency: 0.2
Mode: 0
LetterboxInBreaks: 0
WidescreenStoryboard: 1

[Editor]
Bookmarks: 11909,33978,47771,69840,75357,78116,83633
DistanceSpacing: 0.2
BeatDivisor: 4
GridSize: 32
TimelineZoom: 1.499997

[Metadata]
Title:FLOWERS
TitleUnicode:FLOWERS
Artist:Shimotsuki Haruka
ArtistUnicode:霜月はるか
Creator:Iceluin
Version:Spring
Source:FLOWERS -Le volume sur printemps-
Tags:yuri 百合 visual novel innocent grey 鈴湯 suzuyu galgame japanese video game pop jpop j-pop 春篇 haru hen manyo op opening Bellicose
BeatmapID:3140187
BeatmapSetID:1530762

[Difficulty]
HPDrainRate:6.5
CircleSize:4.2
OverallDifficulty:9
ApproachRate:9.2
SliderMultiplier:1.8
SliderTickRate:1

[Events]
//Background and Video events
Video,600,"video.mp4"
0,0,"bg.jpg",0,0
//Break Periods
//Storyboard Layer 0 (Background)
//Storyboard Layer 1 (Fail)
//Storyboard Layer 2 (Pass)
//Storyboard Layer 3 (Foreground)
//Storyboard Layer 4 (Overlay)
//Storyboard Sound Samples

[TimingPoints]
875,344.827586206897,4,2,1,30,1,0
875,-166.666666666667,4,2,1,30,0,0
11909,-133.333333333333,4,2,1,40,0,0
13116,-166.666666666667,4,2,1,40,0,0
14668,-133.333333333333,4,2,1,40,0,0
15875,-166.666666666667,4,2,1,40,0,0
17426,-133.333333333333,4,2,1,40,0,0
18633,-166.666666666667,4,2,1,40,0,0
20185,-133.333333333333,4,2,1,40,0,0
24150,-166.666666666667,4,2,1,40,0,0
25702,-133.333333333333,4,2,1,40,0,0
26909,-166.666666666667,4,2,1,40,0,0
27426,-133.333333333333,4,2,1,40,0,0
27943,-111.111111111111,4,2,1,40,0,0
28461,-133.333333333333,4,2,1,40,0,0
29668,-166.666666666667,4,2,1,40,0,0
31219,-133.333333333333,4,2,1,40,0,0
33978,-117.647058823529,4,2,1,50,0,0
45012,-166.666666666667,4,2,1,50,0,0
46392,-200,4,2,1,50,0,0
47081,-117.647058823529,4,2,1,50,0,0
47771,-86.9565217391304,4,2,1,75,0,1
55702,-250.000000000001,4,2,1,75,0,1
55961,-250.000000000001,4,2,1,5,0,1
56047,-86.9565217391304,4,2,1,75,0,1
63978,-250,4,2,1,75,0,1
64237,-250,4,2,1,5,0,1
64323,-86.9565217391304,4,2,1,75,0,1
65357,-250,4,2,1,75,0,1
65616,-250,4,2,1,5,0,1
65702,-86.9565217391304,4,2,1,75,0,1
69840,-76.9230769230769,4,2,1,80,0,1
75357,-86.9565217391304,4,2,1,70,0,1
76564,-166.666666666667,4,2,1,70,0,1
77081,-86.9565217391304,4,2,1,70,0,1
78116,-76.9230769230769,4,2,1,80,0,1
82943,-250,4,2,1,50,0,1
83633,-166.666666666667,4,2,1,30,0,0
93288,355.029585798817,4,2,1,30,1,0
93288,-250,4,2,1,30,0,0
94353,303.030303030303,4,2,1,30,1,0
94656,400,4,2,1,30,1,0
94856,519.480519480519,4,2,1,30,1,0
94856,-250,4,2,1,30,0,0
95894,-250,4,2,1,25,0,0
96933,-250,4,2,1,20,0,0
97972,-250,4,2,1,15,0,0

[Colours]
Combo1 : 255,255,128
Combo2 : 128,255,128
Combo3 : 137,197,197
Combo4 : 255,168,125

[HitObjects]
64,320,875,6,0,B|43:296|57:250|103:239|158:264|111:281|168:324|214:308,1,215.999993408203,2|0,0:0|0:0,0:0:0:0:
360,177,1737,1,2,0:0:0:0:
360,177,1909,1,2,0:0:0:0:
286,118,2081,2,0,B|235:173|275:254|298:233|336:316|288:368,1,269.999991760254,2|2,0:0|0:0,0:0:0:0:
133,276,3116,1,0,3:0:0:0:
156,284,3288,1,0,3:0:0:0:
185,295,3461,1,0,3:0:0:0:
213,308,3633,6,0,P|318:287|426:273,1,215.999993408203,2|0,0:0|0:0,0:0:0:0:
512,115,4495,1,2,0:0:0:0:
512,115,4668,1,2,0:0:0:0:
459,34,4840,2,0,P|414:98|436:174,1,161.999995056153,2|2,0:0|0:0,0:0:0:0:
435,173,5702,2,0,P|355:156|275:147,1,161.999995056153,2|0,0:0|0:0,0:0:0:0:
187,141,6306,5,0,0:0:0:0:
182,161,6392,2,0,P|251:237|347:205,1,215.999993408203,6|0,1:2|0:0,0:0:0:0:
292,40,7254,2,0,P|281:92|275:146,1,107.999996704102,2|0,0:0|0:0,0:0:0:0:
422,260,7771,2,0,P|431:299|435:339,2,80.9999975280763,2|2|2,0:0|0:0|0:0,0:0:0:0:
274,146,8461,1,2,3:2:0:0:
243,150,8633,1,0,3:0:0:0:
212,155,8806,1,0,3:0:0:0:
182,161,8978,1,0,3:0:0:0:
151,166,9150,6,0,P|87:121|11:143,1,161.999995056153,6|2,1:2|0:0,0:0:0:0:
155,285,9840,1,0,0:0:0:0:
55,323,10012,2,0,P|66:270|72:216,1,107.999996704102,2|0,0:0|0:0,0:0:0:0:
274,146,10530,2,0,P|252:251|239:358,1,215.999993408203,2|0,0:0|0:0,0:0:0:0:
238,358,11909,6,0,P|294:324|359:337,1,135.000005149842,2|0,0:0|0:0,0:0:0:0:
359,337,12426,1,0,0:0:0:0:
467,214,12599,1,2,0:0:0:0:
390,172,12772,1,2,0:0:0:0:
310,207,12944,1,2,0:0:0:0:
287,288,13116,2,0,P|153:261|16:243,1,269.999991760254,2|2,0:0|0:0,0:0:0:0:
21,244,14668,6,0,P|-12:187|0:122,1,135.000005149842,2|2,0:0|0:0,0:0:0:0:
0,122,15185,1,2,0:0:0:0:
107,12,15357,1,2,0:0:0:0:
191,31,15530,1,2,0:0:0:0:
227,111,15702,1,2,0:0:0:0:
189,187,15875,2,0,P|136:176|82:170,1,107.999996704102,2|0,0:0|0:0,0:0:0:0:
227,111,16392,5,2,0:0:0:0:
280,186,16737,1,2,0:0:0:0:
335,262,17081,1,2,0:0:0:0:
335,262,17426,6,0,P|402:248|469:240,1,135.000005149842,2|2,0:0|0:0,0:0:0:0:
468,240,17943,1,2,0:0:0:0:
378,101,18116,2,0,P|385:134|388:168,1,67.5000025749208,2|0,0:0|0:0,0:0:0:0:
254,318,18461,1,0,0:0:0:0:
195,239,18633,2,0,P|271:217|335:262,1,161.999995056153,2|2,0:0|0:0,0:0:0:0:
499,121,19495,1,2,0:0:0:0:
499,121,20185,6,0,P|434:134|377:100,1,135.000005149842,2|0,0:0|0:0,0:0:0:0:
377,100,20702,1,2,0:0:0:0:
196,179,20875,1,2,0:0:0:0:
171,95,21048,1,2,0:0:0:0:
223,25,21220,1,2,0:0:0:0:
309,22,21392,2,0,P|295:89|287:156,1,135.000005149842,2|2,0:0|0:0,0:0:0:0:
412,218,21909,6,0,P|378:220|345:227,1,67.5000025749208,2|2,0:0|0:0,0:0:0:0:
470,289,22254,1,2,0:0:0:0:
287,155,22426,1,2,0:0:0:0:
287,155,22943,6,0,P|253:211|266:276,1,135.000005149842,2|0,0:0|0:0,0:0:0:0:
266,276,23460,1,0,0:0:0:0:
146,373,23633,1,2,0:0:0:0:
88,300,23806,1,2,0:0:0:0:
126,218,23978,1,2,0:0:0:0:
210,205,24150,2,0,B|417:237|417:237|395:226|375:195,1,269.999991760254,2|2,0:0|0:0,0:0:0:0:
374,194,25702,6,0,P|360:260|352:327,1,135.000005149842,2|2,0:0|0:0,0:0:0:0:
351,327,26219,1,2,0:0:0:0:
474,199,26391,1,2,0:0:0:0:
439,118,26564,1,2,0:0:0:0:
355,97,26736,1,2,0:0:0:0:
285,148,26909,2,0,P|232:136|178:130,1,107.999996704102,2|0,0:0|0:0,0:0:0:0:
305,26,27426,6,0,P|271:82|284:147,1,135.000005149842,2|0,0:0|0:0,0:0:0:0:
387,265,27943,6,0,P|311:244|244:287,1,161.999995056153,2|0,0:0|0:0,0:0:0:0:
419,373,28461,6,0,P|432:272|451:173,1,202.500007724762,2|0,0:0|0:0,0:0:0:0:
305,26,29150,1,2,0:0:0:0:
305,26,29323,1,0,0:0:0:0:
378,100,29495,1,2,0:0:0:0:
222,200,29668,2,0,P|157:155|81:177,1,161.999995056153,2|2,0:0|0:0,0:0:0:0:
122,379,30529,1,2,0:0:0:0:
122,379,31219,6,0,P|130:311|142:245,1,135.000005149842,2|0,0:0|0:0,0:0:0:0:
21,103,31737,1,2,0:0:0:0:
21,103,32081,2,0,P|-13:159|0:224,1,135.000005149842,2|0,0:0|0:0,0:0:0:0:
122,379,32599,2,0,P|220:359|321:345,1,202.500007724762,2|0,0:0|0:0,0:0:0:0:
501,199,33288,2,0,P|413:159|343:224,1,202.500007724762,2|0,0:0|0:0,0:0:0:0:
433,285,33892,5,0,0:0:0:0:
411,280,33978,2,0,P|336:264|260:255,1,153.000002918243,2|0,0:0|0:0,0:0:0:0:
98,382,34495,1,0,0:0:0:0:
44,298,34668,2,0,P|114:277|175:319,1,153.000002918243,0|0,1:0|0:0,0:0:0:0:
199,168,35185,6,0,P|184:242|175:318,1,153.000002918243,2|0,0:0|0:0,0:0:0:0:
57,222,35702,2,0,P|48:259|44:297,1,76.5000014591217
71,123,36047,1,0,1:0:0:0:
71,123,36392,2,0,P|125:111|174:138,1,114.750002188683,2|0,0:0|0:0,0:0:0:0:
199,168,36737,6,0,P|273:153|349:144,1,153.000002918243,2|0,0:0|0:0,0:0:0:0:
501,277,37254,1,0,0:0:0:0:
349,143,37426,2,0,P|343:105|360:71,1,76.5000014591217,2|0,1:2|0:0,0:0:0:0:
512,156,37771,5,2,0:0:0:0:
479,147,37886,5,2,0:0:0:0:
453,156,38001,5,2,0:0:0:0:
435,182,38116,5,2,0:0:0:0:
501,277,38288,1,2,0:0:0:0:
405,342,38461,1,2,0:0:0:0:
340,248,38633,1,2,0:0:0:0:
421,262,38806,5,0,1:0:0:0:
340,248,39495,6,0,P|264:257|190:272,1,153.000002918243,2|0,0:0|0:0,0:0:0:0:
325,111,40012,1,0,0:0:0:0:
271,35,40185,2,0,P|229:96|250:167,1,153.000002918243,0|0,1:0|0:0,0:0:0:0:
107,362,40702,6,0,P|98:286|83:211,1,153.000002918243,2|0,0:0|0:0,0:0:0:0:
249,166,41219,2,0,P|257:241|272:316,1,153.000002918243,2|0,0:0|1:0,0:0:0:0:
325,111,41737,2,0,P|264:69|193:90,1,153.000002918243,2|0,0:0|0:0,0:0:0:0:
249,166,42168,5,0,0:0:0:0:
259,180,42254,2,0,P|333:165|409:156,1,153.000002918243,2|0,0:0|0:0,0:0:0:0:
272,317,42771,1,0,0:0:0:0:
365,339,42943,2,0,P|360:301|352:263,1,76.5000014591217,0|2,1:0|0:0,0:0:0:0:
489,104,43288,2,0,P|493:141|501:179,1,76.5000014591217,0|0,0:0|0:0,0:0:0:0:
272,317,43633,6,0,P|198:302|122:293,1,153.000002918243,2|2,0:0|0:0,0:0:0:0:
1,157,44150,1,2,0:0:0:0:
38,333,44323,1,0,1:0:0:0:
38,333,44668,2,0,P|24:278|53:230,1,114.750002188683,2|0,0:0|0:0,0:0:0:0:
87,199,45012,5,2,0:0:0:0:
87,199,45357,2,0,P|80:145|69:92,1,107.999996704102,2|0,0:0|0:0,0:0:0:0:
166,75,45875,2,0,P|172:128|183:181,1,107.999996704102,2|0,0:0|0:0,0:0:0:0:
136,338,46392,6,0,P|198:294|271:316,1,157.5,2|0,0:0|0:0,0:0:0:0:
380,248,47081,1,10,0:0:0:0:
377,263,47168,1,8,0:0:0:0:
375,276,47254,1,0,1:0:0:0:
410,362,47426,2,0,P|355:374|307:345,1,114.750002188683,2|0,0:0|0:0,0:0:0:0:
270,315,47771,6,0,P|289:213|302:110,1,207.000003948212,6|8,1:2|0:0,0:0:0:0:
380,248,48288,1,0,0:0:0:0:
216,44,48461,2,0,P|206:94|199:146,1,103.500001974106,2|0,0:0|1:0,0:0:0:0:
270,315,48806,1,8,0:0:0:0:
490,181,48978,1,2,1:2:0:0:
270,315,49150,6,0,P|168:296|65:283,1,207.000003948212,2|8,0:0|0:0,0:0:0:0:
1,58,49668,2,0,P|51:68|103:75,1,103.500001974106,2|0,0:0|1:0,0:0:0:0:
289,215,50012,1,2,1:2:0:0:
216,44,50185,2,0,P|204:94|198:145,1,103.500001974106,8|2,0:0|0:0,0:0:0:0:
270,315,50530,6,0,B|321:341|373:296|353:283|407:238|455:263,1,207.000003948212,0|8,1:0|0:0,0:0:0:0:
289,215,51047,1,0,0:0:0:0:
438,365,51219,2,0,P|443:313|455:263,1,103.500001974106,2|0,0:0|1:0,0:0:0:0:
305,111,51564,1,8,0:0:0:0:
454,263,51737,1,2,1:2:0:0:
489,163,51909,6,0,P|438:176|387:182,1,103.500001974106,2|0,0:0|1:0,0:0:0:0:
129,64,52254,1,10,0:0:0:0:
96,163,52426,2,0,P|146:151|197:145,1,103.500001974106,2|0,0:0|1:0,0:0:0:0:
359,294,52771,1,2,1:2:0:0:
96,163,52943,2,0,P|114:238|123:315,1,155.250002961159,8|0,0:0|0:0,0:0:0:0:
123,346,53288,6,0,P|78:322|28:331,1,103.500001974106,6|0,1:2|0:0,0:0:0:0:
295,247,53633,2,0,P|243:240|193:228,1,103.500001974106,10|0,0:0|0:0,0:0:0:0:
459,150,53978,2,0,P|414:126|364:135,1,103.500001974106,2|0,0:0|1:0,0:0:0:0:
231,323,54323,1,10,0:0:0:0:
264,43,54495,6,0,P|282:144|295:247,1,207.000003948212,0|0,1:0|1:0,0:0:0:0:
502,368,55012,2,0,P|422:309|328:340,1,207.000003948212,10|0,0:0|1:0,0:0:0:0:
459,150,55530,1,0,1:0:0:0:
231,323,55702,2,0,P|204:318|177:314,1,54,10|0,0:0|0:0,0:0:0:0:
45,336,56047,6,0,P|116:358|177:314,1,155.250002961159,6|0,1:2|0:0,0:0:0:0:
211,285,56392,1,10,0:0:0:0:
68,75,56564,2,0,P|82:151|93:228,1,155.250002961159,6|0,1:2|0:0,0:0:0:0:
100,262,56909,1,8,0:3:0:0:
0,17,57081,1,8,0:0:0:0:
314,144,57254,6,0,B|319:124|334:109|334:109|247:127|170:135,1,207.000003948212,6|0,1:2|1:0,0:0:0:0:
45,336,57771,1,10,0:0:0:0:
259,213,57943,1,2,0:0:0:0:
259,213,58030,1,8,0:0:0:0:
259,213,58116,1,8,0:0:0:0:
169,135,58288,1,8,0:3:0:0:
181,38,58461,1,4,0:3:0:0:
256,1,58633,1,4,1:3:0:0:
394,169,58806,6,0,P|375:271|362:374,1,207.000003948212,6|8,1:2|0:0,0:0:0:0:
512,192,59323,1,0,0:0:0:0:
480,381,59495,2,0,P|484:329|495:278,1,103.500001974106,2|0,0:0|1:0,0:0:0:0:
394,169,59841,1,8,0:0:0:0:
480,381,60012,1,2,1:2:0:0:
471,102,60185,6,0,P|377:69|299:130,1,207.000003948212,2|8,0:0|0:0,0:0:0:0:
362,373,60703,2,0,P|372:323|379:271,1,103.500001974106,2|0,0:0|1:0,0:0:0:0:
194,164,61047,1,2,1:2:0:0:
265,326,61219,2,0,P|275:275|282:224,1,103.500001974106,8|2,0:0|0:0,0:0:0:0:
30,118,61564,6,0,B|81:144|133:99|113:86|167:41|215:66,1,207.000003948212,0|8,1:0|0:0,0:0:0:0:
49,28,62082,1,0,0:0:0:0:
180,266,62254,2,0,P|184:214|194:163,1,103.500001974106,2|0,0:0|1:0,0:0:0:0:
49,28,62599,1,8,0:0:0:0:
193,163,62772,1,2,1:2:0:0:
27,310,62944,6,0,P|13:260|8:209,1,103.500001974106,2|0,0:0|1:0,0:0:0:0:
176,61,63288,2,0,P|188:112|193:163,1,103.500001974106,10|0,0:0|0:0,0:0:0:0:
299,325,63633,2,0,P|287:275|282:224,1,103.500001974106,2|0,1:2|1:0,0:0:0:0:
431,33,63978,2,0,P|437:59|440:85,1,54,10|0,0:0|0:0,0:0:0:0:
454,196,64323,6,0,P|360:163|281:223,1,207.000003948212,6|8,1:2|0:0,0:0:0:0:
474,297,64840,1,0,0:0:0:0:
396,363,65012,2,0,P|389:312|378:262,1,103.500001974106,0|0,0:0|1:0,0:0:0:0:
191,155,65357,2,0,P|164:156|137:162,1,54,10|0,0:0|0:0,0:0:0:0:
76,254,65702,6,0,P|177:235|280:222,1,207.000003948212,2|8,0:0|0:0,0:0:0:0:
474,297,66219,1,0,0:0:0:0:
280,221,66392,1,2,1:2:0:0:
440,86,66564,1,0,1:0:0:0:
291,330,66737,1,8,0:0:0:0:
291,330,67081,6,0,P|214:341|138:357,1,155.250002961159,6|0,1:2|0:0,0:0:0:0:
101,366,67426,1,8,0:0:0:0:
21,129,67599,2,0,P|93:109|153:153,1,155.250002961159,6|0,1:2|0:0,0:0:0:0:
170,187,67944,1,0,1:0:0:0:
0,333,68115,1,8,0:0:0:0:
280,221,68288,6,0,P|177:232|75:252,1,207.000003948212,4|0,1:2|1:0,0:0:0:0:
41,27,68806,2,0,P|29:77|21:128,1,103.500001974106,8|0,0:0|0:0,0:0:0:0:
176,348,69150,1,8,0:3:0:0:
197,355,69237,1,8,0:0:0:0:
230,352,69323,1,8,0:0:0:0:
259,334,69409,1,8,0:0:0:0:
285,306,69495,1,10,0:0:0:0:
322,281,69581,1,8,0:0:0:0:
369,292,69668,1,10,0:0:0:0:
387,340,69754,1,8,0:0:0:0:
338,370,69840,6,0,P|352:253|374:138,1,233.999989288331,6|8,1:2|0:0,0:0:0:0:
512,0,70357,1,0,0:0:0:0:
263,77,70530,5,10,0:0:0:0:
477,223,70702,1,0,1:0:0:0:
211,154,70875,5,10,0:0:0:0:
481,240,71047,1,0,1:0:0:0:
206,248,71219,5,10,0:0:0:0:
495,142,71393,1,0,0:0:0:0:
200,267,71564,5,10,0:0:0:0:
439,64,71737,1,0,1:0:0:0:
194,286,71909,5,10,0:0:0:0:
346,34,72081,1,0,1:0:0:0:
188,305,72254,6,0,P|120:254|41:282,1,175.499991966248,10|0,0:0|0:0,0:0:0:0:
10,310,72599,6,0,B|54:261|20:191|0:209|-33:137|9:91,1,233.999989288331,10|10,0:0|0:0,0:0:0:0:
165,6,73116,1,0,0:0:0:0:
293,205,73288,5,10,0:0:0:0:
82,44,73461,1,0,1:0:0:0:
338,120,73633,5,10,0:0:0:0:
69,29,73806,1,0,1:0:0:0:
306,27,73978,5,10,0:0:0:0:
83,141,74150,1,0,0:0:0:0:
329,19,74323,5,10,0:0:0:0:
106,253,74495,1,10,0:0:0:0:
106,253,74581,1,8,0:0:0:0:
106,253,74668,1,8,0:0:0:0:
182,324,74840,5,8,0:3:0:0:
273,311,75012,1,4,0:3:0:0:
319,237,75185,1,4,1:3:0:0:
179,25,75357,6,0,P|198:126|210:229,1,207.000003948212,6|8,1:2|0:0,0:0:0:0:
391,333,75875,1,2,0:0:0:0:
451,92,76047,2,0,P|463:142|471:193,1,103.500001974106,8|10,0:3|0:0,0:0:0:0:
441,270,76306,1,8,0:0:0:0:
420,258,76392,1,10,0:0:0:0:
283,142,76564,6,0,P|335:132|381:157,1,107.999996704102,2|2,1:2|1:2,0:0:0:0:
298,338,77081,2,0,P|307:287|319:236,1,103.500001974106,10|0,0:0|0:0,0:0:0:0:
223,76,77426,5,8,0:3:0:0:
182,48,77512,1,0,3:0:0:0:
136,48,77598,1,8,0:0:0:0:
101,79,77684,1,8,0:0:0:0:
71,94,77770,1,8,0:0:0:0:
44,89,77857,1,4,0:3:0:0:
28,64,77943,1,4,0:3:0:0:
32,42,78029,1,4,0:3:0:0:
43,31,78116,5,6,1:2:0:0:
283,142,78288,1,2,0:0:0:0:
50,238,78461,1,10,0:0:0:0:
403,235,78633,5,6,1:2:0:0:
170,139,78806,1,2,0:0:0:0:
412,28,78978,1,2,1:2:0:0:
161,346,79150,5,8,0:0:0:0:
512,297,79323,6,0,P|397:276|281:261,1,233.999989288331,6|0,1:2|1:0,0:0:0:0:
27,335,79840,1,8,0:0:0:0:
280,260,80012,1,8,0:0:0:0:
170,139,80185,5,8,0:0:0:0:
159,174,80300,2,0,P|149:211|143:250,1,77.9999964294435,8|8,0:0|0:3,0:0:0:0:
0,223,80530,5,4,0:3:0:0:
11,258,80645,2,0,P|20:295|26:334,1,77.9999964294435,4|4,0:3|0:3,0:0:0:0:
281,67,80875,6,0,P|176:106|88:36,1,233.999989288331,6|8,1:2|0:0,0:0:0:0:
280,260,81392,2,0,P|365:244|453:233,1,175.499991966248,6|0,1:2|0:0,0:0:0:0:
494,228,81737,1,8,0:3:0:0:
351,147,81909,1,10,0:0:0:0:
209,373,82081,6,0,P|294:357|382:346,1,175.499991966248,6|0,1:2|0:0,0:0:0:0:
423,341,82426,1,10,0:0:0:0:
194,15,82599,1,10,0:0:0:0:
194,15,82943,6,0,P|185:50|180:85,1,72,2|2,0:0|0:0,0:0:0:0:
245,252,83633,6,0,P|164:188|68:226,1,215.999993408203,6|2,1:2|0:0,0:0:0:0:
222,345,84495,1,2,0:0:0:0:
222,345,84667,1,2,0:0:0:0:
150,281,84840,2,0,P|167:147|193:14,1,269.999991760254,2|2,0:0|0:0,0:0:0:0:
363,136,85874,1,0,3:0:0:0:
371,113,86046,1,0,3:0:0:0:
379,90,86219,1,0,3:0:0:0:
385,67,86392,6,0,B|332:94|277:47|298:33|242:-12|192:13,1,215.999993408203,2|0,0:0|0:0,0:0:0:0:
273,187,87253,1,2,0:0:0:0:
273,187,87426,1,2,0:0:0:0:
198,245,87598,2,0,P|176:169|221:105,1,161.999995056153,2|2,0:0|0:0,0:0:0:0:
432,212,88460,2,0,P|352:195|272:186,1,161.999995056153,2|8,0:0|0:3,0:0:0:0:
214,260,89064,5,8,0:3:0:0:
198,245,89150,2,0,B|179:221|176:202|176:202|156:290|149:367,1,215.999993408203,6|0,1:2|0:0,0:0:0:0:
339,271,90012,2,0,P|327:324|321:378,1,107.999996704102,2|0,0:0|0:0,0:0:0:0:
272,186,90529,2,0,P|276:145|284:106,2,80.9999975280763,2|2|8,0:0|0:0|0:3,0:0:0:0:
430,329,91392,1,4,0:3:0:0:
325,350,91564,2,0,P|330:310|339:271,1,80.9999975280763,4|0,1:3|0:0,0:0:0:0:
346,239,91909,6,0,B|391:257|451:218|405:197|462:177|506:191|518:233|493:259,1,215.999993408203,6|0,1:2|0:0,0:0:0:0:
368,106,92771,2,0,P|352:171|345:238,1,134.999995880127,2|0,0:0|0:0,0:0:0:0:
339,271,93288,5,2,0:0:0:0:
256,352,93643,1,2,0:0:0:0:
174,312,93998,1,2,0:0:0:0:
183,230,94353,5,0,3:0:0:0:
212,196,94504,5,0,3:0:0:0:
256,192,94656,5,4,3:2:0:0:
256,192,94856,12,2,99271,0:0:0:0:
