osu file format v14

[General]
AudioFilename: audio.mp3
AudioLeadIn: 0
PreviewTime: 47081
Countdown: 0
SampleSet: Soft
StackLeniency: 0.2
Mode: 0
LetterboxInBreaks: 0
WidescreenStoryboard: 1

[Editor]
Bookmarks: 11909,33978,47771,69840,75357,78116,83633
DistanceSpacing: 0.2
BeatDivisor: 4
GridSize: 32
TimelineZoom: 1.399997

[Metadata]
Title:FLOWERS
TitleUnicode:FLOWERS
Artist:Shimotsuki Haruka
ArtistUnicode:霜月はるか
Creator:Iceluin
Version:Insane
Source:FLOWERS -Le volume sur printemps-
Tags:yuri 百合 visual novel innocent grey 鈴湯 suzuyu galgame japanese video game pop jpop j-pop 春篇 haru hen manyo op opening Bellicose
BeatmapID:3131011
BeatmapSetID:1530762

[Difficulty]
HPDrainRate:5.5
CircleSize:4
OverallDifficulty:7
ApproachRate:9
SliderMultiplier:1.6
SliderTickRate:1

[Events]
//Background and Video events
Video,600,"video.mp4"
0,0,"bg.jpg",0,0
//Break Periods
//Storyboard Layer 0 (Background)
//Storyboard Layer 1 (Fail)
//Storyboard Layer 2 (Pass)
//Storyboard Layer 3 (Foreground)
//Storyboard Layer 4 (Overlay)
//Storyboard Sound Samples

[TimingPoints]
875,344.827586206897,4,2,1,30,1,0
875,-166.666666666667,4,2,1,30,0,0
11909,-133.333333333333,4,2,1,40,0,0
33978,-117.647058823529,4,2,1,50,0,0
46392,-200,4,2,1,50,0,0
47081,-117.647058823529,4,2,1,50,0,0
47771,-100,4,2,1,75,0,1
69840,-83.3333333333333,4,2,1,80,0,1
75357,-100,4,2,1,70,0,1
76564,-166.666666666667,4,2,1,70,0,1
77081,-100,4,2,1,70,0,1
78116,-83.3333333333333,4,2,1,80,0,1
82943,-250,4,2,1,50,0,1
83633,-166.666666666667,4,2,1,30,0,0
93288,355.029585798817,4,2,1,30,1,0
93288,-250,4,2,1,30,0,0
94353,303.030303030303,4,2,1,30,1,0
94656,400,4,2,1,30,1,0
94856,519.480519480519,4,2,1,30,1,0
94856,-250,4,2,1,30,0,0
95894,-250,4,2,1,25,0,0
96933,-250,4,2,1,20,0,0
97972,-250,4,2,1,15,0,0

[Colours]
Combo1 : 255,255,128
Combo2 : 128,255,128
Combo3 : 137,197,197
Combo4 : 255,168,125

[HitObjects]
96,94,875,6,0,B|142:117|192:77|174:65|225:25|268:47,1,191.999994140625,2|0,0:0|0:0,0:0:0:0:
412,150,1737,1,2,0:0:0:0:
412,150,1909,1,2,0:0:0:0:
329,194,2081,2,0,B|289:146|322:73|358:112|363:54|332:4|283:13|268:49,1,239.999992675781,2|2,0:0|0:0,0:0:0:0:
329,194,3633,6,0,P|409:149|490:192,1,191.999994140625,2|0,0:0|0:0,0:0:0:0:
413,352,4495,1,2,0:0:0:0:
413,352,4668,1,2,0:0:0:0:
355,280,4840,2,0,B|297:280|297:280|272:265|272:265|215:265,1,143.999995605469,2|2,0:0|0:0,0:0:0:0:
34,327,5702,2,0,P|94:359|156:327,1,143.999995605469,2|0,0:0|0:0,0:0:0:0:
215,265,6306,5,0,0:0:0:0:
215,265,6392,2,0,B|180:226|206:167|222:182|248:122|215:86,1,191.999994140625,6|0,1:2|0:0,0:0:0:0:
48,111,7254,2,0,B|62:128|62:128|137:128,1,95.9999970703126,2|0,0:0|0:0,0:0:0:0:
291,223,7771,2,0,L|363:223,2,71.9999978027344,2|2|2,0:0|0:0|0:0,0:0:0:0:
213,176,8461,2,0,P|198:220|215:265,1,95.9999970703126,2|0,3:2|3:0,0:0:0:0:
363,367,9150,6,0,B|363:223,1,143.999995605469,6|2,1:2|0:0,0:0:0:0:
425,156,9840,1,0,0:0:0:0:
269,27,10012,2,0,P|253:71|270:114,1,95.9999970703126,2|0,0:0|0:0,0:0:0:0:
444,69,10530,2,0,B|398:46|348:86|366:98|315:138|272:116,1,191.999994140625,2|0,0:0|0:0,0:0:0:0:
32,224,11909,6,0,P|85:201|139:223,1,120.000004577637,2|0,0:0|0:0,0:0:0:0:
139,223,12426,1,0,0:0:0:0:
86,364,12599,2,0,L|86:304,1,60.0000022888184,2|2,0:0|0:0,0:0:0:0:
139,223,12943,1,2,0:0:0:0:
294,303,13116,2,0,B|310:290|328:286|328:286|314:268|254:240|191:285|226:307|150:340|85:303,1,300.000011444092,2|2,0:0|0:0,0:0:0:0:
139,103,14668,6,0,L|139:223,1,120.000004577637,2|2,0:0|0:0,0:0:0:0:
139,223,15185,1,2,0:0:0:0:
49,103,15357,1,2,0:0:0:0:
93,22,15529,1,2,0:0:0:0:
184,22,15702,1,2,0:0:0:0:
230,103,15875,2,0,P|285:123|340:103,1,120.000004577637,2|0,0:0|0:0,0:0:0:0:
455,22,16392,5,2,0:0:0:0:
455,40,16737,1,2,0:0:0:0:
455,58,17081,1,2,0:0:0:0:
512,178,17426,6,0,P|456:158|401:178,1,120.000004577637,2|2,0:0|0:0,0:0:0:0:
401,177,17943,1,2,0:0:0:0:
460,313,18116,2,0,P|466:284|459:255,1,60.0000022888184,2|0,0:0|0:0,0:0:0:0:
401,177,18461,1,0,0:0:0:0:
313,313,18633,2,0,B|345:276|320:221|305:234|281:178|312:144,1,180.000006866455,2|2,0:0|0:0,0:0:0:0:
140,33,19495,1,2,0:0:0:0:
140,33,20185,6,0,P|160:89|140:144,1,120.000004577637,2|0,0:0|0:0,0:0:0:0:
140,143,20702,1,2,0:0:0:0:
46,299,20875,1,2,0:0:0:0:
0,216,21047,1,2,0:0:0:0:
47,139,21220,1,2,0:0:0:0:
140,143,21392,2,0,L|260:143,1,120.000004577637,2|2,0:0|0:0,0:0:0:0:
334,22,21909,6,0,L|334:82,1,60.0000022888184,2|2,0:0|0:0,0:0:0:0:
260,143,22254,1,2,0:0:0:0:
425,50,22426,1,2,0:0:0:0:
425,50,22943,6,0,L|425:170,1,120.000004577637,2|0,0:0|0:0,0:0:0:0:
425,170,23460,1,0,0:0:0:0:
477,305,23633,2,0,P|484:271|477:245,1,60.0000022888184,2|2,0:0|0:0,0:0:0:0:
425,170,23977,1,2,0:0:0:0:
299,296,24150,2,0,B|248:277|256:201|315:180|379:208|326:249|412:295|477:247,1,300.000011444092,2|2,0:0|0:0,0:0:0:0:
424,60,25702,6,0,P|403:114|424:169,1,120.000004577637,2|2,0:0|0:0,0:0:0:0:
424,169,26219,1,2,0:0:0:0:
299,296,26392,1,2,0:0:0:0:
329,203,26564,1,2,0:0:0:0:
250,146,26737,1,2,0:0:0:0:
172,204,26909,2,0,P|192:259|171:314,1,120.000004577637,2|0,0:0|0:0,0:0:0:0:
21,277,27426,6,0,B|2:257|2:257|96:257,1,120.000004577637,2|0,0:0|0:0,0:0:0:0:
170,93,27943,6,0,P|150:148|171:203,1,120.000004577637,2|0,0:0|0:0,0:0:0:0:
299,296,28460,6,0,B|369:296|369:296|398:275|398:275|472:275,1,180.000006866455,2|0,0:0|0:0,0:0:0:0:
334,148,29150,2,0,L|334:227,1,60.0000022888184,2|0,0:0|0:0,0:0:0:0:
399,275,29495,1,2,0:0:0:0:
506,128,29668,2,0,B|482:148|482:148|333:148,1,180.000006866455,2|2,0:0|0:0,0:0:0:0:
160,32,30529,1,2,0:0:0:0:
160,32,31219,6,0,P|181:86|161:141,1,120.000004577637,2|0,0:0|0:0,0:0:0:0:
1,252,31737,1,2,0:0:0:0:
1,252,32081,2,0,P|-20:197|-1:142,1,120.000004577637,2|0,0:0|0:0,0:0:0:0:
160,32,32599,2,0,B|204:10|250:49|234:60|282:97|322:76,1,180.000006866455,2|0,0:0|0:0,0:0:0:0:
506,46,33288,2,0,B|530:22|530:22|455:-26|394:20,1,180.000006866455,2|0,0:0|0:0,0:0:0:0:
322,75,33892,5,0,0:0:0:0:
322,75,33978,2,0,L|322:211,1,136.000002593994,2|0,0:0|0:0,0:0:0:0:
382,277,34495,1,0,0:0:0:0:
199,380,34668,2,0,B|232:396|267:367|255:358|291:330|321:346,1,136.000002593994,0|0,1:0|0:0,0:0:0:0:
442,211,35185,6,0,P|381:183|321:210,1,136.000002593994,2|0,0:0|0:0,0:0:0:0:
246,263,35702,1,0,0:0:0:0:
49,115,36047,1,0,1:0:0:0:
49,115,36392,2,0,P|31:161|49:208,1,102.000001945496,2|0,0:0|0:0,0:0:0:0:
110,263,36737,6,0,L|246:263,1,136.000002593994,2|0,0:0|0:0,0:0:0:0:
321,209,37254,1,0,0:0:0:0:
245,326,37426,2,0,P|235:294|245:262,1,68.0000012969971,2|0,1:2|0:0,0:0:0:0:
419,197,37771,5,2,0:0:0:0:
421,230,37886,5,2,0:0:0:0:
410,259,38001,5,2,0:0:0:0:
386,279,38116,5,2,0:0:0:0:
321,209,38288,1,2,0:0:0:0:
349,118,38461,1,2,0:0:0:0:
442,98,38633,2,0,P|473:108|495:134,1,68.0000012969971,2|0,0:0|1:0,0:0:0:0:
495,134,39495,6,0,L|495:270,1,136.000002593994,2|0,0:0|0:0,0:0:0:0:
432,340,40012,1,0,0:0:0:0:
247,270,40185,2,0,P|308:244|369:269,1,136.000002593994,0|0,1:0|0:0,0:0:0:0:
495,134,40702,6,0,P|433:159|372:134,1,136.000002593994,2|0,0:0|0:0,0:0:0:0:
185,66,41219,2,0,P|246:41|307:66,1,136.000002593994,2|0,0:0|1:0,0:0:0:0:
247,270,41737,2,0,L|247:133,1,136.000002593994,2|0,0:0|0:0,0:0:0:0:
185,66,42168,5,0,0:0:0:0:
185,66,42254,2,0,P|123:41|62:66,1,136.000002593994,2|0,0:0|0:0,0:0:0:0:
0,134,42771,1,0,0:0:0:0:
62,269,42943,2,0,P|70:236|61:203,1,68.0000012969971,0|2,1:0|0:0,0:0:0:0:
185,66,43288,2,0,P|176:98|185:131,1,68.0000012969971,0|0,0:0|0:0,0:0:0:0:
370,202,43633,6,0,P|308:177|247:202,1,136.000002593994,2|2,0:0|0:0,0:0:0:0:
184,273,44150,1,2,0:0:0:0:
315,369,44323,1,0,1:0:0:0:
315,369,44668,2,0,L|417:369,1,102.000001945496,2|0,0:0|0:0,0:0:0:0:
497,369,45012,5,2,0:0:0:0:
449,289,45357,1,2,0:0:0:0:
506,220,45875,5,2,0:0:0:0:
449,150,46392,6,0,B|411:121|385:123|385:123|357:156|322:154,1,140,2|0,0:0|0:0,0:0:0:0:
236,180,47081,1,10,0:0:0:0:
226,150,47168,1,8,0:0:0:0:
236,123,47254,1,0,1:0:0:0:
406,241,47426,2,0,P|425:286|407:332,1,102.000001945496,2|0,0:0|0:0,0:0:0:0:
406,333,47771,6,0,B|367:352|325:318|340:308|297:275|261:293,1,160,6|8,1:2|0:0,0:0:0:0:
93,178,48288,1,0,0:0:0:0:
163,332,48461,2,0,L|163:252,1,80,2|0,0:0|1:0,0:0:0:0:
21,106,48806,1,8,0:0:0:0:
163,252,48978,1,2,1:2:0:0:
236,180,49150,6,0,P|164:148|92:178,1,160,2|8,0:0|0:0,0:0:0:0:
163,332,49668,2,0,L|163:252,1,80,2|0,0:0|1:0,0:0:0:0:
290,105,50012,1,2,1:2:0:0:
422,179,50185,2,0,P|384:190|347:180,1,80,8|2,0:0|0:0,0:0:0:0:
163,332,50530,6,0,P|235:302|306:334,1,160,0|8,1:0|0:0,0:0:0:0:
422,179,51047,1,0,0:0:0:0:
489,333,51219,2,0,L|489:253,1,80,2|0,0:0|1:0,0:0:0:0:
305,333,51564,1,8,0:0:0:0:
489,253,51737,1,2,1:2:0:0:
422,179,51909,6,0,P|411:142|422:104,1,80,2|0,0:0|1:0,0:0:0:0:
223,31,52254,1,10,0:0:0:0:
290,105,52426,2,0,P|301:142|290:180,1,80,2|0,0:0|1:0,0:0:0:0:
163,332,52771,1,2,1:2:0:0:
0,223,52943,2,0,B|-19:205|-19:205|73:205,1,120,8|0,0:0|0:0,0:0:0:0:
74,205,53288,6,0,P|64:242|75:280,1,80,6|0,1:2|0:0,0:0:0:0:
182,155,53633,2,0,P|172:192|183:230,1,80,10|0,0:0|0:0,0:0:0:0:
290,105,53978,2,0,P|278:143|290:181,1,80,2|0,0:0|1:0,0:0:0:0:
433,316,54323,1,10,0:0:0:0:
339,326,54495,6,0,B|320:287|354:245|364:260|397:217|379:181,1,160,0|0,1:0|1:0,0:0:0:0:
209,44,55012,2,0,B|192:29|192:29|138:91|182:155,1,160,10|0,0:0|1:0,0:0:0:0:
339,326,55530,1,0,1:0:0:0:
181,154,55702,2,0,P|125:134|69:153,1,120,10|0,0:0|0:0,0:0:0:0:
69,153,56047,6,0,L|69:273,1,120,6|0,1:2|0:0,0:0:0:0:
69,357,56392,1,10,0:0:0:0:
181,154,56564,2,0,L|181:274,1,120,6|0,1:2|0:0,0:0:0:0:
181,357,56909,1,8,0:3:0:0:
336,251,57081,1,8,0:0:0:0:
410,314,57254,6,0,P|338:346|266:316,1,160,6|0,1:2|1:0,0:0:0:0:
181,154,57771,1,10,0:0:0:0:
336,251,57943,1,2,0:0:0:0:
336,251,58030,1,8,0:0:0:0:
336,251,58116,1,8,0:0:0:0:
181,154,58288,1,8,0:3:0:0:
330,65,58461,1,4,0:3:0:0:
256,0,58633,1,4,1:3:0:0:
69,78,58806,6,0,B|107:94|107:94|179:62|179:62|216:76,1,160,6|8,1:2|0:0,0:0:0:0:
336,251,59323,1,0,0:0:0:0:
485,182,59496,2,0,P|447:171|409:182,1,80,2|0,0:0|1:0,0:0:0:0:
266,316,59841,1,8,0:0:0:0:
409,181,60013,1,2,1:2:0:0:
338,107,60185,6,0,P|306:179|336:251,1,160,2|8,0:0|0:0,0:0:0:0:
161,354,60703,2,0,P|172:316|161:278,1,80,2|0,0:0|1:0,0:0:0:0:
0,160,61047,1,2,1:2:0:0:
59,311,61220,2,0,P|70:273|60:236,1,80,8|2,0:0|0:0,0:0:0:0:
190,65,61564,6,0,B|142:128|197:193|197:193|213:181,1,160,0|8,1:0|0:0,0:0:0:0:
368,65,62082,1,0,0:0:0:0:
304,220,62254,2,0,L|303:140,1,80,2|0,0:0|1:0,0:0:0:0:
441,0,62599,1,8,0:0:0:0:
303,140,62772,1,2,1:2:0:0:
394,258,62944,6,0,P|405:220|394:182,1,80,2|0,0:0|1:0,0:0:0:0:
214,180,63288,2,0,P|203:217|214:255,1,80,10|0,0:0|0:0,0:0:0:0:
302,381,63633,2,0,P|314:343|304:306,1,80,2|0,1:2|1:0,0:0:0:0:
131,381,63978,2,0,B|82:381|82:381|61:368|61:368|14:368,1,120,10|0,0:0|0:0,0:0:0:0:
15,368,64323,6,0,B|43:335|21:285|8:297|-12:247|14:217,1,160,6|8,1:2|0:0,0:0:0:0:
151,102,64840,1,0,0:0:0:0:
289,179,65012,2,0,P|251:190|213:179,1,80,0|0,0:0|1:0,0:0:0:0:
95,30,65357,2,0,P|149:8|204:30,1,120,10|0,0:0|0:0,0:0:0:0:
250,102,65702,6,0,B|314:102|314:102|342:84|342:84|404:84,1,160,2|8,0:0|0:0,0:0:0:0:
512,239,66219,1,0,0:0:0:0:
371,173,66392,1,2,1:2:0:0:
371,173,66565,1,0,1:0:0:0:
484,29,66737,1,8,0:0:0:0:
484,29,67082,6,0,P|503:84|483:140,1,120,6|0,1:2|0:0,0:0:0:0:
437,213,67427,1,8,0:0:0:0:
250,102,67599,2,0,P|269:157|249:213,1,120,6|0,1:2|0:0,0:0:0:0:
206,285,67944,1,0,1:0:0:0:
113,124,68116,1,8,0:0:0:0:
51,190,68288,6,0,B|32:215|32:215|160:215,1,160,4|0,1:2|1:0,0:0:0:0:
114,44,68806,2,0,L|113:123,1,80,8|0,0:0|0:0,0:0:0:0:
206,285,69150,1,8,0:3:0:0:
234,301,69237,1,8,0:0:0:0:
265,299,69323,1,8,0:0:0:0:
294,285,69409,1,8,0:0:0:0:
321,259,69495,1,10,0:0:0:0:
360,240,69581,1,8,0:0:0:0:
404,258,69668,1,10,0:0:0:0:
415,308,69754,1,8,0:0:0:0:
367,338,69840,6,0,L|367:146,1,191.999994140625,6|8,1:2|0:0,0:0:0:0:
200,56,70357,1,0,0:0:0:0:
367,146,70530,2,0,P|388:104|381:57,1,95.9999970703126,10|0,0:0|1:0,0:0:0:0:
200,56,70875,2,0,P|192:102|215:143,1,95.9999970703126,10|0,0:0|1:0,0:0:0:0:
380,56,71219,5,10,0:0:0:0:
290,212,71392,1,0,0:0:0:0:
290,30,71564,5,10,0:0:0:0:
290,212,71737,1,0,1:0:0:0:
200,56,71909,5,10,0:0:0:0:
290,212,72082,1,0,1:0:0:0:
212,269,72254,6,0,P|175:211|213:154,1,143.999995605469,10|0,0:0|0:0,0:0:0:0:
212,155,72599,6,0,B|169:177|116:138|135:126|85:86|38:109,1,191.999994140625,10|10,0:0|0:0,0:0:0:0:
38,298,73116,1,0,0:0:0:0:
38,108,73288,2,0,L|38:204,1,95.9999970703126,10|0,0:0|1:0,0:0:0:0:
212,365,73633,2,0,L|212:269,1,95.9999970703126,10|0,0:0|1:0,0:0:0:0:
367,146,73978,5,10,0:0:0:0:
212,269,74150,1,0,0:0:0:0:
292,91,74323,5,10,0:0:0:0:
137,214,74495,1,10,0:0:0:0:
137,214,74581,1,8,0:0:0:0:
137,214,74668,1,8,0:0:0:0:
294,321,74840,5,8,0:3:0:0:
137,214,75012,1,4,0:3:0:0:
211,154,75185,1,4,1:3:0:0:
45,65,75357,6,0,B|18:85|18:85|81:128|136:92,1,160,6|8,1:2|0:0,0:0:0:0:
291,208,75875,1,2,0:0:0:0:
441,145,76047,2,0,P|403:133|366:146,1,80,8|10,0:3|0:0,0:0:0:0:
291,208,76306,1,8,0:0:0:0:
291,208,76392,1,10,0:0:0:0:
406,339,76564,6,0,L|406:243,1,95.9999970703126,2|2,1:2|1:2,0:0:0:0:
441,145,77081,2,0,P|403:157|366:145,1,80,10|0,0:0|0:0,0:0:0:0:
215,34,77426,1,8,0:3:0:0:
172,9,77512,1,0,3:0:0:0:
129,17,77599,1,8,0:0:0:0:
103,47,77685,1,8,0:0:0:0:
100,80,77771,1,8,0:0:0:0:
115,106,77857,1,4,0:3:0:0:
133,120,77943,1,4,0:3:0:0:
153,124,78030,1,4,0:3:0:0:
166,114,78116,6,0,L|166:210,1,95.9999970703126,6|2,1:2|0:0,0:0:0:0:
281,375,78461,1,10,0:0:0:0:
118,302,78633,2,0,L|214:302,1,95.9999970703126,6|2,1:2|0:0,0:0:0:0:
312,139,78978,1,2,1:2:0:0:
214,302,79150,1,8,0:0:0:0:
166,209,79323,6,0,B|240:209|240:209|274:231|274:231|351:231,1,191.999994140625,6|0,1:2|1:0,0:0:0:0:
512,138,79840,2,0,P|468:121|425:139,1,95.9999970703126,8|8,0:0|0:0,0:0:0:0:
470,316,80185,5,8,0:0:0:0:
470,295,80300,2,0,L|470:232,1,63.9999980468751,8|8,0:0|0:3,0:0:0:0:
351,231,80530,1,4,0:3:0:0:
351,252,80645,2,0,L|351:316,1,63.9999980468751,4|4,0:3|0:3,0:0:0:0:
512,138,80875,6,0,B|531:124|531:124|490:98|439:120|457:135|413:153|372:134,1,191.999994140625,6|8,1:2|0:0,0:0:0:0:
180,31,81392,2,0,B|192:15|192:15|229:73|194:133,1,143.999995605469,6|0,1:2|0:0,0:0:0:0:
143,195,81737,1,8,0:3:0:0:
275,332,81909,1,10,0:0:0:0:
146,283,82081,6,0,B|178:299|216:269|203:260|241:230|276:247,1,143.999995605469,6|0,1:2|0:0,0:0:0:0:
351,287,82426,1,10,0:0:0:0:
512,138,82599,1,10,0:0:0:0:
512,138,82943,6,0,P|522:168|513:198,1,64,2|2,0:0|0:0,0:0:0:0:
351,287,83633,6,0,B|307:219|361:150|361:150|387:187,1,191.999994140625,6|2,1:2|0:0,0:0:0:0:
426,337,84495,1,2,0:0:0:0:
426,337,84667,1,2,0:0:0:0:
351,287,84840,2,0,B|254:287|254:287|212:312|212:312|117:312,1,239.999992675781,2|2,0:0|0:0,0:0:0:0:
117,132,86392,6,0,B|82:170|108:229|124:214|150:274|117:310,1,191.999994140625,2|0,0:0|0:0,0:0:0:0:
202,178,87253,1,2,0:0:0:0:
202,178,87426,1,2,0:0:0:0:
288,224,87599,2,0,P|351:252|415:224,1,143.999995605469,2|2,0:0|0:0,0:0:0:0:
343,69,88460,2,0,L|199:69,1,143.999995605469,2|8,0:0|0:3,0:0:0:0:
140,14,89064,5,8,0:3:0:0:
140,14,89150,2,0,B|119:41|119:41|119:198,1,191.999994140625,6|0,1:2|0:0,0:0:0:0:
45,353,90012,2,0,P|28:308|44:264,1,95.9999970703126,2|0,0:0|0:0,0:0:0:0:
194,264,90530,2,0,L|194:336,2,71.9999978027344,2|2|8,0:0|0:0|0:3,0:0:0:0:
343,69,91392,1,4,0:3:0:0:
343,69,91564,2,0,P|377:59|411:68,1,71.9999978027344,4|0,1:3|0:0,0:0:0:0:
411,68,91909,6,0,B|445:106|420:164|404:150|378:210|411:246,1,191.999994140625,6|0,1:2|0:0,0:0:0:0:
274,381,92771,2,0,P|288:335|273:290,1,95.9999970703126,2|0,0:0|0:0,0:0:0:0:
213,218,93288,5,2,0:0:0:0:
101,272,93643,1,2,0:0:0:0:
28,190,93998,1,2,0:0:0:0:
71,111,94353,5,0,3:0:0:0:
71,94,94504,5,0,3:0:0:0:
71,77,94656,5,4,3:2:0:0:
256,192,94856,12,2,99271,0:0:0:0:
