osu file format v14

[General]
AudioFilename: audio.mp3
AudioLeadIn: 0
PreviewTime: 47081
Countdown: 0
SampleSet: Soft
StackLeniency: 0.4
Mode: 0
LetterboxInBreaks: 0
WidescreenStoryboard: 1

[Editor]
Bookmarks: 11909,33978,47771,69840,75357,78116,83633
DistanceSpacing: 1.1
BeatDivisor: 4
GridSize: 32
TimelineZoom: 2.399997

[Metadata]
Title:FLOWERS
TitleUnicode:FLOWERS
Artist:Shimotsuki Haruka
ArtistUnicode:霜月はるか
Creator:Iceluin
Version:Hard
Source:FLOWERS -Le volume sur printemps-
Tags:yuri 百合 visual novel innocent grey 鈴湯 suzuyu galgame japanese video game pop jpop j-pop 春篇 haru hen manyo op opening Bellicose
BeatmapID:3131010
BeatmapSetID:1530762

[Difficulty]
HPDrainRate:5
CircleSize:3.6
OverallDifficulty:6
ApproachRate:8
SliderMultiplier:1.4
SliderTickRate:1

[Events]
//Background and Video events
Video,600,"video.mp4"
0,0,"bg.jpg",0,0
//Break Periods
//Storyboard Layer 0 (Background)
//Storyboard Layer 1 (Fail)
//Storyboard Layer 2 (Pass)
//Storyboard Layer 3 (Foreground)
//Storyboard Layer 4 (Overlay)
//Storyboard Sound Samples

[TimingPoints]
875,344.827586206897,4,2,1,30,1,0
875,-166.666666666667,4,2,1,30,0,0
11909,-133.333333333333,4,2,1,40,0,0
33978,-117.647058823529,4,2,1,50,0,0
47771,-100,4,2,1,75,0,1
69840,-100,4,2,1,80,0,1
75357,-100,4,2,1,70,0,1
78116,-100,4,2,1,80,0,1
83633,-166.666666666667,4,2,1,30,0,0
93288,355.029585798817,4,2,1,30,1,0
93288,-200,4,2,1,30,0,0
94353,303.030303030303,4,2,1,30,1,0
94353,-142.857142857143,4,2,1,30,0,0
94656,400,4,2,1,30,1,0
94856,519.480519480519,4,2,1,30,1,0
94856,-200,4,2,1,30,0,0
95894,-200,4,2,1,25,0,0
96933,-200,4,2,1,20,0,0
97972,-200,4,2,1,15,0,0

[Colours]
Combo1 : 255,255,128
Combo2 : 128,255,128
Combo3 : 137,197,197
Combo4 : 255,168,125

[HitObjects]
96,96,875,6,0,P|171:127|247:95,1,167.999994873047,2|0,0:0|0:0,0:0:0:0:
318,35,1737,1,2,0:0:0:0:
318,35,1909,1,2,0:0:0:0:
388,94,2081,2,0,B|350:137|378:201|396:185|424:251|388:291,1,209.999993591309,2|2,0:0|0:0,0:0:0:0:
388,290,3633,6,0,B|319:290|319:290|294:307|294:307|225:307,1,167.999994873047,2|0,0:0|0:0,0:0:0:0:
155,367,4495,1,2,0:0:0:0:
155,367,4668,1,2,0:0:0:0:
84,307,4840,2,0,P|58:251|84:195,1,125.999996154785,2|2,0:0|0:0,0:0:0:0:
267,195,5702,2,0,P|292:139|268:83,1,125.999996154785,2|0,0:0|0:0,0:0:0:0:
236,56,6306,5,0,0:0:0:0:
236,56,6392,2,0,B|205:39|205:39|72:39,1,167.999994873047,6|0,1:2|0:0,0:0:0:0:
0,103,7254,1,2,0:0:0:0:
0,103,7771,2,0,P|-9:133|1:165,2,62.9999980773926,2|2|2,0:0|0:0|0:0,0:0:0:0:
78,134,8461,2,0,L|78:218,1,83.9999974365235,2|0,3:2|3:0,0:0:0:0:
17,374,9150,6,0,P|75:353|132:374,1,125.999996154785,6|2,1:2|0:0,0:0:0:0:
213,335,9840,1,0,0:0:0:0:
296,374,10012,2,0,P|307:335|295:295,1,83.9999974365235,2|0,0:0|0:0,0:0:0:0:
220,237,10530,2,0,P|294:270|368:236,1,167.999994873047,2|0,0:0|0:0,0:0:0:0:
415,64,11909,6,0,P|366:46|317:63,1,105.000004005432,2|0,0:0|0:0,0:0:0:0:
244,122,12426,1,0,0:0:0:0:
170,62,12599,2,0,L|170:9,2,52.5000020027161,2|2|2,0:0|0:0|0:0,0:0:0:0:
96,122,13116,2,0,B|52:179|92:254|128:208|140:270|110:326|53:322|33:292,1,262.500010013581,2|2,0:0|0:0,0:0:0:0:
34,293,14668,6,0,P|82:275|131:293,1,105.000004005432,2|2,0:0|0:0,0:0:0:0:
201,357,15185,1,2,0:0:0:0:
270,293,15357,2,0,L|270:241,2,52.5000020027161,2|2|2,0:0|0:0|0:0,0:0:0:0:
340,357,15875,2,0,B|469:357|469:357|492:340,1,157.500006008148,2|2,0:0|0:0,0:0:0:0:
398,175,16737,1,2,0:0:0:0:
492,12,17081,1,2,0:0:0:0:
492,12,17426,6,0,L|381:12,1,105.000004005432,2|2,0:0|0:0,0:0:0:0:
305,60,17943,1,2,0:0:0:0:
223,12,18116,2,0,P|205:60|222:108,1,105.000004005432,2|0,0:0|0:0,0:0:0:0:
295,170,18633,2,0,P|223:141|152:170,1,157.500006008148,2|2,0:0|0:0,0:0:0:0:
0,275,19495,1,2,0:0:0:0:
0,275,20185,6,0,L|0:170,1,105.000004005432,2|0,0:0|0:0,0:0:0:0:
76,113,20702,1,2,0:0:0:0:
152,170,20875,2,0,L|152:222,2,52.5000020027161,2|2|2,0:0|0:0|0:0,0:0:0:0:
228,113,21392,2,0,P|276:96|325:112,1,105.000004005432,2|2,0:0|0:0,0:0:0:0:
400,170,21909,2,0,L|400:222,1,52.5000020027161,2|2,0:0|0:0,0:0:0:0:
333,290,22254,1,2,0:0:0:0:
333,290,22426,1,2,0:0:0:0:
72,290,22943,6,0,P|55:241|71:192,1,105.000004005432,2|0,0:0|0:0,0:0:0:0:
139,126,23460,1,0,0:0:0:0:
206,203,23633,2,0,L|261:203,2,52.5000020027161,2|2|2,0:0|0:0|0:0,0:0:0:0:
206,303,24150,2,0,B|313:303|313:303|352:276|352:276|460:276,1,262.500010013581,2|2,0:0|0:0,0:0:0:0:
460,276,25702,6,0,L|460:171,1,105.000004005432,2|2,0:0|0:0,0:0:0:0:
400,97,26219,1,2,0:0:0:0:
342,171,26392,2,0,L|342:223,2,52.5000020027161,2|2|2,0:0|0:0|0:0,0:0:0:0:
280,97,26909,2,0,B|241:77|200:110|215:120|173:153|137:135,1,157.500006008148,2|2,0:0|0:0,0:0:0:0:
0,30,27771,1,0,0:0:0:0:
0,30,27943,2,0,L|0:135,1,105.000004005432,2|0,0:0|0:0,0:0:0:0:
70,202,28461,6,0,B|93:247|63:301|63:301|116:344|160:310,1,210.000008010865,2|2,0:0|0:0,0:0:0:0:
225,242,29323,1,0,0:0:0:0:
225,242,29495,1,2,0:0:0:0:
289,310,29667,2,0,P|359:340|429:309,1,157.500006008148,2|2,0:0|0:0,0:0:0:0:
357,137,30529,1,2,0:0:0:0:
357,137,31219,6,0,L|357:263,1,105.000004005432,2|0,0:0|0:0,0:0:0:0:
289,310,31737,1,2,0:0:0:0:
289,310,32081,2,0,L|184:310,1,105.000004005432,2|0,0:0|0:0,0:0:0:0:
117,242,32599,2,0,B|91:196|116:145|134:176|154:112|129:73|129:73|129:88|120:101,1,210.000008010865,2|2,0:0|0:0,0:0:0:0:
357,242,33806,5,0,0:0:0:0:
357,242,33892,1,0,0:0:0:0:
357,242,33978,2,0,P|411:262|466:241,1,119.000002269745,2|0,0:0|0:0,0:0:0:0:
410,163,34495,1,0,0:0:0:0:
466,85,34668,2,0,P|411:64|356:84,1,119.000002269745,0|0,1:0|0:0,0:0:0:0:
303,163,35185,2,0,P|248:183|193:162,1,119.000002269745,2|0,0:0|0:0,0:0:0:0:
140,83,35702,1,0,0:0:0:0:
0,212,36047,1,0,1:0:0:0:
0,212,36392,2,0,L|1:326,1,89.2500017023087,2|0,0:0|0:0,0:0:0:0:
0,349,36737,6,0,L|119:349,1,119.000002269745,2|0,0:0|0:0,0:0:0:0:
193,289,37254,1,0,0:0:0:0:
266,349,37426,2,0,P|295:356|324:348,1,59.5000011348725,2|0,1:2|0:0,0:0:0:0:
398,289,37771,2,0,B|416:281|416:281|435:288,2,39.6666674232483,2|2|2,0:0|0:0|0:0,0:0:0:0:
345,252,38116,2,0,L|345:192,1,59.5000011348725,2|2,0:0|0:0,0:0:0:0:
282,128,38461,1,2,0:0:0:0:
282,128,38633,1,2,0:0:0:0:
211,192,38806,1,0,1:0:0:0:
211,192,39495,6,0,P|156:212|101:192,1,119.000002269745,2|0,0:0|0:0,0:0:0:0:
30,128,40012,1,0,0:0:0:0:
101,64,40185,2,0,P|155:43|210:63,1,119.000002269745,0|0,1:0|0:0,0:0:0:0:
282,128,40702,2,0,P|337:147|391:127,1,119.000002269745,2|0,0:0|0:0,0:0:0:0:
452,53,41219,1,2,0:0:0:0:
452,53,41564,1,0,1:0:0:0:
512,127,41737,2,0,L|512:261,1,119.000002269745,2|0,0:0|0:0,0:0:0:0:
512,298,42168,5,0,0:0:0:0:
512,298,42254,2,0,P|457:276|403:297,1,119.000002269745,2|0,0:0|0:0,0:0:0:0:
330,358,42771,1,0,0:0:0:0:
256,297,42943,2,0,L|256:237,1,59.5000011348725,0|2,1:0|0:0,0:0:0:0:
330,178,43288,2,0,L|330:118,1,59.5000011348725,0|0,0:0|0:0,0:0:0:0:
256,57,43633,2,0,P|201:35|147:56,1,119.000002269745,2|2,0:0|0:0,0:0:0:0:
75,118,44150,1,2,0:0:0:0:
147,179,44323,1,0,1:0:0:0:
147,179,44668,2,0,L|147:268,1,89.2500017023087,2|0,0:0|0:0,0:0:0:0:
147,315,45012,5,2,0:0:0:0:
448,160,47081,5,10,0:0:0:0:
448,150,47168,1,8,0:0:0:0:
448,140,47254,1,0,1:0:0:0:
381,72,47426,1,2,0:0:0:0:
381,72,47771,6,0,B|323:72|323:72|302:86|302:86|245:86,1,140,6|8,1:2|0:0,0:0:0:0:
175,27,48288,1,0,0:0:0:0:
105,86,48461,2,0,P|95:119|105:151,1,70,2|0,0:0|1:0,0:0:0:0:
175,210,48806,1,8,0:0:0:0:
105,267,48978,1,2,1:2:0:0:
175,324,49150,6,0,B|209:341|245:311|232:303|269:273|301:290,1,140,2|8,0:0|0:0,0:0:0:0:
369,351,49668,2,0,P|340:289|368:228,1,140,2|2,0:0|1:2,0:0:0:0:
435,166,50185,2,0,L|435:96,1,70,8|2,0:0|0:0,0:0:0:0:
300,24,50530,6,0,B|300:164,1,140,0|8,1:0|0:0,0:0:0:0:
368,227,51047,1,0,0:0:0:0:
300,287,51219,2,0,L|230:287,1,70,2|0,0:0|1:0,0:0:0:0:
161,227,51564,1,8,0:0:0:0:
92,287,51737,1,2,1:2:0:0:
23,227,51909,6,0,L|23:87,1,140,2|10,0:0|0:0,0:0:0:0:
92,17,52426,2,0,B|150:17|150:17|171:31|171:31|228:31,1,140,2|2,0:0|1:2,0:0:0:0:
309,85,52943,1,8,0:0:0:0:
309,85,53288,6,0,L|379:85,1,70,6|0,1:2|0:0,0:0:0:0:
471,51,53633,2,0,L|471:121,1,70,10|0,0:0|0:0,0:0:0:0:
505,213,53978,2,0,L|435:213,1,70,2|0,0:0|1:0,0:0:0:0:
350,169,54323,1,10,0:0:0:0:
268,213,54495,6,0,L|128:213,1,140,0|0,1:0|1:0,0:0:0:0:
59,155,55012,2,0,B|74:176|74:176|74:290,1,140,10|0,0:0|1:0,0:0:0:0:
146,357,55530,1,0,1:0:0:0:
217,290,55702,2,0,P|266:306|315:290,1,105,10|0,0:0|0:0,0:0:0:0:
351,257,56047,6,0,L|491:257,1,140,6|10,1:2|0:0,0:0:0:0:
491,158,56564,2,0,L|351:158,1,140,6|8,1:2|0:3,0:0:0:0:
278,91,57081,1,8,0:0:0:0:
206,158,57254,6,0,B|182:181|182:181|182:287,1,140,6|0,1:2|1:0,0:0:0:0:
84,287,57771,2,0,L|84:217,1,70,10|2,0:0|0:0,0:0:0:0:
86,171,58030,1,8,0:0:0:0:
86,171,58116,1,8,0:0:0:0:
14,104,58288,1,8,0:3:0:0:
86,37,58461,1,4,0:3:0:0:
86,37,58633,1,4,1:3:0:0:
219,104,58806,6,0,B|253:121|289:91|276:83|313:53|345:70,1,140,6|8,1:2|0:0,0:0:0:0:
423,129,59323,1,0,0:0:0:0:
345,189,59496,2,0,L|345:259,1,70,2|0,0:0|1:0,0:0:0:0:
423,317,59841,1,8,0:0:0:0:
345,376,60013,1,2,1:2:0:0:
265,319,60185,6,0,B|241:304|241:304|129:304,1,140,2|8,0:0|0:0,0:0:0:0:
51,364,60703,2,0,P|81:303|51:242,1,140,2|2,0:0|1:2,0:0:0:0:
4,159,61220,2,0,P|-5:125|4:92,1,70,8|2,0:0|0:0,0:0:0:0:
156,92,61564,6,0,B|181:120|161:162|150:152|131:195|155:222,1,140,0|8,1:0|0:0,0:0:0:0:
226,290,62082,1,0,0:0:0:0:
296,222,62254,2,0,L|366:222,1,70,2|0,0:0|1:0,0:0:0:0:
436,290,62599,1,8,0:0:0:0:
507,222,62772,1,2,1:2:0:0:
436,154,62943,6,0,L|436:84,1,70,2|0,0:0|1:0,0:0:0:0:
366,14,63288,2,0,L|296:14,1,70,10|0,0:0|0:0,0:0:0:0:
227,84,63633,2,0,L|227:154,1,70,2|0,1:2|1:0,0:0:0:0:
296,222,63978,2,0,P|313:270|296:319,1,105,10|0,0:0|0:0,0:0:0:0:
266,359,64323,6,0,B|208:359|208:359|187:345|187:345|130:345,1,140,6|8,1:2|0:0,0:0:0:0:
54,283,64840,1,0,0:0:0:0:
130,222,65012,2,0,L|130:152,1,70,0|0,0:0|1:0,0:0:0:0:
54,88,65357,2,0,B|80:61|80:61|147:61,1,105,10|0,0:0|0:0,0:0:0:0:
188,88,65702,6,0,L|328:88,1,140,2|8,0:0|0:0,0:0:0:0:
399,20,66219,1,0,0:0:0:0:
477,88,66392,1,2,1:2:0:0:
477,88,66564,1,0,1:0:0:0:
399,148,66737,1,8,0:0:0:0:
399,148,67081,6,0,B|424:176|404:218|393:208|374:251|398:278,1,140,6|8,1:2|0:0,0:0:0:0:
461,354,67599,2,0,P|397:328|333:353,1,140,6|0,1:2|1:0,0:0:0:0:
256,293,68116,1,8,0:0:0:0:
179,353,68288,6,0,P|115:378|51:353,1,140,4|0,1:2|1:0,0:0:0:0:
114,277,68806,2,0,L|114:207,1,70,8|0,0:0|0:0,0:0:0:0:
57,127,69150,2,0,B|50:111|50:111|57:96,3,35,8|8|8|8,0:3|0:0|0:0|0:0,0:0:0:0:
93,61,69495,2,0,B|109:54|109:54|124:61,3,35,10|8|10|8,0:0|0:0|0:0|0:0,0:0:0:0:
160,95,69840,6,0,B|218:95|218:95|239:109|239:109|296:109,1,140,6|8,1:2|0:0,0:0:0:0:
369,43,70357,1,0,0:0:0:0:
442,109,70530,2,0,L|512:109,1,70,10|0,0:0|1:0,0:0:0:0:
512,207,70875,2,0,L|442:207,1,70,10|0,0:0|1:0,0:0:0:0:
351,171,71219,6,0,P|359:204|349:237,1,70,10|0,0:0|0:0,0:0:0:0:
382,329,71564,2,0,P|348:337|315:327,1,70,10|0,0:0|1:0,0:0:0:0:
224,360,71909,2,0,P|215:326|225:293,1,70,10|0,0:0|1:0,0:0:0:0:
264,203,72254,1,10,0:0:0:0:
264,203,72599,6,0,B|264:85|264:85|251:67,1,140,10|10,0:0|0:0,0:0:0:0:
171,9,73116,1,0,0:0:0:0:
92,67,73288,2,0,P|59:75|26:65,1,70,10|0,0:0|1:0,0:0:0:0:
25,163,73633,2,0,P|58:152|91:160,1,70,10|0,0:0|1:0,0:0:0:0:
167,223,73978,6,0,L|167:293,1,70,10|0,0:0|0:0,0:0:0:0:
265,293,74323,2,0,L|265:223,1,70,10|10,0:0|0:0,0:0:0:0:
268,177,74581,1,8,0:0:0:0:
268,177,74668,1,8,0:0:0:0:
203,103,74840,1,8,0:3:0:0:
268,30,75012,1,4,0:3:0:0:
268,30,75185,1,4,1:3:0:0:
396,103,75357,6,0,B|512:103|512:103|500:123,1,140,6|8,1:2|0:0,0:0:0:0:
432,196,75875,1,2,0:0:0:0:
500,265,76047,1,8,0:3:0:0:
437,340,76219,1,10,0:0:0:0:
437,340,76306,1,8,0:0:0:0:
437,340,76392,1,10,0:0:0:0:
364,265,76564,6,0,B|330:248|294:278|307:286|270:316|238:299,1,140,2|2,1:2|1:2,0:0:0:0:
150,253,77081,1,10,0:0:0:0:
150,253,77426,2,0,L|150:218,3,35,8|0|8|8,0:3|3:0|0:0|0:0,0:0:0:0:
187,186,77771,2,0,L|187:151,3,35,8|4|4|4,0:0|0:3|0:3|0:3,0:0:0:0:
150,117,78116,6,0,B|92:117|92:117|71:131|71:131|14:131,1,140,6|10,1:2|0:0,0:0:0:0:
14,32,78633,2,0,B|72:32|72:32|93:18|93:18|150:18,1,140,6|2,1:2|1:2,0:0:0:0:
234,67,79150,1,8,0:0:0:0:
319,18,79323,6,0,B|339:47|339:47|339:151,1,140,6|0,1:2|1:0,0:0:0:0:
275,226,79840,1,8,0:0:0:0:
339,299,80012,1,8,0:0:0:0:
421,246,80185,2,0,B|411:225|411:225|421:204,2,46.6666666666667,8|8|8,0:0|0:0|0:3,0:0:0:0:
466,294,80530,2,0,B|476:315|476:315|465:335,2,46.6666666666667,4|4|4,0:3|0:3|0:3,0:0:0:0:
511,246,80875,6,0,B|525:217|525:217|502:145|502:145|512:115,1,140,6|8,1:2|0:0,0:0:0:0:
428,62,81392,2,0,B|394:45|358:75|371:83|334:113|302:96,1,140,6|8,1:2|0:3,0:0:0:0:
217,43,81909,1,10,0:0:0:0:
86,127,82081,6,0,L|86:267,1,140,6|10,1:2|0:0,0:0:0:0:
86,365,82599,1,10,0:0:0:0:
315,259,83633,6,0,B|273:279|230:244|246:233|200:198|162:218,1,167.999994873047,6|2,1:2|0:0,0:0:0:0:
86,267,84495,1,2,0:0:0:0:
86,267,84667,1,2,0:0:0:0:
8,217,84839,2,0,B|-22:178|2:123|19:138|43:95|30:52|30:52|25:69|16:82,1,209.999993591309,2|2,0:0|0:0,0:0:0:0:
16,82,86392,6,0,B|34:123|77:134|77:134|106:94|147:91,1,167.999994873047,2|0,0:0|0:0,0:0:0:0:
215,30,87253,1,2,0:0:0:0:
215,30,87426,1,2,0:0:0:0:
283,91,87598,2,0,B|283:188|283:188|302:209,1,125.999996154785,2|2,0:0|0:0,0:0:0:0:
491,209,88461,2,0,B|510:188|510:188|510:90,1,125.999996154785,2|8,0:0|0:3,0:0:0:0:
512,48,89064,5,8,0:3:0:0:
512,48,89150,2,0,B|443:48|443:48|418:31|418:31|349:31,1,167.999994873047,6|0,1:2|0:0,0:0:0:0:
283,91,90012,1,2,0:0:0:0:
105,96,90357,1,0,0:0:0:0:
105,96,90443,1,0,0:0:0:0:
105,96,90529,2,0,P|114:66|104:34,2,62.9999980773926,2|2|8,0:0|0:0|0:3,0:0:0:0:
110,285,91392,1,4,0:3:0:0:
110,285,91564,2,0,L|173:285,1,62.9999980773926,4|0,1:3|0:0,0:0:0:0:
219,285,91909,6,0,B|260:305|303:270|287:259|333:224|371:244,1,167.999994873047,6|0,1:2|0:0,0:0:0:0:
455,283,92771,2,0,P|466:244|454:204,1,83.9999974365235,2|0,0:0|0:0,0:0:0:0:
374,146,93288,2,0,L|304:146,1,70,2|2,0:0|0:0,0:0:0:0:
219,285,93998,1,2,0:0:0:0:
132,145,94353,2,0,P|126:121|134:99,2,48.9999985046387,0|0|4,3:0|3:0|3:2,0:0:0:0:
256,192,94856,12,2,99271,0:0:0:0:
