osu file format v14

[General]
AudioFilename: audio.mp3
AudioLeadIn: 0
PreviewTime: 47081
Countdown: 0
SampleSet: Soft
StackLeniency: 0.7
Mode: 0
LetterboxInBreaks: 0
WidescreenStoryboard: 1

[Editor]
Bookmarks: 11909,33978,47771,69840,75357,78116,83633
DistanceSpacing: 1.1
BeatDivisor: 4
GridSize: 32
TimelineZoom: 0.8999989

[Metadata]
Title:FLOWERS
TitleUnicode:FLOWERS
Artist:Shimotsuki Haruka
ArtistUnicode:霜月はるか
Creator:Iceluin
Version:Easy
Source:FLOWERS -Le volume sur printemps-
Tags:yuri 百合 visual novel innocent grey 鈴湯 suzuyu galgame japanese video game pop jpop j-pop 春篇 haru hen manyo op opening Bellicose
BeatmapID:3131009
BeatmapSetID:1530762

[Difficulty]
HPDrainRate:3
CircleSize:2.8
OverallDifficulty:3
ApproachRate:4
SliderMultiplier:0.8
SliderTickRate:1

[Events]
//Background and Video events
0,0,"bg.jpg",0,0
Video,600,"video.mp4"
//Break Periods
//Storyboard Layer 0 (Background)
//Storyboard Layer 1 (Fail)
//Storyboard Layer 2 (Pass)
//Storyboard Layer 3 (Foreground)
//Storyboard Layer 4 (Overlay)
//Storyboard Sound Samples

[TimingPoints]
875,344.827586206897,4,2,1,30,1,0
875,-100,4,2,1,30,0,0
11909,-100,4,2,1,40,0,0
33978,-100,4,2,1,50,0,0
47771,-100,4,2,1,75,0,1
69840,-100,4,2,1,80,0,1
75357,-100,4,2,1,70,0,1
78116,-100,4,2,1,80,0,1
83633,-100,4,2,1,30,0,0
93288,355.029585798817,4,2,1,30,1,0
94353,303.030303030303,4,2,1,30,1,0
94656,400,4,2,1,30,1,0
94856,519.480519480519,4,2,1,30,1,0
94856,-100,4,2,1,30,0,0
95894,-100,4,2,1,25,0,0
96933,-100,4,2,1,20,0,0
97972,-100,4,2,1,15,0,0

[Colours]
Combo1 : 255,255,128
Combo2 : 128,255,128
Combo3 : 137,197,197
Combo4 : 255,168,125

[HitObjects]
96,256,875,6,0,B|164:221|236:279|210:297|284:356|348:324,1,280,2|2,0:0|0:0,0:0:0:0:
348,324,3633,6,0,B|427:246|406:187|353:157|353:157|308:189|310:219,1,280,2|2,0:0|0:0,0:0:0:0:
309,218,6392,6,0,B|229:218|229:218|194:197|194:197|115:197,1,200,6|2,1:2|0:0,0:0:0:0:
114,65,7771,2,0,B|274:65,1,160,2|2,0:0|3:2,0:0:0:0:
445,24,9150,6,0,B|481:64|454:124|437:110|410:172|445:210,1,200,6|2,1:2|0:0,0:0:0:0:
512,324,10530,1,2,0:0:0:0:
160,324,11909,6,0,P|171:286|159:249,1,80,2|0,0:0|0:0,0:0:0:0:
97,186,12599,1,2,0:0:0:0:
159,69,13116,2,0,B|186:50|186:50|352:50,1,200,2|2,0:0|0:0,0:0:0:0:
352,226,14668,6,0,L|272:226,1,80,2|2,0:0|0:0,0:0:0:0:
202,171,15357,2,0,P|179:225|201:279,1,120,2|2,0:0|0:0,0:0:0:0:
295,371,16392,2,0,B|358:371|358:371|386:354|386:354|449:354,1,160,2|2,0:0|0:0,0:0:0:0:
512,291,17426,6,0,L|512:211,1,80,2|2,0:0|0:0,0:0:0:0:
512,123,18116,1,2,0:0:0:0:
400,53,18633,2,0,B|278:53|278:53|244:83|266:124,1,200,2|2,0:0|0:0,0:0:0:0:
266,299,20185,6,0,L|186:299,1,80,2|0,0:0|0:0,0:0:0:0:
124,362,20875,1,2,0:0:0:0:
7,299,21392,2,0,P|-16:245|7:191,1,120,2|2,0:0|0:0,0:0:0:0:
75,136,22254,2,0,L|115:136,1,40,2|2,0:0|0:0,0:0:0:0:
224,211,22943,6,0,P|262:221|300:210,1,80,2|0,0:0|0:0,0:0:0:0:
374,162,23633,1,2,0:0:0:0:
374,30,24150,2,0,L|174:30,1,200,2|2,0:0|0:0,0:0:0:0:
0,30,25702,6,0,L|0:110,1,80,2|2,0:0|0:0,0:0:0:0:
43,186,26392,2,0,P|65:239|44:293,1,120,2|2,0:0|0:0,0:0:0:0:
175,294,27426,2,0,P|152:240|173:186,1,120,2|2,0:0|0:0,0:0:0:0:
295,134,28461,6,0,L|375:134,1,80,2|0,0:0|0:0,0:0:0:0:
463,134,29150,1,2,0:0:0:0:
463,266,29668,2,0,B|446:281|446:281|348:281,1,120,2|2,0:0|0:0,0:0:0:0:
261,281,30530,1,2,0:0:0:0:
94,336,31219,6,0,P|70:282|93:228,1,120,2|2,0:0|0:0,0:0:0:0:
153,164,32081,1,2,0:0:0:0:
153,31,32599,2,0,B|217:31|217:31|245:14|245:14|308:14,1,160,2|2,0:0|0:0,0:0:0:0:
484,14,33978,6,0,L|484:94,1,80,2|0,0:0|0:0,0:0:0:0:
424,159,34668,2,0,P|370:136|316:158,2,120,0|2|0,1:0|0:0|0:0,0:0:0:0:
484,223,36047,1,0,1:0:0:0:
372,359,36737,6,0,L|292:359,1,80,2|0,0:0|0:0,0:0:0:0:
225,301,37426,1,2,1:2:0:0:
159,359,37771,1,2,0:0:0:0:
92,301,38116,2,0,B|72:277|72:277|72:148,1,160,2|0,0:0|1:0,0:0:0:0:
248,148,39495,6,0,L|248:68,1,80,2|0,0:0|0:0,0:0:0:0:
324,23,40185,2,0,B|419:23|419:23|440:9,2,120,0|2|2,1:0|0:0|0:0,0:0:0:0:
248,68,41564,2,0,L|208:68,1,40,0|2,1:0|0:0,0:0:0:0:
83,23,42254,5,2,0:0:0:0:
39,99,42599,2,0,L|38:178,2,80,0|0|0,0:0|1:0|0:0,0:0:0:0:
127,99,43633,2,0,L|127:179,1,80,2|2,0:0|0:0,0:0:0:0:
83,255,44323,1,0,1:0:0:0:
141,320,44668,1,2,0:0:0:0:
220,284,45012,5,2,0:0:0:0:
384,96,47081,6,0,L|384:47,2,40,10|0|2,0:0|1:0|0:0,0:0:0:0:
451,152,47771,6,0,P|461:189|450:227,1,80,6|8,1:2|0:0,0:0:0:0:
384,285,48461,1,2,0:0:0:0:
317,227,48806,1,8,0:0:0:0:
251,285,49150,2,0,B|202:285|202:285|183:295|183:295|133:295,2,120,2|2|8,0:0|0:0|0:0,0:0:0:0:
316,226,50530,6,0,P|327:188|317:151,1,80,0|8,1:0|0:0,0:0:0:0:
251,92,51219,1,2,0:0:0:0:
185,150,51564,1,8,0:0:0:0:
117,92,51909,2,0,P|62:70|8:91,2,120,2|2|8,0:0|0:0|0:0,0:0:0:0:
185,150,53288,5,6,1:2:0:0:
117,206,53633,1,10,0:0:0:0:
185,261,53978,1,2,0:0:0:0:
117,317,54323,2,0,B|149:349|149:349|263:349,1,160,10|10,0:0|0:0,0:0:0:0:
331,292,55357,1,0,1:0:0:0:
397,349,55702,1,10,0:0:0:0:
464,292,56047,6,0,B|441:267|457:231|468:240|484:202|464:179,1,120,6|6,1:2|1:2,0:0:0:0:
288,180,57254,2,0,B|265:155|281:119|292:128|308:90|288:67,1,120,6|10,1:2|0:0,0:0:0:0:
218,14,58116,1,8,0:0:0:0:
149,68,58461,1,4,0:3:0:0:
80,122,58806,6,0,L|80:202,1,80,6|8,1:2|0:0,0:0:0:0:
17,264,59495,1,2,0:0:0:0:
80,324,59840,1,8,0:0:0:0:
145,264,60185,2,0,L|265:264,2,120,2|2|8,0:0|0:0|0:0,0:0:0:0:
80,202,61564,6,0,L|80:122,1,80,0|8,1:0|0:0,0:0:0:0:
149,68,62254,1,2,0:0:0:0:
217,122,62599,1,8,0:0:0:0:
286,68,62943,2,0,P|323:55|360:68,2,80,2|10|2,0:0|0:0|1:2,0:0:0:0:
217,122,63978,1,10,0:0:0:0:
285,176,64323,6,0,L|285:256,1,80,6|8,1:2|0:0,0:0:0:0:
217,312,65012,1,0,0:0:0:0:
285,367,65357,1,10,0:0:0:0:
354,312,65702,2,0,B|487:312|487:312|508:292,1,160,2|2,0:0|1:2,0:0:0:0:
453,222,66737,1,8,0:0:0:0:
506,152,67081,6,0,L|506:32,1,120,6|6,1:2|1:2,0:0:0:0:
329,32,68288,2,0,L|329:152,1,120,4|8,1:2|0:0,0:0:0:0:
263,211,69150,1,8,0:3:0:0:
198,271,69495,1,10,0:0:0:0:
133,211,69840,6,0,L|133:117,1,80,6|10,1:2|0:0,0:0:0:0:
68,70,70530,1,10,0:0:0:0:
133,11,70875,1,10,0:0:0:0:
197,70,71219,2,0,P|234:81|272:69,1,80,10|10,0:0|0:0,0:0:0:0:
339,11,71909,1,10,0:0:0:0:
405,68,72254,1,10,0:0:0:0:
339,126,72599,6,0,L|339:206,1,80,10|10,0:0|0:0,0:0:0:0:
405,263,73288,1,10,0:0:0:0:
339,321,73633,1,10,0:0:0:0:
272,263,73978,2,0,L|190:263,1,80,10|10,0:0|0:0,0:0:0:0:
111,299,74668,2,0,P|97:261|111:224,1,80,8|4,0:0|0:3,0:0:0:0:
181,171,75357,6,0,B|245:171|245:171|273:154|273:154|336:154,1,160,6|8,1:2|0:3,0:0:0:0:
468,154,76564,2,0,P|491:100|467:46,1,120,2|10,1:2|0:0,0:0:0:0:
389,5,77426,2,0,L|309:5,1,80,8|8,0:3|0:0,0:0:0:0:
231,46,78116,6,0,B|184:46|184:46|163:33|163:33|115:33,1,120,6|6,1:2|1:2,0:0:0:0:
114,209,79323,2,0,B|160:209|160:209|181:196|181:196|229:196,1,120,6|8,1:2|0:0,0:0:0:0:
301,143,80185,1,8,0:0:0:0:
370,196,80530,1,4,0:3:0:0:
440,143,80875,6,0,B|459:163|459:163|459:255,1,120,6|6,1:2|1:2,0:0:0:0:
390,310,81737,1,8,0:3:0:0:
320,364,82081,2,0,B|289:379|259:354|270:346|238:321|210:334,1,120,6|10,1:2|0:0,0:0:0:0:
91,97,83633,6,8,B|50:114|46:187|107:213|173:200|124:162|204:119|266:166,1,280,6|2,1:2|0:0,0:0:0:0:
259,161,86392,6,0,B|213:205|262:256|262:256|432:256,1,280,2|2,0:0|0:0,0:0:0:0:
432,256,89150,6,0,B|395:215|422:155|439:169|466:108|432:69,1,200,6|2,1:2|0:0,0:0:0:0:
300,69,90529,2,0,B|283:88|283:88|283:183,1,120,2|8,0:0|0:3,0:0:0:0:
333,255,91392,2,0,L|333:295,1,40,4|4,0:3|1:3,0:0:0:0:
283,367,91908,6,0,B|235:391|184:349|202:337|149:294|103:318,1,200,6|2,1:2|0:0,0:0:0:0:
102,185,93288,2,0,P|140:195|178:185,1,80,2|2,0:0|0:0,0:0:0:0:
245,127,93998,2,0,P|283:116|321:126,1,80,2|0,0:0|3:0,0:0:0:0:
387,185,94656,5,4,3:2:0:0:
256,192,94856,12,2,99271,0:0:0:0:
