osu file format v14

[General]
AudioFilename: audio.mp3
AudioLeadIn: 0
PreviewTime: 47081
Countdown: 0
SampleSet: Soft
StackLeniency: 0.6
Mode: 0
LetterboxInBreaks: 0
WidescreenStoryboard: 1

[Editor]
Bookmarks: 11909,33978,47771,69840,75357,78116,83633
DistanceSpacing: 0.2
BeatDivisor: 4
GridSize: 32
TimelineZoom: 1.599999

[Metadata]
Title:FLOWERS
TitleUnicode:FLOWERS
Artist:Shimotsuki Haruka
ArtistUnicode:霜月はるか
Creator:Iceluin
Version:Bellicose's Insane
Source:FLOWERS -Le volume sur printemps-
Tags:yuri 百合 visual novel innocent grey 鈴湯 suzuyu galgame japanese video game pop jpop j-pop 春篇 haru hen manyo op opening Bellicose
BeatmapID:3148344
BeatmapSetID:1530762

[Difficulty]
HPDrainRate:6
CircleSize:4
OverallDifficulty:8
ApproachRate:9
SliderMultiplier:1.8
SliderTickRate:1

[Events]
//Background and Video events
0,0,"bg.jpg",0,0
Video,600,"video.mp4"
//Break Periods
//Storyboard Layer 0 (Background)
//Storyboard Layer 1 (Fail)
//Storyboard Layer 2 (Pass)
//Storyboard Layer 3 (Foreground)
//Storyboard Layer 4 (Overlay)
//Storyboard Sound Samples

[TimingPoints]
875,344.827586206897,4,2,1,30,1,0
875,-133.333333333333,4,2,1,30,0,0
11909,-100,4,2,1,40,0,0
12254,-166.666666666667,4,2,1,40,0,0
13116,-166.666666666667,4,2,1,40,0,0
14668,-166.666666666667,4,2,1,40,0,0
15875,-166.666666666667,4,2,1,40,0,0
17426,-166.666666666667,4,2,1,40,0,0
18633,-166.666666666667,4,2,1,40,0,0
20185,-166.666666666667,4,2,1,40,0,0
24150,-166.666666666667,4,2,1,40,0,0
25702,-166.666666666667,4,2,1,40,0,0
26909,-166.666666666667,4,2,1,40,0,0
27426,-166.666666666667,4,2,1,40,0,0
27943,-166.666666666667,4,2,1,40,0,0
28461,-166.666666666667,4,2,1,40,0,0
29668,-166.666666666667,4,2,1,40,0,0
31219,-166.666666666667,4,2,1,40,0,0
33978,-133.333333333333,4,2,1,50,0,0
45012,-166.666666666667,4,2,1,50,0,0
46392,-333.333333333333,4,2,1,50,0,0
47081,-100,4,2,1,50,0,0
47426,-142.857142857143,4,2,1,50,0,0
47771,-90.9090909090909,4,2,1,75,0,1
55702,-90.9090909090909,4,2,1,75,0,1
55961,-90.9090909090909,4,2,1,5,0,1
56047,-90.9090909090909,4,2,1,75,0,1
56564,-83.3333333333333,4,2,1,75,0,1
56909,-90.9090909090909,4,2,1,75,0,1
63978,-90.9090909090909,4,2,1,75,0,1
64237,-90.9090909090909,4,2,1,5,0,1
64323,-90.9090909090909,4,2,1,75,0,1
65357,-90.9090909090909,4,2,1,75,0,1
65616,-90.9090909090909,4,2,1,5,0,1
65702,-90.9090909090909,4,2,1,75,0,1
67599,-83.3333333333333,4,2,1,75,0,1
67943,-90.9090909090909,4,2,1,75,0,1
69840,-90.9090909090909,4,2,1,80,0,1
75357,-90.9090909090909,4,2,1,70,0,1
76564,-90.9090909090909,4,2,1,70,0,1
77081,-90.9090909090909,4,2,1,70,0,1
78116,-90.9090909090909,4,2,1,80,0,1
82943,-200,4,2,1,50,0,1
83633,-133.333333333333,4,2,1,30,0,0
93288,355.029585798817,4,2,1,30,1,0
93288,-166.666666666667,4,2,1,30,0,0
94353,303.030303030303,4,2,1,30,1,0
94656,400,4,2,1,30,1,0
94656,-200,4,2,1,30,0,0
94856,519.480519480519,4,2,1,30,1,0
94856,-133.333333333333,4,2,1,30,0,0
95894,-133.333333333333,4,2,1,25,0,0
96933,-133.333333333333,4,2,1,20,0,0
97972,-133.333333333333,4,2,1,15,0,0

[Colours]
Combo1 : 255,255,128
Combo2 : 128,255,128
Combo3 : 137,197,197
Combo4 : 255,168,125

[HitObjects]
318,112,875,6,0,B|255:66|316:4|183:-29|131:45|159:145|293:113,1,337.500012874604,2|2,0:0|0:0,0:0:0:0:
395,68,1909,1,2,0:0:0:0:
429,184,2081,2,0,B|356:152|484:90|585:134|605:300|399:340|452:222|304:217|338:335|408:296,1,405.000015449525,2|0,0:0|3:0,0:0:0:0:
251,372,3461,5,0,3:0:0:0:
251,372,3547,1,0,0:0:0:0:
251,372,3633,2,0,B|284:263|108:166|41:335|116:381|192:359|193:297,1,337.500012874604,2|2,0:0|0:0,0:0:0:0:
221,186,4668,1,2,0:0:0:0:
120,105,4840,2,0,B|247:240|368:134|314:20|167:5|121:131|178:191|40:176,1,472.500018024445,2|0,0:0|0:0,0:0:0:0:
0,333,6306,5,0,0:0:0:0:
0,333,6392,2,0,P|122:346|293:396,1,270.000010299683,6|0,1:2|0:0,0:0:0:0:
361,337,7254,2,0,P|476:351|502:282,1,202.500007724762,2|0,0:0|0:0,0:0:0:0:
510,185,7943,2,0,P|444:197|375:218,1,135.000005149842,2|0,0:0|0:0,0:0:0:0:
279,241,8461,2,0,B|247:124|364:174|324:56,1,202.500007724762,2|0,0:2|3:0,0:0:0:0:
134,44,9150,6,0,B|181:33|227:6|227:6|179:87|171:184,1,270.000010299683,6|0,1:2|0:0,0:0:0:0:
174,273,10012,2,0,P|116:320|46:289,1,135.000005149842,2|0,0:0|0:0,0:0:0:0:
17,207,10530,2,0,B|137:169|261:149|261:149|266:159|266:159|326:180|319:240|319:240|373:284|429:255|429:255|449:287|497:285,1,540.000020599366,2|0,0:0|0:0,0:0:0:0:
471,283,12254,6,0,P|481:250|493:222,1,53.9999983520508,2|0,0:0|0:0,0:0:0:0:
449,152,12599,2,0,P|484:131|486:21,1,161.999995056153,2|0,0:0|0:0,0:0:0:0:
414,71,13288,1,2,0:0:0:0:
339,28,13461,2,0,P|274:44|209:52,1,107.999996704102,2|2,0:0|0:0,0:0:0:0:
95,171,14150,5,0,0:0:0:0:
95,171,14323,1,0,0:0:0:0:
171,136,14495,2,0,P|206:171|192:237,1,107.999996704102,2|0,0:0|0:0,0:0:0:0:
274,293,15012,2,0,P|209:277|49:257,1,215.999993408203,2|2,0:0|0:0,0:0:0:0:
2,321,15875,1,0,0:0:0:0:
94,91,16392,2,0,B|71:100|59:124|59:124|27:126|-4:107,2,107.999996704102,2|2|2,0:0|0:0|0:0,0:0:0:0:
203,5,17426,6,0,B|193:21|173:41|173:41|169:113|246:138,1,161.999995056153,2|0,0:0|0:0,0:0:0:0:
278,211,18116,2,0,P|331:219|383:232,1,107.999996704102,2|0,0:0|0:0,0:0:0:0:
468,201,18633,1,0,0:0:0:0:
512,276,18806,2,0,P|505:341|460:356,2,107.999996704102,2|0|2,0:0|0:0|0:0,0:0:0:0:
450,110,19840,1,2,0:0:0:0:
450,110,20012,2,0,B|407:122|407:122|385:111|385:111|331:126,1,107.999996704102
277,47,20530,2,0,P|263:94|233:264,1,215.999993408203,2|2,0:0|0:0,0:0:0:0:
286,342,21392,1,2,0:0:0:0:
286,342,21737,6,0,P|254:348|222:362,1,53.9999983520508,2|2,0:0|0:0,0:0:0:0:
161,384,22081,5,2,0:0:0:0:
75,358,22254,5,2,0:0:0:0:
12,264,22426,6,0,B|50:260|79:235|79:235|140:241|140:307,1,161.999995056153,2|2,0:0|0:0,0:0:0:0:
257,180,23288,6,0,P|247:154|244:126,1,53.9999983520508,2|0,0:0|0:0,0:0:0:0:
272,45,23633,2,0,P|235:93|132:87,1,161.999995056153,2|0,0:0|0:0,0:0:0:0:
77,28,24323,1,2,0:0:0:0:
0,74,24495,2,0,P|19:131|25:195,1,107.999996704102,2|2,0:0|0:0,0:0:0:0:
60,355,25185,5,0,0:0:0:0:
60,355,25357,1,0,0:0:0:0:
0,282,25530,2,0,P|19:225|25:161,1,107.999996704102,2|0,0:0|0:0,0:0:0:0:
96,126,26047,1,2,0:0:0:0:
96,126,26392,2,0,P|151:134|195:85,1,107.999996704102,2|2,0:0|0:0,0:0:0:0:
267,149,26909,1,2,0:0:0:0:
376,5,27426,2,0,B|367:49|367:49|355:61|355:61|343:125,2,107.999996704102,2|0|2,0:0|0:0|0:0,0:0:0:0:
472,132,28461,6,0,B|482:148|502:168|502:168|506:240|429:265,1,161.999995056153,2|0,0:0|0:0,0:0:0:0:
373,206,29150,2,0,P|319:202|278:249,1,107.999996704102,2|2,0:0|0:0,0:0:0:0:
250,313,29668,1,0,0:0:0:0:
321,361,29840,2,0,P|391:374|432:387,1,107.999996704102,2|2,0:0|0:0,0:0:0:0:
105,196,31219,6,0,P|66:231|13:226,2,107.999996704102,2|0|2,0:0|0:0|0:0,0:0:0:0:
79,118,32081,1,0,0:0:0:0:
188,25,32254,2,0,P|174:72|165:138,1,107.999996704102,2|2,0:0|0:0,0:0:0:0:
346,253,32943,1,2,0:0:0:0:
346,253,33116,2,0,P|338:306|323:358,1,107.999996704102,2|0,0:0|0:0,0:0:0:0:
424,198,33806,5,0,0:0:0:0:
424,198,33892,1,0,0:0:0:0:
424,198,33978,1,2,0:0:0:0:
323,358,34323,6,0,B|406:370|371:308|452:319,2,135.000005149842,2|0|0,0:0|1:0|0:0,0:0:0:0:
209,384,35185,2,0,B|198:318|162:261|162:261|180:224|223:215,1,202.500007724762,2|0,0:0|0:0,0:0:0:0:
302,238,35875,1,0,0:0:0:0:
373,187,36047,2,0,P|444:200|524:225,1,135.000005149842,0|2,1:0|0:0,0:0:0:0:
487,38,36737,6,0,P|450:42|398:59,1,67.5000025749208,2|0,0:0|0:0,0:0:0:0:
339,0,37081,2,0,P|302:41|211:18,1,135.000005149842,2|2,0:0|1:2,0:0:0:0:
165,101,37599,1,0,0:0:0:0:
274,181,37771,2,0,P|266:202|263:224,2,45.0000017166138,2|2|2,0:0|0:0|0:0,0:0:0:0:
257,144,38116,5,2,0:0:0:0:
292,259,38288,2,0,B|214:241|250:308|135:283,1,135.000005149842,2|2,0:0|0:0,0:0:0:0:
107,362,38806,1,0,1:0:0:0:
13,349,38978,2,0,P|35:268|42:210,1,135.000005149842
3,131,39495,1,2,0:0:0:0:
182,46,39840,6,0,B|153:48|124:67|124:67|89:55|66:14,2,135.000005149842,2|0|0,0:0|1:0|0:0,0:0:0:0:
295,2,40702,2,0,B|309:73|273:131|273:131|232:138|193:177,1,202.500007724762,2|2,0:0|0:0,0:0:0:0:
211,160,41564,1,0,1:0:0:0:
155,241,41737,2,0,P|137:318|184:351,1,135.000005149842,2|0,0:0|0:0,0:0:0:0:
196,352,42168,1,0,0:0:0:0:
210,367,42254,1,2,0:0:0:0:
335,199,42599,6,0,B|279:188|279:188|265:171|265:171|197:157,2,135.000005149842,2|0|2,0:0|1:0|0:0,0:0:0:0:
415,161,43461,1,0,0:0:0:0:
486,224,43633,2,0,P|490:261|509:311,1,67.5000025749208,2|0,0:0|0:0,0:0:0:0:
486,224,43978,1,2,0:0:0:0:
415,161,44150,2,0,B|403:84|473:118|459:33,1,135.000005149842,2|0,0:0|0:0,0:0:0:0:
383,0,44668,1,2,0:0:0:0:
246,105,45012,5,2,0:0:0:0:
246,105,45357,2,0,P|300:164|275:254,1,161.999995056153,2|2,0:0|0:0,0:0:0:0:
287,239,46392,6,0,P|269:292|264:337,1,94.4999971160889,2|0,0:0|0:0,0:0:0:0:
196,384,47081,5,10,0:0:0:0:
165,357,47168,1,8,0:0:0:0:
126,364,47254,1,0,1:0:0:0:
2,255,47426,6,0,P|20:202|25:157,1,94.4999971160889,2|0,0:0|0:0,0:0:0:0:
61,53,47771,6,0,B|79:97|130:117|130:117|175:76|237:95,1,198.000006042481,6|8,1:2|0:0,0:0:0:0:
461,31,48288,1,0,3:0:0:0:
461,31,48375,1,0,3:0:0:0:
461,31,48461,2,0,B|481:64|481:64|472:97|430:109,1,99.0000030212403,2|0,3:2|1:0,0:0:0:0:
297,0,48806,1,8,0:0:0:0:
190,190,48978,1,2,1:2:0:0:
190,190,49150,6,0,P|197:288|222:384,1,198.000006042481,2|8,0:0|0:0,0:0:0:0:
93,244,49668,2,0,P|49:275|-2:263,1,99.0000030212403,2|0,0:0|1:0,0:0:0:0:
222,384,50012,1,2,1:2:0:0:
354,310,50185,2,0,P|429:326|488:349,1,99.0000030212403,8|2,0:0|0:0,0:0:0:0:
492,92,50530,6,0,B|433:96|384:128|384:128|333:92|370:39,1,198.000006042481,0|8,1:0|0:0,0:0:0:0:
484,218,51047,1,0,3:0:0:0:
484,218,51133,1,0,3:0:0:0:
484,218,51219,1,2,3:2:0:0:
260,105,51392,1,0,1:0:0:0:
443,4,51564,1,8,0:0:0:0:
306,212,51737,1,2,1:2:0:0:
306,212,51909,6,0,P|173:182|73:177,1,198.000006042481,2|10,0:0|0:0,0:0:0:0:
0,98,52426,2,0,P|48:89|95:73,1,99.0000030212403,2|0,0:0|1:0,0:0:0:0:
213,292,52771,1,2,1:2:0:0:
24,369,52943,2,0,B|-18:340|0:292|0:292|49:275|54:217,1,148.50000453186,8|0,0:0|0:0,0:0:0:0:
111,177,53288,6,0,P|163:184|209:134,1,99.0000030212403,6|0,1:2|0:0,0:0:0:0:
390,358,53633,2,0,P|438:367|485:383,1,99.0000030212403,10|0,0:0|0:0,0:0:0:0:
353,220,53978,1,2,0:0:0:0:
246,333,54150,1,0,1:0:0:0:
496,253,54323,1,10,0:0:0:0:
393,61,54495,6,0,B|381:88|393:115|393:115|376:143|339:148|339:148|320:195|366:232,1,198.000006042481,0|0,1:0|1:0,0:0:0:0:
137,384,55012,2,0,B|141:324|169:268|169:268|154:222|93:236,1,198.000006042481,10|0,0:0|1:0,0:0:0:0:
246,361,55530,1,0,1:0:0:0:
10,287,55702,1,10,0:0:0:0:
10,287,56047,6,0,P|109:254|227:240,1,198.000006042481,6|10,1:2|0:0,0:0:0:0:
418,104,56564,2,0,B|429:126|380:151|299:124|314:12|380:6,1,215.999993408203,6|8,1:2|0:3,0:0:0:0:
493,162,57081,1,8,0:0:0:0:
245,95,57254,1,6,1:2:0:0:
311,344,57426,2,0,B|349:298|409:314|409:314|425:373|497:377,1,198.000006042481,2|10,0:0|0:0,0:0:0:0:
359,209,57943,5,2,0:0:0:0:
359,209,58030,1,8,0:0:0:0:
359,209,58116,1,8,0:0:0:0:
173,383,58288,1,8,0:3:0:0:
1,288,58461,2,0,P|19:240|27:171,1,99.0000030212403,4|4,0:3|1:3,0:0:0:0:
193,0,58806,6,0,P|122:69|18:36,1,198.000006042481,6|8,1:2|0:0,0:0:0:0:
257,118,59323,1,0,3:0:0:0:
257,118,59409,1,0,3:0:0:0:
257,118,59495,2,0,P|305:100|374:92,1,99.0000030212403,2|0,3:2|1:0,0:0:0:0:
179,227,59840,1,8,0:0:0:0:
374,384,60012,1,2,1:2:0:0:
374,384,60185,6,0,B|378:298|434:337|435:273|435:273|402:250|408:209,1,198.000006042481,2|8,0:0|0:0,0:0:0:0:
491,33,60702,2,0,P|487:102|540:116,1,99.0000030212403,2|0,0:0|1:0,0:0:0:0:
314,274,61047,1,2,1:2:0:0:
140,199,61219,2,0,P|91:207|45:224,1,99.0000030212403,8|2,0:0|0:0,0:0:0:0:
312,36,61564,6,0,B|271:92|211:71|211:71|202:23|146:8,1,198.000006042481,0|8,1:0|0:0,0:0:0:0:
0,142,62081,1,0,3:0:0:0:
0,142,62168,1,0,3:0:0:0:
0,142,62254,1,2,3:2:0:0:
232,230,62426,1,0,1:0:0:0:
114,101,62599,1,8,0:0:0:0:
3,353,62771,1,2,1:2:0:0:
3,353,62943,6,0,P|49:335|97:327,1,99.0000030212403,2|0,0:0|1:0,0:0:0:0:
329,290,63288,2,0,P|311:336|303:384,1,99.0000030212403,10|0,0:0|0:0,0:0:0:0:
232,230,63633,5,2,1:2:0:0:
425,364,63806,1,0,1:0:0:0:
512,116,63978,2,0,P|430:125|391:63,1,148.50000453186,10|0,0:0|0:0,0:0:0:0:
304,9,64323,6,0,B|273:21|244:25|244:25|217:47|217:47|179:39|179:39|155:48|106:57,2,198.000006042481,6|8|0,1:2|0:0|0:0,0:0:0:0:
436,154,65185,1,0,1:0:0:0:
340,325,65357,2,0,B|367:317|383:308|383:308|421:322|428:349,1,99.0000030212403,10|0,0:0|0:0,0:0:0:0:
190,171,65702,6,0,P|168:250|149:389,1,198.000006042481,2|8,0:0|0:0,0:0:0:0:
150,364,66392,1,2,1:2:0:0:
291,223,66564,1,0,1:0:0:0:
33,301,66737,2,0,P|19:203|7:162,1,99.0000030212403,8|0,0:0|0:0,0:0:0:0:
137,10,67081,6,0,B|141:53|181:62|181:62|206:40|240:34|240:34|262:66|320:63,1,198.000006042481,6|8,1:2|0:0,0:0:0:0:
505,189,67599,2,0,B|366:172|457:281|272:254,1,215.999993408203,6|0,1:2|1:0,0:0:0:0:
427,86,68116,1,8,0:0:0:0:
248,186,68288,6,0,B|265:247|269:310|269:310|235:339|221:382,1,198.000006042481,4|0,1:2|1:0,0:0:0:0:
14,244,68806,2,0,B|-3:183|-7:120|-7:120|27:91|41:48,1,198.000006042481,8|8,0:0|0:3,0:0:0:0:
52,21,69237,1,8,0:0:0:0:
91,0,69323,1,8,0:0:0:0:
134,8,69409,1,8,0:0:0:0:
166,38,69495,1,10,0:0:0:0:
178,80,69581,1,8,0:0:0:0:
215,103,69667,1,10,0:0:0:0:
259,107,69753,1,8,0:0:0:0:
293,78,69840,1,6,1:2:0:0:
509,283,70185,6,0,P|377:306|298:338,1,198.000006042481,8|8,0:0|0:0,0:0:0:0:
444,177,70702,1,0,1:0:0:0:
293,78,70875,2,0,B|268:104|268:104|266:148|313:160,1,99.0000030212403,8|0,0:0|1:0,0:0:0:0:
174,376,71219,6,0,B|180:316|204:266|204:266|184:219|123:237,1,198.000006042481,8|8,0:0|0:0,0:0:0:0:
0,296,71737,1,0,1:0:0:0:
126,73,71909,2,0,P|79:89|30:97,1,99.0000030212403,8|0,0:0|1:0,0:0:0:0:
297,154,72254,1,10,0:0:0:0:
250,12,72426,1,2,0:0:0:0:
135,233,72599,6,0,B|116:279|155:310|155:310|205:281|266:284,1,198.000006042481,10|8,0:0|0:0,0:0:0:0:
488,363,73116,2,0,P|512:313|488:269,1,99.0000030212403,2|8,0:0|0:0,0:0:0:0:
350,371,73461,1,0,1:0:0:0:
436,121,73633,2,0,P|420:74|412:25,1,99.0000030212403,10|0,0:0|1:0,0:0:0:0:
244,183,73978,6,0,B|126:159|179:273|41:228,1,198.000006042481,10|8,0:0|0:0,0:0:0:0:
240,299,74495,1,10,0:0:0:0:
240,299,74581,1,8,0:0:0:0:
240,299,74668,1,8,0:0:0:0:
2,152,74840,1,8,0:3:0:0:
166,4,75012,2,0,P|213:20|262:28,1,99.0000030212403,4|4,0:3|1:3,0:0:0:0:
500,173,75357,6,0,B|449:167|394:200|394:200|349:167|374:108,1,198.000006042481,6|8,1:2|0:0,0:0:0:0:
240,299,75875,2,0,B|258:331|258:331|249:377|202:381,1,99.0000030212403,2|8,0:0|0:3,0:0:0:0:
406,311,76219,1,10,0:0:0:0:
406,311,76306,1,8,0:0:0:0:
406,311,76392,1,10,0:0:0:0:
198,162,76564,1,2,1:2:0:0:
198,162,76909,5,2,1:2:0:0:
372,17,77081,2,0,B|376:92|393:145|393:145|427:154|463:195,1,198.000006042481,10|8,0:0|0:3,0:0:0:0:
483,211,77512,1,0,3:0:0:0:
498,253,77599,1,8,0:0:0:0:
476,291,77685,1,8,0:0:0:0:
436,310,77771,1,8,0:0:0:0:
393,296,77857,1,4,0:3:0:0:
349,305,77943,1,4,0:3:0:0:
322,341,78030,1,4,0:3:0:0:
328,384,78116,6,0,P|253:363|204:361,1,99.0000030212403,6|0,1:2|0:0,0:0:0:0:
158,120,78461,1,10,0:0:0:0:
313,197,78633,2,0,B|290:235|250:241|250:241|234:211|201:207|201:207|181:228|145:236,1,198.000006042481,6|2,1:2|1:2,0:0:0:0:
277,96,79150,1,8,0:0:0:0:
65,7,79323,6,0,B|82:114|-14:65|5:188,1,198.000006042481,6|0,1:2|1:0,0:0:0:0:
158,361,79840,2,0,P|109:367|61:380,1,99.0000030212403,8|8,0:0|0:0,0:0:0:0:
251,203,80185,5,8,0:0:0:0:
281,229,80300,2,0,P|269:259|264:292,1,66.0000020141602,8|8,0:0|0:3,0:0:0:0:
152,234,80530,5,4,0:3:0:0:
122,208,80645,2,0,P|133:177|138:144,1,66.0000020141602,4|4,0:3|0:3,0:0:0:0:
188,0,80875,6,0,P|234:64|361:32,1,198.000006042481,6|8,1:2|0:0,0:0:0:0:
469,288,81392,2,0,B|479:251|520:238|520:238|517:157|426:160,1,198.000006042481,6|8,1:2|0:3,0:0:0:0:
346,364,81909,1,10,0:0:0:0:
120,184,82081,6,0,B|68:188|8:214|8:214|48:186|47:136,1,198.000006042481,6|10,1:2|0:0,0:0:0:0:
188,294,82599,1,10,0:0:0:0:
337,36,82943,6,0,P|321:89|318:138,1,90,2|2,0:0|0:0,0:0:0:0:
317,123,83633,6,0,B|360:22|536:-4|526:198|464:151|395:120|397:195,1,337.500012874604,6|2,1:2|0:0,0:0:0:0:
470,234,84668,1,2,0:0:0:0:
470,328,84840,2,0,B|381:273|380:363|295:314|295:314|302:306|302:306|299:175|206:261|212:128,1,405.000015449525,2|0,0:0|3:0,0:0:0:0:
14,345,86306,5,0,0:0:0:0:
14,345,86392,2,0,B|49:387|143:402|175:278|181:162|30:172|89:306|172:311|188:299,1,337.500012874604,2|2,0:0|0:0,0:0:0:0:
235,230,87426,1,2,0:0:0:0:
177,152,87599,2,0,B|139:127|104:136|104:136|171:38|254:77|242:111|270:169|450:104|391:-1|311:-7|297:99,1,472.500018024445,2|0,0:0|0:0,0:0:0:0:
401,172,88978,5,8,0:3:0:0:
401,172,89064,1,8,0:3:0:0:
401,172,89150,2,0,B|486:264|524:56|552:283|446:342|391:281,1,270.000010299683,6|0,1:2|0:0,0:0:0:0:
332,384,90012,2,0,P|316:278|304:246,1,135.000005149842,2|0,0:0|0:0,0:0:0:0:
217,208,90530,6,0,P|170:236|175:276,1,90.0000034332277,2|0,0:0|0:0,0:0:0:0:
306,252,90989,6,0,P|353:224|348:184,1,90.0000034332277,2|0,0:0|0:0,0:0:0:0:
336,108,91392,5,4,0:3:0:0:
336,108,91564,1,4,1:3:0:0:
193,8,91909,6,0,B|99:-6|135:61|31:47|31:47|-9:109|66:148,1,270.000010299683,6|0,1:2|0:0,0:0:0:0:
120,186,92771,2,0,P|187:192|251:211,1,135.000005149842,2|0,0:0|0:0,0:0:0:0:
330,156,93288,6,0,P|371:184|438:164,1,107.999996704102,2|2,0:0|0:0,0:0:0:0:
494,340,93998,2,0,B|462:313|477:280|477:280|509:266|524:242,1,107.999996704102,2|0,0:0|3:0,0:0:0:0:
335,345,94656,6,0,P|313:348|291:353,1,45,4|0,3:2|0:0,0:0:0:0:
256,192,94985,12,2,99271,0:0:0:0:
