osu file format v14

[General]
AudioFilename: audio.mp3
AudioLeadIn: 0
PreviewTime: 73437
Countdown: 0
SampleSet: Soft
StackLeniency: 0.5
Mode: 0
LetterboxInBreaks: 0
WidescreenStoryboard: 0

[Editor]
Bookmarks: 660,14882,29104,43326,57548,71771,73548,87771,101993,116215,130437,144659,158882,160659,174882,189104,203326,205104,219326,233548,247771,249548,263771,277993,292215,293993
DistanceSpacing: 0.7
BeatDivisor: 4
GridSize: 16
TimelineZoom: 2.05

[Metadata]
Title:Eternal Story
TitleUnicode:Eternal Story
Artist:Shimotsuki Haruka
ArtistUnicode:霜月はるか
Creator:Kyuunex
Version:Expert
Source:イリスのアトリエ エターナルマナ2
Tags:Atelier Iris 2 The Azoth of Destiny Eternal Mana Irisu no Atorie Etanaru Mana Tsu 音のコンパス Sound Compass Oto konpasu
BeatmapID:2242097
BeatmapSetID:1071144

[Difficulty]
HPDrainRate:6
CircleSize:4
OverallDifficulty:6
ApproachRate:9.2
SliderMultiplier:1.4
SliderTickRate:1

[Events]
//Background and Video events
0,0,"bg.png",0,0
//Break Periods
2,102194,115645
//Storyboard Layer 0 (Background)
//Storyboard Layer 1 (Fail)
//Storyboard Layer 2 (Pass)
//Storyboard Layer 3 (Foreground)
//Storyboard Layer 4 (Overlay)
//Storyboard Sound Samples

[TimingPoints]
660,444.444444444444,4,2,0,80,1,0
660,-200,4,2,0,80,0,0
13104,-100,4,2,0,80,0,0
14882,-66.6666666666667,4,2,0,80,0,0
29104,-100,4,2,0,80,0,0
43326,-90.9090909090909,4,2,0,80,0,0
57548,-83.3333333333333,4,2,0,80,0,0
71771,-71.4285714285714,4,2,0,80,0,0
72215,-66.6666666666667,4,2,0,80,0,0
72659,-62.5,4,2,0,80,0,0
73104,-58.8235294117647,4,2,0,80,0,0
73548,-50,4,2,0,80,0,1
101993,-66.6666666666667,4,2,0,80,0,0
116215,-100,4,2,0,80,0,0
130437,-90.9090909090909,4,2,0,80,0,0
144659,-83.3333333333333,4,2,0,80,0,0
158882,-71.4285714285714,4,2,0,80,0,0
159326,-66.6666666666667,4,2,0,80,0,0
159771,-62.5,4,2,0,80,0,0
160215,-58.8235294117647,4,2,0,80,0,0
160659,-50,4,2,0,80,0,1
189104,-66.6666666666667,4,2,0,80,0,0
203326,-100,4,2,0,80,0,0
205104,-66.6666666666667,4,2,0,80,0,0
219326,-62.5,4,2,0,80,0,0
233548,-83.3333333333333,4,2,0,80,0,0
247771,-71.4285714285714,4,2,0,80,0,0
248215,-66.6666666666667,4,2,0,80,0,0
248659,-62.5,4,2,0,80,0,0
249104,-58.8235294117647,4,2,0,80,0,0
249548,-50,4,2,0,80,0,1
277993,-66.6666666666667,4,2,0,80,0,0
292215,-100,4,2,0,80,0,0

[Colours]
Combo1 : 64,112,75
Combo2 : 156,111,205
Combo3 : 128,66,115
Combo4 : 137,128,69

[HitObjects]
123,120,660,5,0,0:0:0:0:
454,199,4215,5,0,0:0:0:0:
156,312,5993,5,0,0:0:0:0:
460,47,6882,5,0,0:0:0:0:
187,61,7771,5,0,0:0:0:0:
392,182,9548,5,0,0:0:0:0:
153,315,11326,5,0,0:0:0:0:
160,239,13104,5,0,0:0:0:0:
160,239,13548,1,0,0:0:0:0:
352,340,13993,1,0,0:0:0:0:
390,211,14326,1,0,0:0:0:0:
390,211,14437,1,0,0:0:0:0:
249,113,14659,1,0,0:0:0:0:
223,120,14771,1,0,0:0:0:0:
207,142,14882,6,0,P|226:185|279:214,1,105.000004005432
210,72,15215,1,0,0:0:0:0:
79,169,15326,2,0,P|56:214|70:265,1,105.000004005432
212,162,15659,5,0,0:0:0:0:
220,114,15771,1,0,0:0:0:0:
193,71,15882,1,0,0:0:0:0:
153,50,15993,1,0,0:0:0:0:
159,278,16104,1,0,0:0:0:0:
196,296,16215,1,0,0:0:0:0:
236,290,16326,1,0,0:0:0:0:
265,258,16437,1,0,0:0:0:0:
138,140,16548,1,0,0:0:0:0:
163,235,16659,6,0,P|201:271|257:264,1,105.000004005432
138,140,16993,1,0,0:0:0:0:
89,43,17104,2,0,P|132:15|184:20,1,105.000004005432
112,211,17437,1,0,0:0:0:0:
127,250,17548,1,0,0:0:0:0:
164,269,17659,1,0,0:0:0:0:
201,274,17771,1,0,0:0:0:0:
303,203,17882,1,0,0:0:0:0:
288,183,17993,1,0,0:0:0:0:
140,68,18215,1,0,0:0:0:0:
365,137,18437,6,0,P|379:187|357:252,1,105.000004005432
268,91,18771,1,0,0:0:0:0:
309,185,18882,2,0,P|260:250|222:258,1,105.000004005432
318,86,19215,1,0,0:0:0:0:
344,290,19326,1,0,0:0:0:0:
307,293,19437,1,0,0:0:0:0:
282,268,19548,1,0,0:0:0:0:
288,231,19659,1,0,0:0:0:0:
395,231,19771,6,0,P|367:214|350:199,1,52.5000020027161
237,47,19993,2,0,P|261:57|289:73,1,52.5000020027161
395,231,20215,5,0,0:0:0:0:
402,273,20326,1,0,0:0:0:0:
373,295,20437,1,0,0:0:0:0:
350,274,20548,1,0,0:0:0:0:
373,248,20659,2,0,P|413:269|467:337,1,105.000004005432
331,305,21104,5,0,0:0:0:0:
279,312,21215,1,0,0:0:0:0:
248,286,21326,1,0,0:0:0:0:
234,244,21437,1,0,0:0:0:0:
369,251,21548,5,0,0:0:0:0:
324,244,21659,1,0,0:0:0:0:
293,210,21771,2,0,P|288:177|294:129,1,52.5000020027161
381,22,21993,5,0,0:0:0:0:
377,60,22104,1,0,0:0:0:0:
352,85,22215,1,0,0:0:0:0:
104,250,22437,2,0,P|131:293|210:333,1,105.000004005432
134,184,22771,1,0,0:0:0:0:
210,241,22882,5,0,0:0:0:0:
252,253,22993,1,0,0:0:0:0:
291,246,23104,1,0,0:0:0:0:
317,229,23215,1,0,0:0:0:0:
200,166,23326,5,0,0:0:0:0:
389,79,23548,1,0,0:0:0:0:
205,256,23771,5,0,0:0:0:0:
248,244,23882,1,0,0:0:0:0:
272,202,23993,1,0,0:0:0:0:
103,107,24215,2,0,P|128:135|231:152,1,105.000004005432
126,36,24548,1,0,0:0:0:0:
40,70,24659,5,0,0:0:0:0:
28,121,24771,1,0,0:0:0:0:
52,165,24882,1,0,0:0:0:0:
89,194,24993,1,0,0:0:0:0:
334,304,25104,6,0,P|298:302|248:293,1,52.5000020027161
115,83,25326,2,0,P|145:87|193:100,1,52.5000020027161
395,239,25548,5,0,0:0:0:0:
368,273,25659,1,0,0:0:0:0:
324,282,25771,1,0,0:0:0:0:
289,262,25882,1,0,0:0:0:0:
450,131,25993,2,0,P|484:164|491:251,1,105.000004005432
342,183,26326,1,0,0:0:0:0:
293,81,26437,1,0,0:0:0:0:
256,88,26549,1,0,0:0:0:0:
223,110,26660,1,0,0:0:0:0:
203,137,26771,1,0,0:0:0:0:
194,303,26882,6,0,P|206:279|215:255,1,52.5000020027161
191,22,27104,2,0,P|179:45|174:70,1,52.5000020027161
194,303,27326,5,0,0:0:0:0:
206,260,27437,1,0,0:0:0:0:
196,222,27548,1,0,0:0:0:0:
181,189,27659,1,0,0:0:0:0:
116,50,27771,2,0,P|163:30|214:42,1,105.000004005432
437,186,28215,5,0,0:0:0:0:
426,225,28326,1,0,0:0:0:0:
403,253,28437,1,0,0:0:0:0:
369,270,28548,1,0,0:0:0:0:
132,162,28659,6,0,P|155:147|209:132,1,52.5000020027161
369,270,28882,2,0,P|337:284|313:287,1,52.5000020027161
158,271,29104,6,0,L|241:290,1,70
310,227,29548,2,0,L|242:207,1,70
267,129,29993,5,0,0:0:0:0:
289,137,30104,1,0,0:0:0:0:
335,48,30326,5,0,0:0:0:0:
304,40,30437,1,0,0:0:0:0:
167,41,30659,5,0,0:0:0:0:
140,67,30771,1,0,0:0:0:0:
139,105,30882,1,0,0:0:0:0:
188,206,31104,2,0,P|165:223|147:235,1,35
112,225,31326,1,0,0:0:0:0:
0,295,31548,1,0,0:0:0:0:
24,323,31771,2,0,P|47:345|105:361,1,70
124,377,32104,2,0,P|134:357|130:302,1,70
85,202,32437,1,0,0:0:0:0:
124,101,32659,6,0,P|168:98|214:117,1,70
323,195,33104,1,0,0:0:0:0:
280,90,33326,1,0,0:0:0:0:
235,274,33548,5,0,0:0:0:0:
248,285,33659,1,0,0:0:0:0:
385,322,33882,5,0,0:0:0:0:
401,314,33993,1,0,0:0:0:0:
384,192,34215,5,0,0:0:0:0:
401,156,34326,1,0,0:0:0:0:
438,135,34437,1,0,0:0:0:0:
490,246,34659,1,0,0:0:0:0:
438,135,34882,2,0,P|411:86|415:42,1,70
512,142,35326,5,0,0:0:0:0:
503,162,35437,1,0,0:0:0:0:
351,224,35659,5,0,0:0:0:0:
339,211,35771,1,0,0:0:0:0:
146,86,35993,1,0,0:0:0:0:
120,114,36104,1,0,0:0:0:0:
116,150,36215,6,0,P|133:173|186:200,1,70
304,124,36659,2,0,P|282:92|250:73,1,70
253,211,37104,5,0,0:0:0:0:
259,230,37215,1,0,0:0:0:0:
175,375,37437,5,0,0:0:0:0:
161,364,37548,1,0,0:0:0:0:
244,205,37771,5,0,0:0:0:0:
281,213,37882,1,0,0:0:0:0:
307,241,37993,1,0,0:0:0:0:
162,162,38215,1,0,0:0:0:0:
271,53,38437,2,0,P|312:34|358:30,1,70
240,143,38882,1,0,0:0:0:0:
237,157,38993,1,0,0:0:0:0:
374,244,39215,1,0,0:0:0:0:
387,236,39326,1,0,0:0:0:0:
336,93,39548,1,0,0:0:0:0:
288,323,39771,6,0,P|348:329|436:289,1,140
230,269,40437,1,0,0:0:0:0:
80,277,40659,1,0,0:0:0:0:
76,262,40771,1,0,0:0:0:0:
141,92,40993,1,0,0:0:0:0:
159,102,41104,1,0,0:0:0:0:
348,159,41326,5,0,0:0:0:0:
376,162,41437,1,0,0:0:0:0:
398,156,41548,2,0,P|431:140|463:95,1,70
359,137,41882,1,0,0:0:0:0:
317,146,41993,2,0,P|286:176|267:216,1,70
373,96,42437,5,0,0:0:0:0:
378,77,42548,1,0,0:0:0:0:
211,156,42771,5,0,0:0:0:0:
217,175,42882,1,0,0:0:0:0:
377,180,43104,5,0,0:0:0:0:
394,144,43215,1,0,0:0:0:0:
172,61,43326,6,0,P|119:82|69:152,1,115.50000352478
234,98,43771,1,0,0:0:0:0:
24,87,43993,1,0,0:0:0:0:
79,293,44215,5,0,0:0:0:0:
106,307,44326,1,0,0:0:0:0:
69,149,44548,5,0,0:0:0:0:
45,161,44659,1,0,0:0:0:0:
223,123,44881,5,0,0:0:0:0:
202,89,44992,1,0,0:0:0:0:
161,83,45104,1,0,0:0:0:0:
260,302,45326,1,0,0:0:0:0:
291,291,45437,1,0,0:0:0:0:
315,272,45548,1,0,0:0:0:0:
187,195,45770,1,0,0:0:0:0:
338,187,45993,2,0,P|331:165|322:146,1,38.5000011749268
142,219,46326,5,0,0:0:0:0:
123,255,46437,1,0,0:0:0:0:
133,288,46548,1,0,0:0:0:0:
161,311,46659,1,0,0:0:0:0:
350,139,46881,6,0,P|371:166|370:238,1,77.0000023498536
300,207,47215,1,0,0:0:0:0:
267,187,47326,1,0,0:0:0:0:
89,223,47548,1,0,0:0:0:0:
78,254,47659,1,0,0:0:0:0:
86,291,47770,1,0,0:0:0:0:
113,319,47881,1,0,0:0:0:0:
249,208,48104,5,0,0:0:0:0:
229,189,48215,1,0,0:0:0:0:
274,49,48437,5,0,0:0:0:0:
290,70,48548,1,0,0:0:0:0:
249,208,48659,1,0,0:0:0:0:
100,228,48881,1,0,0:0:0:0:
196,331,49104,2,0,P|187:285|153:230,1,77.0000023498536
131,180,49548,5,0,0:0:0:0:
139,154,49659,1,0,0:0:0:0:
338,76,49881,5,0,0:0:0:0:
325,97,49993,1,0,0:0:0:0:
250,319,50215,5,0,0:0:0:0:
291,332,50326,1,0,0:0:0:0:
332,318,50437,2,0,P|367:294|398:238,1,77.0000023498536
324,107,50771,1,0,0:0:0:0:
96,124,50881,2,0,P|121:87|157:65,1,77.0000023498536
73,230,51215,1,0,0:0:0:0:
89,266,51326,5,0,0:0:0:0:
118,293,51437,1,0,0:0:0:0:
342,182,51659,5,0,0:0:0:0:
327,144,51770,1,0,0:0:0:0:
125,45,51993,5,0,0:0:0:0:
115,85,52104,1,0,0:0:0:0:
126,123,52215,1,0,0:0:0:0:
278,42,52437,1,0,0:0:0:0:
291,248,52659,2,0,P|334:253|387:232,1,77.0000023498536
111,84,53104,5,0,0:0:0:0:
99,114,53215,1,0,0:0:0:0:
126,314,53437,5,0,0:0:0:0:
133,283,53548,1,0,0:0:0:0:
32,139,53770,1,0,0:0:0:0:
214,281,53993,6,0,P|255:293|289:325,1,77.0000023498536
158,320,54326,1,0,0:0:0:0:
132,312,54437,1,0,0:0:0:0:
29,91,54659,5,0,0:0:0:0:
18,136,54771,1,0,0:0:0:0:
24,178,54881,1,0,0:0:0:0:
53,213,54993,1,0,0:0:0:0:
262,174,55215,5,0,0:0:0:0:
249,146,55326,1,0,0:0:0:0:
135,69,55548,5,0,0:0:0:0:
119,104,55659,1,0,0:0:0:0:
107,137,55770,2,0,P|136:191|134:238,1,77.0000023498536
45,93,56104,1,0,0:0:0:0:
112,63,56215,2,0,P|139:46|188:38,1,77.0000023498536
39,74,56659,5,0,0:0:0:0:
44,41,56770,1,0,0:0:0:0:
237,166,56993,5,0,0:0:0:0:
211,193,57104,1,0,0:0:0:0:
98,314,57326,1,0,0:0:0:0:
82,275,57437,1,0,0:0:0:0:
93,237,57548,5,0,0:0:0:0:
277,103,57771,5,0,0:0:0:0:
312,119,57882,1,0,0:0:0:0:
350,137,57993,1,0,0:0:0:0:
326,324,58215,5,0,0:0:0:0:
290,305,58326,1,0,0:0:0:0:
255,286,58437,1,0,0:0:0:0:
256,186,58659,5,0,0:0:0:0:
268,150,58771,1,0,0:0:0:0:
294,183,58882,1,0,0:0:0:0:
269,168,58993,1,0,0:0:0:0:
311,145,59104,2,0,L|360:205,1,41.9999987182618
256,186,59326,1,0,0:0:0:0:
176,68,59548,5,0,0:0:0:0:
205,45,59660,1,0,0:0:0:0:
234,25,59771,1,0,0:0:0:0:
262,238,59993,5,0,0:0:0:0:
229,259,60104,1,0,0:0:0:0:
198,283,60215,1,0,0:0:0:0:
273,78,60437,5,0,0:0:0:0:
305,90,60548,1,0,0:0:0:0:
274,107,60659,1,0,0:0:0:0:
286,78,60771,1,0,0:0:0:0:
310,116,60882,1,0,0:0:0:0:
272,120,60993,1,0,0:0:0:0:
286,78,61104,6,0,L|367:151,1,83.9999974365235
219,106,61437,1,0,0:0:0:0:
202,78,61548,1,0,0:0:0:0:
406,45,61771,5,0,0:0:0:0:
431,73,61882,1,0,0:0:0:0:
462,101,61993,1,0,0:0:0:0:
280,309,62215,5,0,0:0:0:0:
250,280,62326,1,0,0:0:0:0:
289,293,62437,1,0,0:0:0:0:
243,301,62548,1,0,0:0:0:0:
283,281,62659,1,0,0:0:0:0:
276,329,62771,1,0,0:0:0:0:
243,301,62882,6,0,L|294:229,1,83.9999974365235
298,342,63215,1,0,0:0:0:0:
276,365,63326,1,0,0:0:0:0:
111,349,63548,5,0,0:0:0:0:
88,319,63659,1,0,0:0:0:0:
65,292,63771,1,0,0:0:0:0:
160,89,63993,5,0,0:0:0:0:
190,109,64104,1,0,0:0:0:0:
153,125,64215,1,0,0:0:0:0:
181,91,64326,1,0,0:0:0:0:
202,147,64437,2,0,L|226:216,1,41.9999987182618
259,338,64659,6,0,L|153:393,1,83.9999974365235
240,263,64993,1,0,0:0:0:0:
355,218,65104,6,0,L|300:305,1,83.9999974365235
300,168,65437,1,0,0:0:0:0:
327,71,65548,2,0,L|382:164,1,83.9999974365235
238,81,65882,5,0,0:0:0:0:
241,108,65993,1,0,0:0:0:0:
253,93,66104,1,0,0:0:0:0:
220,114,66215,2,0,L|242:166,1,41.9999987182618
304,289,66437,6,0,L|357:194,1,83.9999974365235
235,263,66771,1,0,0:0:0:0:
158,343,66882,2,0,L|268:337,1,83.9999974365235
134,274,67215,1,0,0:0:0:0:
24,277,67326,6,0,L|97:342,1,83.9999974365235
66,221,67659,1,0,0:0:0:0:
75,183,67771,1,0,0:0:0:0:
103,215,67882,1,0,0:0:0:0:
64,190,67993,1,0,0:0:0:0:
102,179,68104,1,0,0:0:0:0:
80,233,68215,2,0,L|0:277,1,83.9999974365235
122,289,68548,1,0,0:0:0:0:
149,260,68659,1,0,0:0:0:0:
78,206,68882,5,0,0:0:0:0:
47,211,68993,1,0,0:0:0:0:
18,217,69104,6,0,P|32:233|71:256,1,41.9999987182618
306,325,69326,2,0,P|315:303|318:275,1,41.9999987182618
258,44,69548,2,0,P|239:65|219:101,1,41.9999987182618
169,331,69771,2,0,P|174:311|183:290,1,41.9999987182618
330,44,69993,6,0,P|364:17|428:7,1,83.9999974365235
364,93,70326,1,0,0:0:0:0:
338,117,70437,1,0,0:0:0:0:
259,153,70659,5,0,0:0:0:0:
289,201,70771,1,0,0:0:0:0:
256,212,70882,5,0,0:0:0:0:
235,192,70993,1,0,0:0:0:0:
256,171,71104,1,0,0:0:0:0:
276,192,71215,1,0,0:0:0:0:
247,235,71326,5,0,0:0:0:0:
212,183,71437,1,0,0:0:0:0:
264,148,71548,1,0,0:0:0:0:
299,200,71659,1,0,0:0:0:0:
54,247,71771,5,0,0:0:0:0:
11,266,71882,1,0,0:0:0:0:
53,272,71993,1,0,0:0:0:0:
297,58,72215,5,0,0:0:0:0:
382,233,72437,5,0,0:0:0:0:
387,266,72548,1,0,0:0:0:0:
362,242,72659,1,0,0:0:0:0:
145,27,72882,5,0,0:0:0:0:
148,327,73104,5,0,0:0:0:0:
214,346,73215,1,0,0:0:0:0:
277,337,73326,1,0,0:0:0:0:
130,92,73548,6,0,P|72:145|39:238,1,140
213,35,73882,1,0,0:0:0:0:
243,130,73993,2,0,P|260:181|324:254,1,140
278,44,74437,5,0,0:0:0:0:
236,37,74548,1,0,0:0:0:0:
201,55,74659,1,0,0:0:0:0:
231,272,74882,1,0,0:0:0:0:
8,198,75104,1,0,0:0:0:0:
12,159,75215,1,0,0:0:0:0:
38,129,75326,6,0,P|67:121|107:122,1,70
350,283,75659,5,0,0:0:0:0:
307,312,75771,1,0,0:0:0:0:
90,291,75993,1,0,0:0:0:0:
125,112,76215,5,0,0:0:0:0:
158,77,76326,1,0,0:0:0:0:
391,124,76548,5,0,0:0:0:0:
413,166,76659,1,0,0:0:0:0:
469,343,76882,5,0,0:0:0:0:
429,347,76993,1,0,0:0:0:0:
399,326,77104,6,0,P|345:253|339:144,1,140
468,326,77437,5,0,0:0:0:0:
481,354,77548,1,0,0:0:0:0:
344,107,77771,5,0,0:0:0:0:
123,248,77993,6,0,P|106:278|92:339,1,70
180,272,78215,1,0,0:0:0:0:
348,104,78437,1,0,0:0:0:0:
217,289,78659,1,0,0:0:0:0:
241,315,78771,1,0,0:0:0:0:
272,320,78882,6,0,P|334:288|392:153,1,210
212,286,79326,1,0,0:0:0:0:
460,152,79548,1,0,0:0:0:0:
275,78,79771,5,0,0:0:0:0:
244,119,79882,1,0,0:0:0:0:
362,321,80104,5,0,0:0:0:0:
385,290,80215,1,0,0:0:0:0:
147,53,80437,5,0,0:0:0:0:
121,79,80548,1,0,0:0:0:0:
115,113,80659,2,0,P|230:184|319:148,1,210
62,57,81104,1,0,0:0:0:0:
355,99,81326,1,0,0:0:0:0:
410,290,81548,5,0,0:0:0:0:
376,316,81659,1,0,0:0:0:0:
100,252,81882,5,0,0:0:0:0:
110,207,81993,1,0,0:0:0:0:
445,152,82215,5,0,0:0:0:0:
461,182,82326,1,0,0:0:0:0:
463,215,82437,2,0,P|381:280|256:260,1,210
460,142,82882,1,0,0:0:0:0:
270,349,83104,1,0,0:0:0:0:
73,170,83326,5,0,0:0:0:0:
92,127,83437,1,0,0:0:0:0:
377,225,83659,5,0,0:0:0:0:
351,264,83771,1,0,0:0:0:0:
77,190,83993,5,0,0:0:0:0:
78,156,84104,1,0,0:0:0:0:
100,125,84215,2,0,P|155:91|263:152,1,140
183,160,84548,2,0,P|134:205|248:210,1,210
248,116,85104,1,0,0:0:0:0:
17,179,85326,1,0,0:0:0:0:
132,351,85548,2,0,P|96:354|27:334,1,70
151,313,85771,1,0,0:0:0:0:
353,227,85993,5,0,0:0:0:0:
382,203,86104,1,0,0:0:0:0:
417,201,86215,1,0,0:0:0:0:
304,358,86437,1,0,0:0:0:0:
198,132,86659,1,0,0:0:0:0:
121,282,86882,5,0,0:0:0:0:
155,297,86993,1,0,0:0:0:0:
246,99,87215,5,0,0:0:0:0:
208,70,87326,1,0,0:0:0:0:
201,259,87548,5,0,0:0:0:0:
238,291,87659,1,0,0:0:0:0:
428,323,87771,6,0,P|486:270|519:177,1,140
335,384,88105,1,0,0:0:0:0:
332,280,88216,2,0,P|315:229|251:156,1,140
276,347,88660,5,0,0:0:0:0:
314,368,88771,1,0,0:0:0:0:
359,361,88882,1,0,0:0:0:0:
150,215,89105,1,0,0:0:0:0:
294,82,89327,1,0,0:0:0:0:
468,161,89549,6,0,P|439:169|399:168,1,70
129,146,89882,5,0,0:0:0:0:
161,114,89994,1,0,0:0:0:0:
404,204,90216,1,0,0:0:0:0:
186,310,90438,5,0,0:0:0:0:
167,270,90549,1,0,0:0:0:0:
304,83,90771,5,0,0:0:0:0:
336,115,90882,1,0,0:0:0:0:
372,344,91105,5,0,0:0:0:0:
333,354,91216,1,0,0:0:0:0:
300,338,91327,6,0,P|246:265|240:156,1,140
350,83,91660,5,0,0:0:0:0:
391,77,91771,1,0,0:0:0:0:
320,280,91994,5,0,0:0:0:0:
136,132,92216,6,0,P|120:100|111:66,1,70
182,113,92438,1,0,0:0:0:0:
309,287,92660,1,0,0:0:0:0:
475,179,92882,1,0,0:0:0:0:
475,146,92994,1,0,0:0:0:0:
460,118,93105,6,0,P|403:77|257:90,1,210
494,180,93549,1,0,0:0:0:0:
246,16,93771,1,0,0:0:0:0:
332,257,93994,5,0,0:0:0:0:
360,219,94105,1,0,0:0:0:0:
190,116,94327,5,0,0:0:0:0:
154,146,94438,1,0,0:0:0:0:
430,252,94660,5,0,0:0:0:0:
448,216,94771,1,0,0:0:0:0:
442,183,94882,2,0,P|327:112|238:148,1,210
474,248,95327,1,0,0:0:0:0:
167,245,95549,1,0,0:0:0:0:
154,92,95771,5,0,0:0:0:0:
183,63,95882,1,0,0:0:0:0:
405,101,96105,5,0,0:0:0:0:
400,138,96216,1,0,0:0:0:0:
92,223,96438,5,0,0:0:0:0:
100,185,96549,1,0,0:0:0:0:
128,159,96660,2,0,P|218:153|335:204,1,210
68,201,97105,1,0,0:0:0:0:
362,129,97327,1,0,0:0:0:0:
286,303,97549,5,0,0:0:0:0:
253,335,97660,1,0,0:0:0:0:
177,107,97882,5,0,0:0:0:0:
202,72,97994,1,0,0:0:0:0:
421,143,98216,5,0,0:0:0:0:
397,175,98327,1,0,0:0:0:0:
396,211,98437,2,0,P|447:256|525:253,1,140
421,143,98771,1,0,0:0:0:0:
377,143,98882,1,0,0:0:0:0:
222,280,99104,1,0,0:0:0:0:
121,151,99327,1,0,0:0:0:0:
276,29,99549,1,0,0:0:0:0:
439,191,99771,2,0,P|474:200|532:242,1,70
406,234,99994,1,0,0:0:0:0:
160,233,100215,6,0,P|192:163|156:40,1,210
96,264,100660,1,0,0:0:0:0:
262,60,100882,1,0,0:0:0:0:
96,264,101105,5,0,0:0:0:0:
133,282,101216,1,0,0:0:0:0:
186,64,101438,5,0,0:0:0:0:
145,53,101549,1,0,0:0:0:0:
25,235,101771,5,0,0:0:0:0:
57,262,101882,1,0,0:0:0:0:
100,273,101994,5,0,0:0:0:0:
227,292,116215,6,0,L|144:311,1,70
140,236,116659,2,0,L|211:218,1,70
214,142,117104,5,0,0:0:0:0:
192,141,117215,2,0,L|98:149,1,70
102,64,117548,2,0,L|185:60,1,70
353,51,117882,1,0,0:0:0:0:
365,88,117993,1,0,0:0:0:0:
286,207,118215,1,0,0:0:0:0:
251,188,118326,1,0,0:0:0:0:
226,165,118437,2,0,P|259:145|300:104,1,70
387,144,118882,6,0,P|364:166|306:182,1,70
359,79,119215,1,0,0:0:0:0:
445,102,119326,2,0,P|458:137|454:168,1,70
243,45,119770,6,0,P|199:42|142:75,1,105
298,88,120215,2,0,P|326:108|360:115,1,70
295,17,120659,5,0,0:0:0:0:
254,34,120770,1,0,0:0:0:0:
187,215,120993,5,0,0:0:0:0:
229,230,121104,2,0,P|261:220|291:182,1,70
197,95,121437,1,0,0:0:0:0:
160,74,121548,1,0,0:0:0:0:
94,202,121770,1,0,0:0:0:0:
132,221,121993,2,0,P|159:172|155:128,1,70
57,58,122437,5,0,0:0:0:0:
62,71,122548,1,0,0:0:0:0:
173,183,122770,5,0,0:0:0:0:
185,170,122882,1,0,0:0:0:0:
299,39,123104,1,0,0:0:0:0:
325,67,123215,1,0,0:0:0:0:
329,103,123326,6,0,P|312:126|228:150,1,105
146,209,123770,2,0,P|168:177|200:158,1,70
195,255,124215,5,0,0:0:0:0:
189,274,124326,1,0,0:0:0:0:
328,355,124548,5,0,0:0:0:0:
332,311,124659,2,0,P|334:278|321:233,1,70
217,229,124993,1,0,0:0:0:0:
191,257,125104,1,0,0:0:0:0:
359,170,125326,1,0,0:0:0:0:
229,61,125548,2,0,P|188:42|142:38,1,70
242,129,125993,1,0,0:0:0:0:
259,150,126104,1,0,0:0:0:0:
206,281,126326,1,0,0:0:0:0:
186,268,126437,1,0,0:0:0:0:
121,138,126659,1,0,0:0:0:0:
250,262,126882,6,0,P|190:268|137:239,1,105
278,195,127326,2,0,P|309:221|327:266,1,70
204,177,127770,1,0,0:0:0:0:
208,162,127882,1,0,0:0:0:0:
348,60,128104,1,0,0:0:0:0:
330,70,128215,1,0,0:0:0:0:
231,124,128437,5,0,0:0:0:0:
203,127,128548,1,0,0:0:0:0:
181,121,128659,2,0,P|148:105|116:60,1,70
253,109,128993,1,0,0:0:0:0:
263,181,129104,2,0,P|254:214|220:242,1,70
157,101,129548,5,0,0:0:0:0:
152,82,129659,1,0,0:0:0:0:
339,153,129882,5,0,0:0:0:0:
333,172,129993,1,0,0:0:0:0:
160,175,130215,5,0,0:0:0:0:
143,139,130326,1,0,0:0:0:0:
141,85,130437,6,0,P|194:106|244:176,1,115.50000352478
70,106,130882,1,0,0:0:0:0:
304,157,131104,1,0,0:0:0:0:
393,290,131326,5,0,0:0:0:0:
366,304,131437,1,0,0:0:0:0:
429,173,131659,5,0,0:0:0:0:
453,185,131770,1,0,0:0:0:0:
279,190,131992,5,0,0:0:0:0:
300,156,132103,1,0,0:0:0:0:
341,150,132215,1,0,0:0:0:0:
364,300,132437,1,0,0:0:0:0:
333,289,132548,1,0,0:0:0:0:
303,273,132659,2,0,P|324:244|392:212,1,77.0000023498536
349,328,133104,2,0,P|326:354|288:359,1,38.5000011749268
443,185,133437,5,0,0:0:0:0:
462,221,133548,1,0,0:0:0:0:
452,254,133659,1,0,0:0:0:0:
424,277,133770,1,0,0:0:0:0:
258,150,133992,6,0,P|237:177|238:249,1,77.0000023498536
323,179,134326,1,0,0:0:0:0:
338,161,134437,1,0,0:0:0:0:
185,85,134659,1,0,0:0:0:0:
158,113,134770,1,0,0:0:0:0:
150,150,134881,1,0,0:0:0:0:
161,181,134992,1,0,0:0:0:0:
316,88,135215,5,0,0:0:0:0:
336,69,135326,1,0,0:0:0:0:
202,104,135548,5,0,0:0:0:0:
186,125,135659,1,0,0:0:0:0:
181,154,135771,2,0,P|164:190|120:224,1,77.0000023498536
127,91,136215,2,0,P|169:71|234:68,1,77.0000023498536
389,117,136659,5,0,0:3:0:0:
408,136,136770,1,0,0:3:0:0:
375,303,136992,5,0,0:0:0:0:
362,282,137104,1,0,0:0:0:0:
249,95,137326,5,0,0:0:0:0:
208,82,137437,1,0,0:0:0:0:
167,96,137548,2,0,P|132:120|101:176,1,77.0000023498536
237,123,137882,1,0,0:0:0:0:
318,111,137992,2,0,P|293:74|257:52,1,77.0000023498536
91,192,138326,1,0,0:0:0:0:
107,228,138437,5,0,0:0:0:0:
136,255,138548,1,0,0:0:0:0:
112,133,138770,5,0,0:0:0:0:
151,73,138882,2,0,P|193:72|243:100,1,77.0000023498536
112,133,139215,1,0,0:0:0:0:
101,171,139326,1,0,0:0:0:0:
268,97,139548,1,0,0:0:0:0:
393,153,139770,2,0,P|350:158|297:137,1,77.0000023498536
401,84,140215,5,0,0:0:0:0:
413,114,140326,1,0,0:0:0:0:
441,269,140548,5,0,0:0:0:0:
476,245,140659,2,0,P|480:217|455:159,1,77.0000023498536
385,290,141104,6,0,P|366:322|367:371,1,77.0000023498536
432,301,141437,1,0,0:0:0:0:
423,252,141548,1,0,0:0:0:0:
312,194,141770,5,0,0:0:0:0:
283,229,141882,1,0,0:0:0:0:
277,271,141992,1,0,0:0:0:0:
288,316,142104,1,0,0:0:0:0:
442,280,142326,5,0,0:0:0:0:
455,252,142437,1,0,0:0:0:0:
317,209,142659,5,0,0:0:0:0:
304,245,142770,1,0,0:0:0:0:
291,277,142881,2,0,P|232:296|202:332,1,77.0000023498536
366,287,143215,1,0,0:0:0:0:
337,220,143326,2,0,P|328:189|298:149,1,77.0000023498536
291,276,143770,5,0,0:0:0:0:
296,309,143881,1,0,0:0:0:0:
163,353,144104,5,0,0:0:0:0:
137,326,144215,1,0,0:0:0:0:
237,194,144437,1,0,0:0:0:0:
248,232,144548,1,0,0:0:0:0:
232,271,144659,5,0,0:0:0:0:
148,305,144882,5,0,0:0:0:0:
113,321,144993,1,0,0:0:0:0:
75,339,145104,1,0,0:0:0:0:
164,207,145326,5,0,0:0:0:0:
200,188,145437,1,0,0:0:0:0:
235,169,145548,1,0,0:0:0:0:
338,103,145770,5,0,0:0:0:0:
366,77,145882,1,0,0:0:0:0:
325,66,145993,1,0,0:0:0:0:
349,84,146104,1,0,0:0:0:0:
354,36,146215,2,0,L|279:14,1,41.9999987182618
338,103,146437,1,0,0:0:0:0:
402,193,146659,5,0,0:0:0:0:
431,215,146771,1,0,0:0:0:0:
461,234,146882,1,0,0:0:0:0:
314,331,147104,5,0,0:0:0:0:
280,311,147215,1,0,0:0:0:0:
248,288,147326,1,0,0:0:0:0:
126,160,147548,5,0,0:0:0:0:
93,149,147659,1,0,0:0:0:0:
107,182,147770,1,0,0:0:0:0:
115,151,147882,1,0,0:0:0:0:
73,167,147993,1,0,0:0:0:0:
100,193,148104,1,0,0:0:0:0:
115,151,148215,6,0,L|6:158,1,83.9999974365235
151,215,148548,1,0,0:0:0:0:
181,203,148659,1,0,0:0:0:0:
130,83,148882,5,0,0:0:0:0:
105,111,148993,1,0,0:0:0:0:
74,139,149104,1,0,0:0:0:0:
229,253,149326,5,0,0:0:0:0:
259,224,149437,1,0,0:0:0:0:
220,237,149548,1,0,0:0:0:0:
266,245,149659,1,0,0:0:0:0:
226,225,149770,1,0,0:0:0:0:
233,273,149882,1,0,0:0:0:0:
266,245,149993,6,0,L|215:173,1,83.9999974365235
211,286,150326,1,0,0:0:0:0:
233,309,150437,1,0,0:0:0:0:
359,305,150659,5,0,0:0:0:0:
382,275,150770,1,0,0:0:0:0:
405,248,150882,1,0,0:0:0:0:
386,76,151104,5,0,0:0:0:0:
356,96,151215,1,0,0:0:0:0:
393,112,151326,1,0,0:0:0:0:
365,78,151437,1,0,0:0:0:0:
344,134,151548,2,0,L|323:205,1,41.9999987182618
291,321,151770,6,0,L|397:376,1,83.9999974365235
290,246,152104,1,0,0:0:0:0:
181,212,152215,6,0,L|236:299,1,83.9999974365235
241,165,152548,1,0,0:0:0:0:
214,65,152659,2,0,L|159:158,1,83.9999974365235
287,69,152993,5,0,0:0:0:0:
290,96,153104,1,0,0:0:0:0:
302,81,153215,1,0,0:0:0:0:
272,75,153326,2,0,L|296:123,1,41.9999987182618
397,309,153548,6,0,L|302:362,1,83.9999974365235
373,235,153882,1,0,0:0:0:0:
451,171,153993,2,0,L|445:281,1,83.9999974365235
381,141,154326,1,0,0:0:0:0:
385,36,154437,6,0,L|450:109,1,83.9999974365235
332,65,154770,1,0,0:0:0:0:
294,74,154882,1,0,0:0:0:0:
326,102,154993,1,0,0:0:0:0:
301,63,155104,1,0,0:0:0:0:
290,101,155215,1,0,0:0:0:0:
344,79,155326,2,0,L|388:-1,1,83.9999974365235
398,89,155659,1,0,0:0:0:0:
397,126,155770,1,0,0:0:0:0:
239,340,155993,5,0,0:0:0:0:
217,352,156104,1,0,0:0:0:0:
196,366,156215,6,0,P|176:342|156:299,1,41.9999987182618
182,72,156437,2,0,P|209:65|234:65,1,41.9999987182618
422,264,156659,2,0,P|394:265|357:261,1,41.9999987182618
114,220,156882,2,0,P|138:216|158:210,1,41.9999987182618
404,118,157104,6,0,P|431:84|441:20,1,83.9999974365235
355,84,157437,1,0,0:0:0:0:
331,110,157548,1,0,0:0:0:0:
253,153,157770,5,0,0:0:0:0:
223,201,157882,1,0,0:0:0:0:
256,212,157993,5,0,0:0:0:0:
277,192,158104,1,0,0:0:0:0:
256,171,158215,1,0,0:0:0:0:
236,192,158326,1,0,0:0:0:0:
265,235,158437,5,0,0:0:0:0:
300,183,158548,1,0,0:0:0:0:
248,148,158659,1,0,0:0:0:0:
213,200,158770,1,0,0:0:0:0:
380,269,158882,5,0,0:0:0:0:
423,289,158993,1,0,0:0:0:0:
381,295,159104,1,0,0:0:0:0:
198,153,159326,5,0,0:0:0:0:
143,298,159548,5,0,0:0:0:0:
138,331,159659,1,0,0:0:0:0:
163,307,159770,1,0,0:0:0:0:
295,122,159993,5,0,0:0:0:0:
364,327,160215,5,0,0:0:0:0:
298,346,160326,1,0,0:0:0:0:
235,337,160437,1,0,0:0:0:0:
382,92,160659,6,0,P|440:145|473:238,1,140
307,37,160993,1,0,0:0:0:0:
296,129,161104,2,0,P|279:180|215:253,1,140
307,37,161437,1,0,0:0:0:0:
227,90,161548,2,0,P|159:138|69:148,1,140
307,37,161993,1,0,0:0:0:0:
463,86,162215,1,0,0:0:0:0:
474,123,162326,1,0,0:0:0:0:
465,171,162437,6,0,P|435:173|396:164,1,70
249,53,162770,5,0,0:0:0:0:
206,24,162882,1,0,0:0:0:0:
105,151,163104,1,0,0:0:0:0:
235,247,163326,5,0,0:0:0:0:
271,272,163437,1,0,0:0:0:0:
384,115,163659,5,0,0:0:0:0:
342,93,163770,1,0,0:0:0:0:
182,205,163993,5,0,0:0:0:0:
178,245,164104,1,0,0:0:0:0:
199,275,164215,6,0,P|272:329|381:335,1,140
249,223,164548,5,0,0:0:0:0:
229,206,164659,1,0,0:0:0:0:
78,267,164882,5,0,0:0:0:0:
167,102,165104,6,0,P|156:68|139:38,1,70
93,97,165326,1,0,0:0:0:0:
70,234,165548,1,0,0:0:0:0:
191,314,165770,1,0,0:0:0:0:
212,339,165882,1,0,0:0:0:0:
245,348,165993,6,0,P|342:313|399:227,1,210
179,314,166437,1,0,0:0:0:0:
422,160,166659,1,0,0:0:0:0:
195,60,166882,5,0,0:0:0:0:
156,83,166993,1,0,0:0:0:0:
192,263,167215,5,0,0:0:0:0:
239,273,167326,1,0,0:0:0:0:
347,63,167548,5,0,0:0:0:0:
316,84,167659,1,0,0:0:0:0:
287,114,167770,2,0,P|326:181|465:191,1,210
314,48,168215,1,0,0:0:0:0:
481,263,168437,1,0,0:0:0:0:
489,77,168659,5,0,0:0:0:0:
455,51,168770,1,0,0:0:0:0:
366,218,168993,5,0,0:0:0:0:
395,247,169104,1,0,0:0:0:0:
398,60,169326,5,0,0:0:0:0:
358,37,169437,1,0,0:0:0:0:
315,39,169548,2,0,P|264:114|262:246,1,210
382,64,169993,1,0,0:0:0:0:
190,270,170215,1,0,0:0:0:0:
385,169,170437,5,0,0:0:0:0:
366,126,170548,1,0,0:0:0:0:
218,235,170770,5,0,0:0:0:0:
244,274,170882,1,0,0:0:0:0:
456,162,171104,5,0,0:0:0:0:
438,118,171215,1,0,0:0:0:0:
402,97,171326,2,0,P|347:63|239:124,1,140
322,136,171659,2,0,P|271:150|219:29,1,210
355,52,172215,1,0,0:0:0:0:
474,146,172437,1,0,0:0:0:0:
348,291,172659,2,0,P|333:324|330:396,1,70
390,286,172882,1,0,0:0:0:0:
384,114,173104,5,0,0:0:0:0:
355,90,173215,1,0,0:0:0:0:
320,88,173326,1,0,0:0:0:0:
254,264,173548,1,0,0:0:0:0:
444,220,173770,1,0,0:0:0:0:
387,78,173993,5,0,0:0:0:0:
353,93,174104,1,0,0:0:0:0:
220,271,174326,5,0,0:0:0:0:
258,242,174437,1,0,0:0:0:0:
95,136,174659,5,0,0:0:0:0:
58,168,174770,1,0,0:0:0:0:
248,341,174882,6,0,P|319:321|386:247,1,140
161,326,175216,1,0,0:0:0:0:
202,255,175327,2,0,P|238:214|267:131,1,140
161,326,175659,1,0,0:0:0:0:
114,258,175771,2,0,P|84:197|15:124,1,140
140,343,176216,1,0,0:0:0:0:
306,242,176438,1,0,0:0:0:0:
122,96,176660,6,0,P|151:88|191:89,1,70
337,195,176993,5,0,0:0:0:0:
353,229,177105,1,0,0:0:0:0:
246,353,177327,1,0,0:0:0:0:
129,188,177549,5,0,0:0:0:0:
157,159,177660,1,0,0:0:0:0:
326,262,177882,5,0,0:0:0:0:
293,289,177993,1,0,0:0:0:0:
239,85,178216,5,0,0:0:0:0:
271,63,178327,1,0,0:0:0:0:
307,74,178438,6,0,P|361:147|367:256,1,140
258,126,178771,5,0,0:0:0:0:
229,85,178882,1,0,0:0:0:0:
101,50,179105,5,0,0:0:0:0:
189,185,179327,6,0,P|205:217|214:251,1,70
143,192,179549,1,0,0:0:0:0:
174,74,179771,1,0,0:0:0:0:
70,199,179993,1,0,0:0:0:0:
55,230,180105,1,0,0:0:0:0:
68,256,180216,6,0,P|125:297|271:284,1,210
61,185,180660,1,0,0:0:0:0:
296,351,180882,1,0,0:0:0:0:
206,138,181105,5,0,0:0:0:0:
178,176,181216,1,0,0:0:0:0:
338,257,181438,5,0,0:0:0:0:
374,227,181549,1,0,0:0:0:0:
210,60,181771,5,0,0:0:0:0:
174,42,181882,1,0,0:0:0:0:
141,48,181993,2,0,P|70:163|106:252,1,210
205,15,182438,1,0,0:0:0:0:
103,297,182660,1,0,0:0:0:0:
274,132,182882,5,0,0:0:0:0:
278,171,182993,1,0,0:0:0:0:
111,205,183216,5,0,0:0:0:0:
116,168,183327,1,0,0:0:0:0:
310,183,183549,5,0,0:0:0:0:
302,221,183660,1,0,0:0:0:0:
274,247,183771,2,0,P|184:253|67:202,1,210
336,202,184216,1,0,0:0:0:0:
33,266,184438,1,0,0:0:0:0:
118,105,184660,5,0,0:0:0:0:
151,73,184771,1,0,0:0:0:0:
310,184,184993,5,0,0:0:0:0:
285,219,185105,1,0,0:0:0:0:
156,168,185327,5,0,0:0:0:0:
180,136,185438,1,0,0:0:0:0:
181,100,185548,2,0,P|130:55|52:58,1,140
165,174,185882,1,0,0:0:0:0:
201,172,185993,1,0,0:0:0:0:
312,27,186215,1,0,0:0:0:0:
416,95,186438,1,0,0:0:0:0:
392,253,186660,1,0,0:0:0:0:
187,160,186882,2,0,P|152:151|94:109,1,70
220,117,187105,1,0,0:0:0:0:
334,186,187326,6,0,P|302:256|338:379,1,210
388,141,187771,1,0,0:0:0:0:
258,384,187993,1,0,0:0:0:0:
441,284,188216,5,0,0:0:0:0:
436,242,188327,1,0,0:0:0:0:
281,245,188549,5,0,0:0:0:0:
303,285,188660,1,0,0:0:0:0:
487,149,188882,5,0,0:0:0:0:
455,122,188993,1,0,0:0:0:0:
412,111,189105,5,0,0:0:0:0:
