osu file format v14

[General]
AudioFilename: audio.mp3
AudioLeadIn: 0
PreviewTime: 74333
Countdown: 0
SampleSet: Soft
StackLeniency: 0.7
Mode: 0
LetterboxInBreaks: 0
WidescreenStoryboard: 0

[Editor]
Bookmarks: 1146,22904,44003,75650,96751,117849,141586,162685,191696,212795,233893,254992,276091
DistanceSpacing: 1.3
BeatDivisor: 4
GridSize: 4
TimelineZoom: 2.4

[Metadata]
Title:EXEC_VIENA/.
TitleUnicode:EXEC_VIENA/.
Artist:Shimotsuki Haruka
ArtistUnicode:霜月はるか
Creator:Mir
Version:Love
Source:アルトネリコ2 ~世界に響く少女たちの創造詩~
Tags:shurelia Ar Tonelico II ~Sekai ni Hibiku Shoujo-tachi no Metafalica~ Luca Trulyworth 瑠珈・トゥルーリーワース The Girls' Metafalica that Echoes to the World AT2 ATII best game vn visual novel jrpg gust
BeatmapID:1400629
BeatmapSetID:661621

[Difficulty]
HPDrainRate:5
CircleSize:4
OverallDifficulty:7.5
ApproachRate:8.5
SliderMultiplier:2.4
SliderTickRate:1

[Events]
//Background and Video events
0,0,"viena.jpg",0,0
//Break Periods
//Storyboard Layer 0 (Background)
//Storyboard Layer 1 (Fail)
//Storyboard Layer 2 (Pass)
//Storyboard Layer 3 (Foreground)
//Storyboard Sound Samples

[TimingPoints]
1146,659.340659340659,4,2,1,25,1,0
1146,-200,4,2,1,25,0,0
1806,659.340659340659,4,2,1,25,1,0
1806,-200,4,2,1,25,0,0
22904,-142.857142857143,4,2,2,25,0,0
33454,-125,4,2,2,25,0,0
42685,-125,4,2,99,50,0,0
42767,-125,4,2,1,20,0,0
43179,-125,4,2,1,23,0,0
43344,-125,4,2,1,27,0,0
43509,-125,4,2,2,32,0,0
43674,-125,4,2,1,38,0,0
43838,-125,4,2,1,45,0,0
44003,-100,4,2,3,36,0,0
54223,-66.6666666666667,4,2,1,20,0,0
54553,-125,4,2,2,27,0,0
63784,-125,4,2,2,5,0,0
63866,-125,4,2,2,7,0,0
63948,-125,4,2,2,10,0,0
64031,-125,4,2,2,13,0,0
64113,-125,4,2,2,15,0,0
64196,-125,4,2,2,17,0,0
64278,-125,4,2,2,20,0,0
64360,-125,4,2,2,23,0,0
64443,-125,4,2,2,25,0,0
64525,-125,4,2,2,28,0,0
64608,-125,4,2,2,30,0,0
64690,-125,4,2,2,32,0,0
64773,-125,4,2,2,35,0,0
64855,-125,4,2,2,37,0,0
64937,-125,4,2,2,40,0,0
65020,-125,4,2,2,50,0,0
65102,-125,4,2,3,50,0,0
65185,-125,4,2,3,36,0,0
69058,645.161290322581,4,2,3,35,1,0
70025,800,4,2,3,20,1,0
70425,652.173913043478,4,2,2,33,1,0
74338,576.923076923077,4,2,1,20,1,0
74626,652.173913043478,4,2,1,25,1,0
74952,731.707317073171,4,2,1,30,1,0
75317,666.666666666667,4,2,4,40,1,0
75650,659.340659340659,4,2,4,60,1,1
75650,-83.3333333333333,4,2,4,60,0,1
86117,-83.3333333333333,4,2,4,60,0,0
86199,-83.3333333333333,4,2,4,60,0,1
96666,-83.3333333333333,4,2,4,60,0,0
96748,-83.3333333333333,4,2,4,60,0,1
117847,-200,4,2,1,30,0,0
137628,681.818181818182,4,2,1,25,1,0
137628,-200,4,2,1,25,0,0
138991,652.173913043478,4,2,1,31,1,0
140947,638.297872340426,4,2,1,20,1,0
140947,-200,4,2,1,20,0,0
141425,-200,4,2,1,5,0,0
141585,659.340659340659,4,2,2,20,1,0
141585,-142.857142857143,4,2,2,20,0,0
152134,-125,4,2,2,24,0,0
160705,-125,4,2,1,27,0,0
161365,-125,4,2,99,55,0,0
161447,-125,4,2,1,33,0,0
162189,-125,4,2,1,41,0,0
162683,-100,4,2,3,31,0,0
172574,-100,4,2,1,10,0,0
173233,-125,4,2,2,20,0,0
181804,-125,4,2,2,5,0,0
182793,-125,4,2,2,10,0,0
183123,-125,4,2,2,20,0,0
183288,-125,4,2,2,30,0,0
183782,-125,4,2,3,37,0,0
188727,740.740740740741,4,2,1,20,1,0
190208,674.157303370787,4,2,1,20,1,0
190376,769.230769230769,4,2,1,20,1,0
190760,722.89156626506,4,2,1,25,1,0
191121,659.340659340659,4,2,1,30,1,0
191368,-100,4,2,4,40,0,0
191697,659.340659340659,4,2,4,60,1,1
191697,-83.3333333333333,4,2,4,60,0,1
212713,-83.3333333333333,4,2,1,60,0,0
212795,-83.3333333333333,4,2,4,50,0,1
233812,-83.3333333333333,4,2,1,60,0,0
233894,-83.3333333333333,4,2,4,60,0,1
244361,-83.3333333333333,4,2,4,60,0,0
244444,-83.3333333333333,4,2,4,60,0,1
254911,-83.3333333333333,4,2,4,60,0,0
254993,-83.3333333333333,4,2,4,50,0,1
276092,-83.3333333333333,4,2,1,25,0,0
295871,689.655172413793,4,2,1,25,1,0
297767,722.89156626506,4,2,1,25,1,0
298489,571.428571428571,4,2,1,25,1,0
299060,625,4,2,1,25,1,0
299216,750,4,2,1,25,1,0
299403,882.352941176471,4,2,1,25,1,0
299623,1052.63157894737,4,2,1,25,1,0
299886,1250,4,2,1,25,1,0
300198,1578.94736842105,4,2,1,25,1,0
300592,2222.22222222222,4,2,1,25,1,0
301147,2569.59314775161,4,2,1,25,1,0

[Colours]
Combo1 : 196,226,167
Combo2 : 182,186,203
Combo3 : 172,182,227
Combo4 : 226,186,150

[HitObjects]
5,277,1146,6,0,P|46:287|97:276,1,90
138,214,1806,5,0,0:0:0:0:
161,195,2135,2,0,P|196:181|245:182,1,60
271,237,2795,2,0,L|269:89,1,120
255,31,3784,1,0,0:0:0:0:
188,87,4113,6,0,P|130:84|61:42,1,120
3,88,5102,2,0,P|-5:37|6:7,2,60,0|0|2,0:0|0:0|0:0,0:0:0:0:
65,140,6091,1,0,0:0:0:0:
65,140,6421,1,0,0:0:0:0:
28,207,6751,1,0,0:0:0:0:
86,261,7080,5,0,0:0:0:0:
152,222,7410,2,0,P|198:220|233:229,1,60
265,166,8069,2,0,L|259:310,1,120
265,369,9058,1,0,0:0:0:0:
333,322,9388,6,0,B|391:305|389:353|473:325,1,120
494,257,10377,2,0,P|494:213|483:187,2,60,0|0|2,0:0|0:0|0:0,0:0:0:0:
407,241,11366,1,0,0:0:0:0:
407,241,11696,1,0,0:0:0:0:
410,151,12025,1,0,0:0:0:0:
232,120,12355,6,0,P|210:64|241:-5,1,120,4|0,0:0|0:0,0:0:0:0:
299,63,13344,2,0,L|431:62,1,120
472,0,14333,1,0,0:0:0:0:
472,0,14663,1,0,0:0:0:0:
477,148,14992,6,0,B|496:205|450:206|483:286|483:286|472:269|437:246,1,180,4|0,0:0|0:0,0:0:0:0:
387,198,16311,1,0,0:0:0:0:
387,198,16641,1,0,0:0:0:0:
264,257,16970,1,0,0:0:0:0:
347,279,17300,1,0,0:0:0:0:
257,168,17630,6,0,L|172:172,1,60,4|0,0:0|0:0,0:0:0:0:
132,232,18289,1,0,0:0:0:0:
105,153,18619,1,0,0:0:0:0:
221,258,18948,2,0,P|193:303|63:298,1,180,2|0,0:0|0:0,0:0:0:0:
131,232,20267,6,0,L|124:155,2,60
59,115,21586,2,0,P|104:87|180:102,1,120,2|0,0:0|0:0,0:0:0:0:
168,94,22575,1,0,0:0:0:0:
296,231,22904,6,0,P|325:202|365:189,1,83.9999974365235,2|0,0:0|0:0,0:0:0:0:
483,192,23564,1,0,0:0:0:0:
426,294,23893,2,0,P|368:352|286:361,1,167.999994873047
195,284,24883,1,0,0:0:0:0:
104,360,25212,1,0,0:0:0:0:
104,201,25542,6,0,P|136:173|176:161,2,83.9999974365235,2|0|0,0:0|0:0|0:0,0:0:0:0:
24,276,26531,2,0,L|24:297,3,20.9999993591309
24,248,26860,2,0,P|7:209|6:167,1,83.9999974365235,4|0,0:0|0:0,0:0:0:0:
80,76,27520,1,0,0:0:0:0:
104,192,27849,1,0,0:0:0:0:
288,100,28179,6,0,P|253:77|212:69,1,83.9999974365235,2|0,0:0|0:0,0:0:0:0:
80,76,28838,1,0,0:0:0:0:
196,175,29168,2,0,P|270:212|353:208,1,167.999994873047
479,140,30157,1,0,0:0:0:0:
498,256,30487,1,0,0:0:0:0:
306,193,30816,6,0,P|265:187|224:196,1,83.9999974365235,2|0,0:0|0:0,0:0:0:0:
136,276,31476,1,0,0:0:0:0:
245,356,31805,2,0,B|224:356,3,20.9999993591309
276,356,32135,2,0,L|303:276,1,83.9999974365235,4|0,0:0|0:0,0:0:0:0:
128,188,32795,2,0,L|100:108,1,83.9999974365235
252,28,33454,5,10,0:0:0:0:
416,80,33784,1,8,0:0:0:0:
416,80,34443,1,0,0:0:0:0:
292,136,34773,1,8,0:0:0:0:
328,264,35102,1,0,0:0:0:0:
328,264,35267,1,0,0:0:0:0:
327,263,35432,2,0,P|280:262|237:283,1,96
152,379,35926,1,0,0:0:0:0:
152,379,36091,6,0,L|159:187,1,192,10|0,0:0|0:0,0:0:0:0:
60,260,37080,2,0,L|60:284,3,24
60,232,37410,2,0,L|60:136,1,96,12|8,0:0|0:0,0:0:0:0:
145,69,37904,1,0,0:0:0:0:
145,69,38069,2,0,L|193:73,1,48
324,136,38399,2,0,L|276:140,1,48
160,272,38729,6,0,L|186:179,1,96,10|0,0:0|0:0,0:0:0:0:
320,372,39388,2,0,L|277:234,1,144
277,234,40047,1,8,0:0:0:0:
376,144,40377,1,8,0:0:0:0:
483,226,40707,2,0,P|492:203|496:180,2,48
436,317,41201,1,0,0:0:0:0:
436,317,41366,6,0,P|390:304|342:304,1,96,2|0,0:0|0:0,0:0:0:0:
152,220,42025,2,0,P|199:219|246:232,1,96,2|0,0:0|0:0,0:0:0:0:
419,131,42685,2,0,P|397:123|373:119,1,48,4|0,0:0|0:0,0:0:0:0:
326,174,43014,1,0,0:0:0:0:
268,132,43179,1,0,0:0:0:0:
200,180,43344,1,0,0:0:0:0:
148,112,43509,1,0,0:0:0:0:
66,170,43674,1,0,0:0:0:0:
20,80,43838,1,0,0:0:0:0:
132,243,44003,6,0,P|116:299|141:353,1,120,4|0,0:0|0:0,0:0:0:0:
338,259,44663,1,8,0:0:0:0:
267,374,44992,1,0,0:0:0:0:
338,259,45322,2,0,L|480:260,1,120,8|0,0:0|0:0,0:0:0:0:
444,152,45816,1,0,0:0:0:0:
443,136,45899,1,0,0:0:0:0:
443,121,45981,2,0,P|399:92|371:86,1,60,8|8,0:0|0:0,0:0:0:0:
216,154,46311,1,4,0:3:0:0:
291,197,46476,1,0,0:0:0:0:
180,72,46641,5,12,0:3:0:0:
161,58,46970,1,8,0:0:0:0:
300,108,47135,1,8,0:0:0:0:
216,154,47300,2,0,L|135:154,1,60,8|0,0:0|0:0,0:0:0:0:
39,215,47630,2,0,L|120:215,1,60,8|0,0:0|0:0,0:0:0:0:
112,222,47877,1,8,0:0:0:0:
124,229,47959,5,8,0:0:0:0:
76,297,48124,1,8,0:0:0:0:
215,246,48289,2,0,P|197:287|173:306,1,60,8|8,0:0|0:0,0:0:0:0:
293,178,48619,2,0,P|311:219|335:238,1,60,8|0,0:0|0:0,0:0:0:0:
458,167,48948,2,0,L|378:163,1,60,4|0,0:3|0:0,0:0:0:0:
207,158,49278,6,0,P|225:117|249:98,1,60,12|0,0:3|0:0,0:0:0:0:
135,212,49608,2,0,P|118:170|122:139,1,60,8|8,0:0|0:0,0:0:0:0:
118,296,49937,2,0,P|77:278|58:254,1,60,8|0,0:0|0:0,0:0:0:0:
201,271,50267,1,8,0:0:0:0:
232,275,50377,1,8,0:0:0:0:
255,296,50487,1,8,0:0:0:0:
263,326,50597,6,0,P|316:339|367:326,1,60,8|8,0:0|0:0,0:0:0:0:
428,252,50926,2,0,P|375:265|324:252,1,60,8|8,0:0|0:0,0:0:0:0:
291,69,51256,1,8,0:0:0:0:
377,172,51421,1,0,0:0:0:0:
237,166,51586,1,4,0:3:0:0:
354,24,51915,6,0,L|230:22,1,120,12|8,0:3|0:0,0:0:0:0:
201,22,52355,1,8,0:0:0:0:
168,22,52465,1,8,0:0:0:0:
135,22,52575,1,8,0:0:0:0:
174,224,52904,1,8,0:0:0:0:
201,207,53014,1,8,0:0:0:0:
223,184,53124,1,8,0:0:0:0:
234,154,53234,5,8,0:0:0:0:
144,151,53399,1,8,0:0:0:0:
229,124,53564,1,8,0:0:0:0:
128,142,53729,1,8,0:0:0:0:
212,95,53893,5,8,0:0:0:0:
331,168,54058,1,0,0:0:0:0:
335,182,54141,1,0,0:0:0:0:
340,196,54223,2,0,L|348:216,6,22.5000008583069,4|0|0|0|0|0|0,0:3|0:0|0:0|0:0|0:0|0:0|0:3,0:0:0:0:
384,254,54553,6,0,B|311:232|321:292|208:253,1,144
167,213,55212,2,0,P|236:175|288:188,1,96
59,342,55871,1,0,0:0:0:0:
43,248,56201,1,0,0:0:0:0:
28,153,56531,1,0,0:0:0:0:
43,248,56860,1,0,0:0:0:0:
140,281,57190,6,0,P|222:291|297:267,1,144
280,275,57849,1,0,0:0:0:0:
210,375,58179,1,0,0:0:0:0:
371,283,58509,2,0,P|354:231|247:201,1,144,4|0,0:0|0:0,0:0:0:0:
173,192,59168,2,0,P|190:140|297:110,1,144
266,103,59827,5,0,0:0:0:0:
173,192,60157,1,0,0:0:0:0:
82,106,60487,2,0,B|51:168|51:168|69:274,1,144
4,302,61146,2,0,B|66:271|66:271|172:289,1,144
204,356,61805,2,0,B|272:367|272:367|368:319,1,144
427,298,62465,5,0,0:0:0:0:
355,240,62795,1,0,0:0:0:0:
410,182,63124,2,0,P|354:222|265:192,1,144
121,133,63784,6,8,L|117:111,30,12,0|8|8|8|8|8|8|8|8|8|8|8|8|8|8|8|8|8|8|8|8|8|8|8|8|8|8|8|8|8|8,0:0|0:0|0:0|0:0|0:0|0:0|0:0|0:0|0:0|0:0|0:0|0:0|0:0|0:0|0:0|0:0|0:0|0:0|0:0|0:0|0:0|0:0|0:0|0:0|0:0|0:0|0:0|0:0|0:0|0:0|0:0,0:0:0:0:
115,104,65102,6,0,P|166:93|264:113,1,144,4|0,0:0|0:0,0:0:0:0:
322,156,65762,1,8,0:0:0:0:
228,292,66091,1,0,0:0:0:0:
395,330,66421,1,8,0:0:0:0:
395,330,66751,1,0,0:0:0:0:
228,292,67080,1,8,0:0:0:0:
309,310,67245,1,8,0:0:0:0:
71,249,67410,1,4,0:3:0:0:
309,310,67740,6,0,P|306:257|272:222,1,96,12|0,0:3|0:0,0:0:0:0:
196,204,68234,1,0,0:0:0:0:
196,204,68399,2,0,L|201:100,1,96,8|0,0:0|0:0,0:0:0:0:
208,27,69058,5,8,0:0:0:0:
75,146,69380,1,0,0:0:0:0:
75,146,69541,1,0,0:0:0:0:
37,69,69703,1,8,0:0:0:0:
128,76,69864,1,8,0:0:0:0:
75,146,70025,1,8,0:0:0:0:
282,84,70425,5,4,0:0:0:0:
282,84,74338,5,0,0:0:0:0:
261,121,74627,1,0,0:0:0:0:
168,132,74952,2,0,P|130:116|89:61,1,90,2|0,0:0|0:0,0:0:0:0:
36,16,75317,5,8,0:0:0:0:
22,36,75400,1,8,0:0:0:0:
14,58,75483,1,8,0:0:0:0:
12,82,75566,1,8,0:0:0:0:
52,152,75650,6,0,B|70:223|70:223|54:292,1,143.999995605469,8|0,0:0|0:0,0:0:0:0:
260,228,76309,2,0,B|242:157|242:157|257:87,1,143.999995605469,2|0,0:0|0:0,0:0:0:0:
356,48,76803,1,8,0:0:0:0:
356,48,76886,1,8,0:0:0:0:
356,48,76968,2,0,P|391:45|426:34,1,71.9999978027344,8|0,0:0|0:0,0:0:0:0:
256,87,77298,2,0,P|220:84|185:73,1,71.9999978027344,8|0,0:0|0:0,0:0:0:0:
84,36,77628,1,2,0:0:0:0:
96,144,77792,1,0,0:0:0:0:
256,87,77957,2,0,P|258:51|269:16,1,71.9999978027344
440,88,78287,6,0,P|423:157|373:207,1,143.999995605469,12|0,0:0|0:0,0:0:0:0:
175,288,78946,2,0,L|104:304,1,71.9999978027344,2|0,0:0|0:0,0:0:0:0:
40,220,79276,1,0,0:0:0:0:
56,112,79441,1,8,0:0:0:0:
56,112,79523,1,8,0:0:0:0:
56,112,79606,2,0,P|89:124|124:132,1,71.9999978027344,8|0,0:0|0:0,0:0:0:0:
323,198,79935,2,0,P|289:210|254:218,1,71.9999978027344,8|0,0:0|0:0,0:0:0:0:
56,112,80265,2,0,P|83:89|114:70,1,71.9999978027344,2|0,0:0|0:0,0:0:0:0:
320,72,80595,2,0,P|292:94|261:113,1,71.9999978027344
408,0,80924,6,0,P|428:68|411:137,1,143.999995605469,12|0,0:0|0:0,0:0:0:0:
328,336,81584,2,0,P|307:267|324:198,1,143.999995605469,2|0,0:0|0:0,0:0:0:0:
420,144,82078,1,8,0:0:0:0:
420,144,82160,1,8,0:0:0:0:
420,144,82243,2,0,L|408:216,1,71.9999978027344,8|0,0:0|0:0,0:0:0:0:
432,364,82573,2,0,L|444:292,1,71.9999978027344,8|0,0:0|0:0,0:0:0:0:
496,219,82902,2,0,P|514:189|520:153,2,71.9999978027344,2|0|0,0:0|0:0|0:0,0:0:0:0:
140,244,83562,6,0,L|99:105,1,143.999995605469,8|0,0:0|0:0,0:0:0:0:
100,344,84221,2,0,P|170:345|230:306,1,143.999995605469,2|0,0:0|0:0,0:0:0:0:
269,270,84660,1,0,0:0:0:0:
321,267,84770,1,0,0:0:0:0:
369,288,84880,2,0,L|440:284,1,71.9999978027344,8|8,0:0|0:0,0:0:0:0:
272,168,85210,2,0,L|200:164,1,71.9999978027344
392,68,85540,2,0,L|463:64,1,71.9999978027344,10|8,0:0|0:0,0:0:0:0:
224,16,85869,5,8,0:0:0:0:
188,16,85952,1,8,0:0:0:0:
152,16,86034,1,8,0:0:0:0:
116,16,86117,1,8,0:0:0:0:
56,69,86199,6,0,B|23:132|23:132|24:204,1,143.999995605469,12|0,0:0|0:0,0:0:0:0:
96,288,86693,1,0,0:0:0:0:
200,312,86858,2,0,B|236:300|236:300|269:297,1,71.9999978027344,2|0,0:0|0:0,0:0:0:0:
344,384,87188,1,0,0:0:0:0:
473,260,87353,1,8,0:0:0:0:
473,260,87435,1,8,0:0:0:0:
473,259,87518,2,0,P|475:223|470:187,1,71.9999978027344,8|0,0:0|0:0,0:0:0:0:
360,16,87847,2,0,P|357:51|362:87,1,71.9999978027344,8|0,0:0|0:0,0:0:0:0:
304,180,88177,5,2,0:0:0:0:
180,96,88342,1,0,0:0:0:0:
368,112,88507,1,0,0:0:0:0:
216,20,88671,1,0,0:0:0:0:
440,52,88836,6,0,P|471:116|471:187,1,143.999995605469,12|0,0:0|0:0,0:0:0:0:
416,272,89331,1,0,0:0:0:0:
304,180,89496,1,2,0:0:0:0:
264,320,89660,1,0,0:0:0:0:
392,148,89825,1,0,0:0:0:0:
267,117,89990,1,8,0:0:0:0:
267,117,90073,1,8,0:0:0:0:
267,117,90155,2,0,L|303:179,1,71.9999978027344,8|0,0:0|0:0,0:0:0:0:
376,360,90485,2,0,L|339:297,1,71.9999978027344,8|0,0:0|0:0,0:0:0:0:
188,224,90814,5,2,0:0:0:0:
332,208,90979,1,0,0:0:0:0:
204,368,91144,1,0,0:0:0:0:
48,240,91309,1,0,0:0:0:0:
176,71,91474,6,0,P|243:48|314:53,1,143.999995605469,12|0,0:0|0:0,0:0:0:0:
348,268,92133,2,0,P|280:291|209:286,1,143.999995605469,2|0,0:0|0:0,0:0:0:0:
121,208,92628,1,8,0:0:0:0:
121,208,92711,1,8,0:0:0:0:
120,207,92792,2,0,P|111:172|117:136,1,71.9999978027344,8|0,0:0|0:0,0:0:0:0:
260,82,93122,2,0,P|285:57|319:45,1,71.9999978027344,8|0,0:0|0:0,0:0:0:0:
401,146,93452,2,0,P|435:156|462:179,2,71.9999978027344,2|0|0,0:0|0:0|0:0,0:0:0:0:
256,208,94111,6,0,L|399:219,1,143.999995605469,8|0,0:0|0:0,0:0:0:0:
256,60,94770,2,0,L|112:71,1,143.999995605469,2|0,0:0|0:0,0:0:0:0:
24,168,95265,1,8,0:0:0:0:
24,168,95347,1,8,0:0:0:0:
24,168,95430,2,0,P|64:226|72:297,1,143.999995605469,8|8,0:0|0:0,0:0:0:0:
287,331,96089,5,0,0:0:0:0:
283,303,96171,1,0,0:0:0:0:
282,274,96253,1,0,0:0:0:0:
286,246,96336,1,0,0:0:0:0:
294,218,96418,1,0,0:0:0:0:
307,192,96501,1,0,0:0:0:0:
323,169,96583,1,0,0:0:0:0:
343,148,96665,1,0,0:0:0:0:
415,121,96748,6,0,L|209:115,1,143.999995605469,4|0,0:0|0:0,0:0:0:0:
140,117,97243,1,8,0:3:0:0:
161,216,97408,2,0,P|163:173|137:133,1,71.9999978027344,2|0,0:0|0:0,0:0:0:0:
60,279,97737,2,0,P|58:236|84:196,1,71.9999978027344,12|0,0:3|0:0,0:0:0:0:
131,338,98067,1,4,0:3:0:0:
138,349,98397,1,0,0:0:0:0:
64,297,98562,1,8,0:3:0:0:
215,302,98726,2,0,L|293:306,1,71.9999978027344,2|0,0:0|0:0,0:0:0:0:
336,215,99056,2,0,L|258:219,1,71.9999978027344,12|0,0:3|0:0,0:0:0:0:
449,352,99386,6,0,P|471:276|411:205,1,143.999995605469,4|0,0:3|0:0,0:0:0:0:
336,215,99880,1,8,0:3:0:0:
341,113,100045,2,0,L|336:193,1,71.9999978027344,2|0,0:0|0:0,0:0:0:0:
426,55,100375,2,0,L|431:135,1,71.9999978027344,12|0,0:3|0:0,0:0:0:0:
210,41,100704,2,0,P|284:8|350:26,1,143.999995605469,4|0,0:3|0:0,0:0:0:0:
342,21,101199,1,8,0:3:0:0:
244,127,101364,2,0,B|138:169|143:77|36:119,1,215.999993408203,2|0,0:0|0:0,0:0:0:0:
67,335,102023,6,0,P|55:265|88:203,1,143.999995605469,4|0,0:3|0:0,0:0:0:0:
154,281,102518,1,8,0:3:0:0:
254,306,102682,2,0,L|165:302,1,71.9999978027344,2|0,0:0|0:0,0:0:0:0:
308,225,103012,2,0,L|236:228,1,71.9999978027344,12|0,0:3|0:0,0:0:0:0:
384,294,103342,1,4,0:3:0:0:
395,309,103671,1,0,0:0:0:0:
327,361,103836,1,8,0:3:0:0:
462,257,104001,1,2,0:0:0:0:
384,294,104166,1,0,0:0:0:0:
448,240,104331,1,12,0:3:0:0:
172,79,104660,6,0,P|246:63|346:135,1,143.999995605469,4|0,0:3|0:0,0:0:0:0:
234,157,105155,1,8,0:3:0:0:
263,245,105320,2,0,P|270:211|256:170,1,71.9999978027344,2|0,0:0|0:0,0:0:0:0:
161,304,105649,2,0,P|154:270|168:229,1,71.9999978027344,12|0,0:3|0:0,0:0:0:0:
230,347,105979,2,0,L|43:344,1,143.999995605469,4|0,0:3|0:0,0:0:0:0:
86,344,106474,1,8,0:3:0:0:
76,228,106639,2,0,L|40:228,3,35.9999989013672,2|0|0|0,0:0|0:0|0:0|0:0,0:0:0:0:
143,149,106968,1,0,0:0:0:0:
142,130,107051,1,0,0:0:0:0:
143,112,107133,1,0,0:0:0:0:
144,94,107215,1,0,0:0:0:0:
144,75,107298,6,0,P|200:59|309:80,1,143.999995605469,4|0,0:0|0:0,0:0:0:0:
358,112,107792,1,8,0:3:0:0:
338,212,107957,2,0,P|328:169|339:117,1,71.9999978027344,2|0,0:0|0:0,0:0:0:0:
435,268,108287,2,0,P|445:225|434:173,1,71.9999978027344,12|0,0:3|0:0,0:0:0:0:
354,334,108617,1,4,0:3:0:0:
345,358,108946,1,0,0:0:0:0:
439,369,109111,1,8,0:3:0:0:
252,349,109276,2,0,P|177:347|157:348,1,71.9999978027344,2|0,0:0|0:0,0:0:0:0:
45,286,109606,2,0,P|120:284|140:285,1,71.9999978027344,12|0,0:3|0:0,0:0:0:0:
206,131,109935,6,0,P|232:204|186:275,1,143.999995605469,4|0,0:3|0:0,0:0:0:0:
139,198,110430,1,8,0:3:0:0:
45,181,110595,2,0,P|120:179|140:180,1,71.9999978027344,2|0,0:0|0:0,0:0:0:0:
207,96,110924,2,0,P|132:94|112:95,1,71.9999978027344,12|0,0:3|0:0,0:0:0:0:
33,12,111254,2,0,L|203:2,1,143.999995605469,4|0,0:3|0:0,0:0:0:0:
418,88,111913,2,0,B|317:61|314:137|185:88,1,215.999993408203,2|0,0:0|0:0,0:0:0:0:
269,329,112573,6,0,P|213:286|208:217,1,143.999995605469,4|0,0:3|0:0,0:0:0:0:
297,244,113067,1,8,0:3:0:0:
393,271,113232,2,0,L|302:266,1,71.9999978027344,2|0,0:0|0:0,0:0:0:0:
496,185,113562,2,0,L|424:188,1,71.9999978027344,12|0,0:3|0:0,0:0:0:0:
303,352,113891,2,0,L|467:361,1,143.999995605469,4|0,0:3|0:0,0:0:0:0:
430,263,114386,1,8,0:3:0:0:
321,272,114551,2,0,L|392:275,1,71.9999978027344,2|0,0:0|0:0,0:0:0:0:
165,296,114880,2,0,L|236:299,1,71.9999978027344,12|0,0:3|0:0,0:0:0:0:
90,356,115210,6,0,P|69:295|126:210,1,143.999995605469,4|0,0:0|0:0,0:0:0:0:
161,152,115704,1,8,0:3:0:0:
26,46,115869,1,6,0:0:0:0:
96,97,116034,1,0,0:0:0:0:
33,54,116199,1,0,0:0:0:0:
434,85,116529,6,0,P|385:83|297:129,1,143.999995605469,4|0,0:0|0:0,0:0:0:0:
366,368,117188,2,0,L|365:283,1,71.9999978027344,6|0,0:0|0:0,0:0:0:0:
301,124,117518,1,0,0:0:0:0:
247,249,117847,5,8,0:0:0:0:
242,262,118177,1,0,0:0:0:0:
238,275,118507,1,0,0:0:0:0:
234,288,118836,1,0,0:0:0:0:
230,301,119166,1,2,0:0:0:0:
142,177,120485,5,0,0:0:0:0:
147,190,120815,1,0,0:0:0:0:
151,203,121145,1,0,0:0:0:0:
155,216,121474,1,0,0:0:0:0:
152,245,121804,1,2,0:0:0:0:
263,123,123122,5,0,0:0:0:0:
258,136,123452,1,0,0:0:0:0:
254,149,123782,1,0,0:0:0:0:
250,162,124111,1,0,0:0:0:0:
246,175,124441,1,2,0:0:0:0:
183,93,125430,1,8,0:0:0:0:
183,93,125595,1,8,0:0:0:0:
107,152,125759,5,8,0:0:0:0:
112,165,126089,1,0,0:0:0:0:
116,178,126419,1,0,0:0:0:0:
120,191,126748,1,0,0:0:0:0:
124,223,127078,1,2,0:0:0:0:
225,65,128397,5,12,0:0:0:0:
220,78,128727,1,0,0:0:0:0:
216,91,129057,1,0,0:0:0:0:
212,104,129386,1,0,0:0:0:0:
208,117,129716,1,2,0:0:0:0:
320,121,131034,5,0,0:0:0:0:
325,134,131364,1,0,0:0:0:0:
329,147,131694,1,0,0:0:0:0:
333,160,132023,1,0,0:0:0:0:
333,194,132353,1,2,0:0:0:0:
298,275,133342,1,8,0:0:0:0:
298,275,133507,1,8,0:0:0:0:
156,217,133671,5,8,0:0:0:0:
151,230,134001,1,0,0:0:0:0:
147,243,134331,1,0,0:0:0:0:
143,256,134660,1,0,0:0:0:0:
139,269,134990,1,2,0:0:0:0:
241,105,136309,5,0,0:0:0:0:
252,116,136803,5,0,0:0:0:0:
252,116,136886,1,0,0:0:0:0:
252,116,136968,1,0,0:0:0:0:
252,116,137628,6,0,B|307:117|334:148|334:148|293:178|278:228|302:286,1,240,2|0,0:0|0:0,0:0:0:0:
300,281,140947,6,0,P|258:270|211:280,1,90
120,300,141585,6,0,P|119:258|137:220,1,83.9999974365235,2|0,0:0|0:0,0:0:0:0:
260,344,142244,1,0,0:0:0:0:
352,124,142574,1,0,0:0:0:0:
352,124,143233,1,0,0:0:0:0:
284,20,143563,1,0,0:0:0:0:
164,60,143892,1,0,0:0:0:0:
416,92,144222,6,0,L|404:176,1,83.9999974365235,2|0,0:0|0:0,0:0:0:0:
332,280,144881,1,0,0:0:0:0:
209,308,145211,2,0,L|202:320,4,13.9999995727539
220,300,145541,6,0,L|223:258,1,41.9999987182618,4|0,0:0|0:0,0:0:0:0:
232,156,145870,1,0,0:0:0:0:
160,200,146035,1,0,0:0:0:0:
300,212,146200,2,0,L|320:214,2,20.9999993591309
240,72,146530,2,0,L|198:78,1,41.9999987182618
79,216,146859,6,0,P|120:215|159:200,1,83.9999974365235,2|0,0:0|0:0,0:0:0:0:
92,96,147519,1,0,0:0:0:0:
136,304,147848,1,0,0:0:0:0:
136,304,148508,1,0,0:0:0:0:
252,252,148837,1,0,0:0:0:0:
364,312,149167,1,0,0:0:0:0:
280,128,149497,6,0,B|236:120|198:140,1,83.9999974365235,2|0,0:0|0:0,0:0:0:0:
92,212,150156,1,0,0:0:0:0:
68,88,150486,2,0,L|82:88,4,13.9999995727539
43,100,150815,1,4,0:0:0:0:
188,20,151145,1,0,0:0:0:0:
312,48,151475,1,0,0:0:0:0:
406,15,151804,1,0,0:0:0:0:
291,175,152134,6,0,P|286:127|302:83,1,96,4|8,0:3|0:0,0:0:0:0:
351,11,152628,1,0,0:0:0:0:
351,11,153123,1,8,0:0:0:0:
420,56,153288,1,0,0:0:0:0:
440,136,153453,2,0,P|445:183|428:228,1,96,8|0,0:0|0:0,0:0:0:0:
388,300,153947,1,0,0:0:0:0:
388,300,154442,1,10,0:0:0:0:
312,328,154606,1,0,0:0:0:0:
205,375,154771,6,0,P|191:329|204:284,1,96,4|0,0:3|0:0,0:0:0:0:
252,220,155266,1,0,0:0:0:0:
252,220,155595,1,0,0:0:0:0:
242,132,155760,2,0,L|254:122,4,16,8|0|0|0|0,0:0|0:0|0:0|0:0|0:0,0:0:0:0:
231,139,156090,2,0,P|184:135|136:143,1,96,4|0,0:0|0:0,0:0:0:0:
76,196,156585,1,0,0:0:0:0:
76,196,156914,1,0,0:0:0:0:
60,115,157079,2,0,P|72:95|100:73,1,48,8|8,0:0|0:0,0:0:0:0:
192,240,157409,6,0,L|352:232,1,144,4|0,0:3|0:0,0:0:0:0:
484,296,158068,2,0,B|434:308|440:283|389:291,1,96
256,348,158727,1,0,0:0:0:0:
436,200,159057,1,0,0:0:0:0:
264,64,159387,2,0,L|252:159,1,96,0|2,0:0|0:0,0:0:0:0:
252,159,159881,1,0,0:0:0:0:
168,108,160046,6,0,B|120:100|120:100|72:104,1,96,4|0,0:3|0:0,0:0:0:0:
304,248,160705,2,0,B|256:240|256:240|208:244,1,96,4|0,0:3|0:0,0:0:0:0:
480,360,161365,2,0,B|456:353|456:353|433:354,1,48,4|0,0:0|0:0,0:0:0:0:
369,382,161694,1,0,0:0:0:0:
304,356,161859,1,0,0:0:0:0:
388,276,162024,1,0,0:0:0:0:
192,292,162189,1,0,0:0:0:0:
304,356,162354,1,0,0:0:0:0:
236,172,162519,1,0,0:0:0:0:
88,372,162683,6,0,P|65:316|68:257,1,120,4|0,0:0|0:0,0:0:0:0:
104,92,163343,2,0,P|170:31|257:16,1,180,8|0,0:0|0:0,0:0:0:0:
340,67,164002,2,0,P|347:38|352:9,1,60,8|8,0:0|0:0,0:0:0:0:
244,104,164332,2,0,P|249:133|256:162,1,60,8|8,0:0|0:0,0:0:0:0:
348,156,164661,1,8,0:0:0:0:
244,104,164826,1,8,0:0:0:0:
206,231,164991,2,0,P|177:239|148:240,1,60,12|0,0:3|0:0,0:0:0:0:
336,292,165321,6,0,P|364:300|394:301,1,60,4|0,0:3|0:0,0:0:0:0:
512,384,165650,2,0,P|496:358|474:337,1,60,8|8,0:0|0:0,0:0:0:0:
484,200,165980,2,0,P|469:226|462:255,1,60,8|0,0:0|0:0,0:0:0:0:
336,292,166310,1,8,0:0:0:0:
320,256,166420,1,8,0:0:0:0:
320,216,166530,1,8,0:0:0:0:
332,180,166639,1,8,0:0:0:0:
296,96,166804,1,8,0:0:0:0:
219,48,166969,2,0,L|157:60,1,60,8|8,0:0|0:0,0:0:0:0:
332,180,167299,2,0,L|394:192,1,60,8|8,0:0|0:0,0:0:0:0:
205,283,167628,2,0,L|143:295,1,60,12|0,0:3|0:0,0:0:0:0:
350,347,167958,6,0,P|342:317|326:293,1,60,4|0,0:3|0:0,0:0:0:0:
243,361,168288,2,0,L|272:352,2,30,8|8|8,0:0|0:0|0:0,0:0:0:0:
243,361,168617,2,0,L|123:372,1,120,8|8,0:0|0:0,0:0:0:0:
8,248,169277,2,0,L|67:242,1,60,8|8,0:0|0:0,0:0:0:0:
163,260,169606,1,8,0:0:0:0:
80,246,169771,1,8,0:0:0:0:
225,188,169936,2,0,L|225:128,1,60,8|8,0:0|0:0,0:0:0:0:
196,44,170266,1,12,0:3:0:0:
163,260,170595,6,0,B|235:276|235:276|278:261,2,120,4|8|8,0:3|0:0|0:0,0:0:0:0:
40,120,171585,1,8,0:0:0:0:
184,16,171914,2,0,L|242:27,1,60,8|8,0:0|0:0,0:0:0:0:
358,88,172244,2,0,L|300:100,1,60,8|8,0:0|0:0,0:0:0:0:
248,176,172574,2,0,L|233:176,14,15
264,176,173233,6,0,B|272:308|272:308|288:250,1,192
360,120,174222,1,0,0:0:0:0:
512,320,174552,2,0,L|416:314,1,96
192,256,175211,2,0,L|287:250,1,96
79,172,175870,6,0,P|36:255|54:348,1,192
182,293,176859,2,0,L|192:280,6,12
180,280,177189,2,0,P|197:187|154:103,1,192,4|0,0:0|0:0,0:0:0:0:
152,83,178508,6,0,L|252:77,1,96
388,164,179167,2,0,B|284:168|284:168|212:220,2,192
452,292,180815,1,0,0:0:0:0:
220,315,181145,6,0,L|212:219,1,96
228,112,181804,2,8,L|239:107,46,12
185,140,183782,6,0,L|89:152,1,96,4|0,0:0|0:0,0:0:0:0:
175,280,184442,2,0,P|175:257|169:233,1,48,8|0,0:0|0:0,0:0:0:0:
87,271,184771,1,0,0:0:0:0:
232,340,185101,2,0,P|279:332|326:335,1,96,8|0,0:0|0:0,0:0:0:0:
512,289,185760,2,0,L|465:295,1,48,8|8,0:0|0:0,0:0:0:0:
327,335,186090,2,0,L|374:341,1,48,12|0,0:3|0:0,0:0:0:0:
356,160,186420,6,0,L|260:153,1,96,4|0,0:3|0:0,0:0:0:0:
136,264,187079,2,0,L|231:270,1,96,8|0,0:0|0:0,0:0:0:0:
428,179,187738,2,0,P|440:133|434:86,1,96,8|0,0:0|0:0,0:0:0:0:
260,24,188398,1,8,0:0:0:0:
356,128,188563,1,8,0:0:0:0:
356,32,188727,1,8,0:0:0:0:
293,268,189097,6,0,L|278:271,1,15,2|0,0:0|0:0,0:0:0:0:
295,283,190376,5,0,0:0:0:0:
257,286,190760,1,0,0:0:0:0:
216,291,191121,2,0,L|141:291,1,60
63,276,191368,5,8,0:0:0:0:
63,251,191450,1,8,0:0:0:0:
63,226,191532,1,8,0:0:0:0:
63,204,191615,1,8,0:0:0:0:
51,117,191697,6,0,P|107:129|148:210,1,143.999995605469,4|0,0:0|0:0,0:0:0:0:
337,34,192356,2,0,P|281:46|236:127,1,143.999995605469,2|0,0:0|0:0,0:0:0:0:
341,260,192850,1,8,0:0:0:0:
341,260,192933,1,8,0:0:0:0:
341,260,193015,2,0,L|416:264,1,71.9999978027344,8|0,0:0|0:0,0:0:0:0:
442,137,193345,2,0,L|366:141,1,71.9999978027344,8|0,0:0|0:0,0:0:0:0:
224,230,193675,1,2,0:0:0:0:
291,332,193839,1,0,0:0:0:0:
330,162,194004,1,0,0:0:0:0:
53,154,194334,6,0,L|201:147,1,143.999995605469,4|0,0:0|0:0,0:0:0:0:
332,64,194993,2,0,L|184:57,1,143.999995605469,2|0,0:0|0:0,0:0:0:0:
29,71,195488,1,8,0:0:0:0:
29,71,195570,1,8,0:0:0:0:
29,71,195653,2,0,P|78:75|108:86,1,71.9999978027344,8|0,0:0|0:0,0:0:0:0:
232,141,195982,2,0,P|183:145|153:156,1,71.9999978027344,8|0,0:0|0:0,0:0:0:0:
179,358,196312,2,0,P|197:312|135:241,1,143.999995605469,2|0,0:0|0:0,0:0:0:0:
503,314,196971,6,0,L|268:301,1,215.999993408203,12|0,0:0|0:0,0:0:0:0:
339,94,197631,2,0,P|379:125|380:227,1,143.999995605469,2|0,0:0|0:0,0:0:0:0:
120,159,198125,1,8,0:0:0:0:
120,159,198207,1,8,0:0:0:0:
120,159,198290,2,0,P|156:155|201:159,1,71.9999978027344,8|0,0:0|0:0,0:0:0:0:
322,255,198620,2,0,P|292:255|247:248,1,71.9999978027344,8|0,0:0|0:0,0:0:0:0:
254,110,198949,1,2,0:0:0:0:
192,319,199279,1,0,0:0:0:0:
41,44,199609,6,0,B|108:27|108:27|264:38,1,215.999993408203,12|0,0:0|0:0,0:0:0:0:
421,136,200268,2,0,L|194:124,1,215.999993408203,2|0,0:0|0:0,0:0:0:0:
98,181,200927,2,0,P|101:235|113:267,1,71.9999978027344,8|8,0:0|0:0,0:0:0:0:
241,370,201257,2,0,P|248:334|248:298,1,71.9999978027344
61,345,201587,2,0,L|143:339,1,71.9999978027344,2|0,0:0|0:0,0:0:0:0:
342,333,201916,1,0,0:0:0:0:
357,333,201999,1,0,0:0:0:0:
371,333,202081,1,0,0:0:0:0:
386,333,202164,1,0,0:0:0:0:
400,333,202246,6,0,B|436:257|338:217|395:119,1,215.999993408203,12|0,0:0|0:0,0:0:0:0:
466,74,202905,2,0,L|292:65,1,143.999995605469,2|0,0:0|0:0,0:0:0:0:
152,59,203400,1,8,0:0:0:0:
152,59,203482,1,8,0:0:0:0:
152,59,203565,2,0,P|171:97|175:132,1,71.9999978027344,8|0,0:0|0:0,0:0:0:0:
274,180,203894,2,0,P|255:218|251:253,1,71.9999978027344,8|0,0:0|0:0,0:0:0:0:
292,359,204224,5,2,0:0:0:0:
170,287,204389,1,0,0:0:0:0:
292,359,204554,1,0,0:0:0:0:
344,253,204718,1,0,0:0:0:0:
96,336,204883,6,0,P|82:279|89:254,1,71.9999978027344,12|0,0:0|0:0,0:0:0:0:
144,180,205213,1,0,0:0:0:0:
177,294,205378,1,0,0:0:0:0:
197,102,205543,1,2,0:0:0:0:
177,294,205707,1,0,0:0:0:0:
105,98,205872,1,0,0:0:0:0:
177,294,206037,2,0,L|213:293,1,35.9999989013672,8|8,0:0|0:0,0:0:0:0:
433,284,206202,2,0,P|440:237|438:201,1,71.9999978027344,8|0,0:0|0:0,0:0:0:0:
281,68,206532,2,0,P|282:97|291:147,1,71.9999978027344,8|0,0:0|0:0,0:0:0:0:
499,149,206861,6,0,P|408:134|390:144,1,71.9999978027344,2|0,0:0|0:0,0:0:0:0:
352,247,207191,1,0,0:0:0:0:
289,139,207356,1,0,0:0:0:0:
65,271,207521,6,0,B|190:232|155:311|282:269,1,215.999993408203,12|0,0:0|0:0,0:0:0:0:
221,195,208180,2,0,L|218:44,1,143.999995605469,2|0,0:0|0:0,0:0:0:0:
55,168,208675,1,8,0:0:0:0:
55,168,208757,1,8,0:0:0:0:
55,168,208839,2,0,P|46:204|54:240,1,71.9999978027344,8|0,0:0|0:0,0:0:0:0:
126,84,209169,2,0,P|128:54|116:8,1,71.9999978027344,8|0,0:0|0:0,0:0:0:0:
180,188,209499,2,4,L|258:189,1,71.9999978027344,2|0,0:0|0:0,0:0:0:0:
290,115,209828,1,0,0:0:0:0:
318,245,209993,1,0,0:0:0:0:
502,101,210158,6,0,B|385:77|398:146|280:113,1,215.999993408203,8|0,0:0|0:0,0:0:0:0:
201,39,210817,2,0,P|267:15|332:41,1,143.999995605469,2|0,0:0|0:0,0:0:0:0:
136,161,211312,1,8,0:0:0:0:
136,161,211394,1,8,0:0:0:0:
136,161,211477,2,0,P|127:128|129:88,1,71.9999978027344,8|0,0:0|0:0,0:0:0:0:
291,122,211806,2,0,P|290:151|268:208,1,71.9999978027344,8|0,0:0|0:0,0:0:0:0:
246,307,212137,5,0,0:0:0:0:
223,315,212219,1,0,0:0:0:0:
199,317,212301,1,0,0:0:0:0:
175,314,212384,1,0,0:0:0:0:
153,306,212466,1,0,0:0:0:0:
130,297,212548,1,0,0:0:0:0:
106,295,212630,1,0,0:0:0:0:
82,298,212713,1,0,0:0:0:0:
30,353,212795,6,0,L|30:191,1,143.999995605469,4|0,0:0|0:0,0:0:0:0:
88,146,213290,1,8,0:3:0:0:
178,172,213455,2,0,P|130:184|96:182,1,71.9999978027344,2|0,0:0|0:0,0:0:0:0:
233,84,213784,2,0,P|185:72|151:74,1,71.9999978027344,12|0,0:3|0:0,0:0:0:0:
285,169,214114,1,4,0:3:0:0:
277,182,214444,1,0,0:0:0:0:
351,113,214609,1,8,0:3:0:0:
371,214,214773,1,2,0:0:0:0:
271,197,214938,1,0,0:0:0:0:
444,139,215103,1,12,0:3:0:0:
303,297,215433,6,0,B|230:324|229:263|144:305,1,143.999995605469,4|0,0:3|0:0,0:0:0:0:
60,335,215927,1,8,0:3:0:0:
45,232,216092,2,0,L|46:317,1,71.9999978027344,2|0,0:0|0:0,0:0:0:0:
135,145,216422,2,0,L|134:230,1,71.9999978027344,12|0,0:3|0:0,0:0:0:0:
57,76,216751,2,0,P|123:42|208:73,1,143.999995605469,4|0,0:3|0:0,0:0:0:0:
228,137,217246,1,8,0:3:0:0:
488,67,217411,2,0,B|371:114|385:14|258:72,1,215.999993408203,2|0,0:0|0:3,0:0:0:0:
382,267,218070,6,0,P|389:217|305:142,1,143.999995605469,4|0,0:3|0:0,0:0:0:0:
289,237,218565,1,8,0:3:0:0:
201,284,218729,2,0,P|253:283|281:276,1,71.9999978027344,2|0,0:0|0:0,0:0:0:0:
105,184,219059,2,0,P|157:185|185:192,1,71.9999978027344,12|0,0:3|0:0,0:0:0:0:
24,333,219389,2,0,L|20:238,1,71.9999978027344,4|0,0:3|0:0,0:0:0:0:
12,98,219718,1,0,0:0:0:0:
15,183,219883,1,8,0:3:0:0:
88,52,220048,1,2,0:0:0:0:
88,139,220213,1,0,0:0:0:0:
166,95,220378,1,12,0:3:0:0:
441,200,220707,6,0,P|377:192|316:133,1,143.999995605469,4|0,0:3|0:0,0:0:0:0:
286,48,221202,1,8,0:3:0:0:
386,42,221367,2,0,L|303:36,1,71.9999978027344,2|0,0:0|0:0,0:0:0:0:
494,110,221697,2,0,L|422:115,1,71.9999978027344,12|0,0:3|0:0,0:0:0:0:
444,331,222026,2,0,P|467:280|429:189,1,143.999995605469,4|0,0:3|0:0,0:0:0:0:
376,265,222521,1,8,0:3:0:0:
305,319,222686,2,0,L|269:320,3,35.9999989013672,2|0|0|0,0:0|0:0|0:0|0:0,0:0:0:0:
211,259,223015,1,0,0:0:0:0:
208,241,223098,1,0,0:0:0:0:
205,223,223180,1,0,0:0:0:0:
202,205,223262,1,0,0:0:0:0:
199,187,223345,6,0,P|119:172|56:202,1,143.999995605469,4|0,0:0|0:0,0:0:0:0:
142,277,223839,1,8,0:3:0:0:
233,330,224004,2,0,P|182:320|147:305,1,71.9999978027344,2|0,0:0|0:0,0:0:0:0:
358,213,224334,2,0,P|307:223|272:238,1,71.9999978027344,12|0,0:3|0:0,0:0:0:0:
421,312,224664,1,4,0:3:0:0:
439,330,224993,1,0,0:0:0:0:
336,340,225158,1,8,0:3:0:0:
461,231,225323,1,2,0:0:0:0:
454,346,225488,1,0,0:0:0:0:
360,241,225653,1,12,0:3:0:0:
438,36,225982,6,0,P|402:32|275:58,1,143.999995605469,4|0,0:3|0:0,0:0:0:0:
242,123,226477,1,8,0:3:0:0:
156,141,226642,2,0,L|235:146,1,71.9999978027344,2|0,0:0|0:0,0:0:0:0:
41,74,226971,2,0,L|112:69,1,71.9999978027344,12|0,0:3|0:0,0:0:0:0:
93,291,227301,2,0,P|62:235|85:153,1,143.999995605469,4|0,0:3|0:0,0:0:0:0:
112,68,227795,1,8,0:3:0:0:
170,139,227960,2,0,B|258:102|288:178|385:128,1,215.999993408203,2|0,0:0|0:3,0:0:0:0:
460,318,228620,6,0,B|463:134,1,143.999995605469,4|0,0:3|0:0,0:0:0:0:
489,80,229114,1,8,0:3:0:0:
399,54,229279,2,0,P|434:48|470:53,1,71.9999978027344,2|0,0:0|0:0,0:0:0:0:
272,115,229609,2,0,P|307:120|343:115,1,71.9999978027344,12|0,0:3|0:0,0:0:0:0:
191,50,229938,2,0,P|173:81|201:188,1,143.999995605469,4|0,0:3|0:0,0:0:0:0:
296,209,230433,1,8,0:3:0:0:
281,311,230598,2,0,L|281:238,1,71.9999978027344,2|0,0:0|0:0,0:0:0:0:
197,366,230927,2,0,L|197:294,1,71.9999978027344,12|0,0:3|0:0,0:0:0:0:
393,203,231257,5,4,0:0:0:0:
413,195,231587,1,0,0:0:0:0:
237,81,231751,1,0,0:0:0:0:
286,299,231916,1,4,0:0:0:0:
289,320,232246,5,0,0:0:0:0:
177,192,232411,1,0,0:0:0:0:
382,360,232576,1,4,0:0:0:0:
403,369,232905,5,0,0:0:0:0:
308,134,233070,1,0,0:0:0:0:
293,343,233235,1,4,0:0:0:0:
298,366,233565,5,0,0:0:0:0:
406,164,233729,1,0,0:0:0:0:
406,164,233812,1,0,0:0:0:0:
405,163,233894,6,0,P|335:165|281:211,1,143.999995605469,4|0,0:0|0:0,0:0:0:0:
500,200,234554,2,0,P|498:129|452:75,1,143.999995605469,2|0,0:0|0:0,0:0:0:0:
360,20,235048,1,8,0:0:0:0:
360,20,235131,1,8,0:0:0:0:
359,20,235213,2,0,P|325:30|289:34,1,71.9999978027344,8|0,0:0|0:0,0:0:0:0:
280,212,235543,2,0,P|314:222|350:226,1,71.9999978027344,8|0,0:0|0:0,0:0:0:0:
316,112,235873,1,2,0:0:0:0:
164,124,236037,1,0,0:0:0:0:
40,208,236202,2,0,P|28:242|32:277,1,71.9999978027344
92,64,236532,6,0,P|157:38|226:55,1,143.999995605469,12|0,0:0|0:0,0:0:0:0:
316,248,237191,2,0,P|320:283|312:318,1,71.9999978027344,2|0,0:0|0:0,0:0:0:0:
184,280,237521,1,0,0:0:0:0:
236,180,237686,1,8,0:0:0:0:
236,180,237768,1,8,0:0:0:0:
236,180,237850,2,0,P|264:159|298:148,1,71.9999978027344,8|0,0:0|0:0,0:0:0:0:
452,152,238180,2,0,P|423:172|389:183,1,71.9999978027344,8|0,0:0|0:0,0:0:0:0:
235,179,238510,2,0,P|232:144|235:108,1,71.9999978027344,2|0,0:0|0:0,0:0:0:0:
368,24,238839,2,0,P|372:60|369:96,1,71.9999978027344
187,272,239169,6,0,P|125:303|56:287,1,143.999995605469,12|0,0:0|0:0,0:0:0:0:
260,197,239828,2,0,P|291:259|275:328,1,143.999995605469,2|0,0:0|0:0,0:0:0:0:
168,188,240323,1,8,0:0:0:0:
168,188,240405,1,8,0:0:0:0:
168,187,240488,2,0,P|181:155|207:129,1,71.9999978027344,8|0,0:0|0:0,0:0:0:0:
356,204,240817,2,0,P|342:236|316:262,1,71.9999978027344,8|0,0:0|0:0,0:0:0:0:
168,187,241147,2,0,P|132:183|97:190,2,71.9999978027344,2|0|0,0:0|0:0|0:0,0:0:0:0:
455,31,241806,6,0,P|423:94|442:161,1,143.999995605469,12|0,0:0|0:0,0:0:0:0:
497,367,242466,2,0,P|432:339|363:354,1,143.999995605469,2|0,0:0|0:0,0:0:0:0:
312,370,242905,1,0,0:0:0:0:
259,377,243015,1,0,0:0:0:0:
206,368,243125,2,0,P|171:371|135:371,1,71.9999978027344,8|8,0:0|0:0,0:0:0:0:
0,284,243455,2,0,P|35:284|71:280,1,71.9999978027344
204,180,243784,2,0,P|168:183|132:183,1,71.9999978027344,10|8,0:0|0:0,0:0:0:0:
0,56,244114,5,8,0:0:0:0:
36,56,244197,1,8,0:0:0:0:
72,56,244279,1,8,0:0:0:0:
108,56,244362,1,8,0:0:0:0:
192,92,244444,6,0,B|228:84|264:93|264:93|284:68|325:60,1,143.999995605469,12|0,0:0|0:0,0:0:0:0:
440,88,244938,1,0,0:0:0:0:
496,192,245103,2,0,B|506:229|500:264,1,71.9999978027344,2|0,0:0|0:0,0:0:0:0:
428,344,245433,1,0,0:0:0:0:
392,244,245598,1,8,0:0:0:0:
392,244,245680,1,8,0:0:0:0:
392,244,245762,2,0,L|322:264,1,71.9999978027344,8|0,0:0|0:0,0:0:0:0:
389,103,246092,2,0,L|319:123,1,71.9999978027344,8|0,0:0|0:0,0:0:0:0:
192,96,246422,5,2,0:0:0:0:
256,288,246587,1,0,0:0:0:0:
100,184,246751,1,0,0:0:0:0:
320,124,246916,1,0,0:0:0:0:
40,100,247081,6,0,P|1:159|6:230,1,143.999995605469,12|0,0:0|0:0,0:0:0:0:
100,284,247576,1,0,0:0:0:0:
256,196,247741,1,2,0:0:0:0:
180,64,247905,1,0,0:0:0:0:
206,307,248070,1,0,0:0:0:0:
152,164,248235,1,8,0:0:0:0:
152,164,248318,1,8,0:0:0:0:
152,164,248400,2,0,L|217:133,1,71.9999978027344
347,288,248729,2,0,L|281:318,1,71.9999978027344,8|0,0:0|0:0,0:0:0:0:
180,235,249059,5,2,0:0:0:0:
304,108,249224,1,0,0:0:0:0:
476,148,249389,1,0,0:0:0:0:
347,288,249554,1,0,0:0:0:0:
168,124,249718,6,0,P|96:118|28:141,1,143.999995605469,12|0,0:0|0:0,0:0:0:0:
216,248,250378,2,0,P|287:252|355:230,1,143.999995605469,2|0,0:0|0:0,0:0:0:0:
432,156,250873,1,8,0:0:0:0:
432,156,250956,1,8,0:0:0:0:
432,156,251037,2,0,P|448:187|458:222,1,71.9999978027344,8|0,0:0|0:0,0:0:0:0:
320,348,251367,2,0,P|303:316|293:281,1,71.9999978027344,8|0,0:0|0:0,0:0:0:0:
232,136,251696,2,0,B|232:104|251:67,2,71.9999978027344,2|0|0,0:0|0:0|0:0,0:0:0:0:
120,348,252356,6,0,L|144:206,1,143.999995605469,8|0,0:0|0:0,0:0:0:0:
348,132,253015,2,0,L|323:273,1,143.999995605469,2|0,0:0|0:0,0:0:0:0:
372,384,253510,1,8,0:0:0:0:
372,384,253592,1,8,0:0:0:0:
372,384,253675,2,0,P|432:348|510:345,1,143.999995605469,8|8,0:0|0:0,0:0:0:0:
424,152,254334,5,0,0:0:0:0:
396,156,254416,1,0,0:0:0:0:
367,157,254498,1,0,0:0:0:0:
339,153,254581,1,0,0:0:0:0:
311,145,254663,1,0,0:0:0:0:
285,132,254746,1,0,0:0:0:0:
262,116,254828,1,0,0:0:0:0:
241,96,254910,1,0,0:0:0:0:
196,24,254993,6,0,L|196:168,1,143.999995605469,4|0,0:0|0:0,0:0:0:0:
152,252,255488,1,8,0:3:0:0:
278,316,255653,2,0,P|243:326|208:328,1,71.9999978027344,2|0,0:0|0:0,0:0:0:0:
332,168,255982,2,0,P|307:194|276:213,1,71.9999978027344,12|0,0:3|0:0,0:0:0:0:
332,48,256312,1,4,0:3:0:0:
332,48,256642,1,0,0:0:0:0:
432,88,256806,1,8,0:3:0:0:
332,48,256971,1,2,0:0:0:0:
439,61,257136,1,0,0:0:0:0:
332,48,257301,1,12,0:3:0:0:
435,33,257466,1,0,0:0:0:0:
159,60,257631,6,0,P|98:93|78:160,1,143.999995605469,4|0,0:3|0:0,0:0:0:0:
96,252,258125,1,8,0:3:0:0:
268,192,258290,2,0,P|303:192|337:180,1,71.9999978027344,2|0,0:0|0:0,0:0:0:0:
264,320,258620,2,0,P|295:302|318:275,1,71.9999978027344,12|0,0:3|0:0,0:0:0:0:
168,315,258949,2,0,P|183:246|165:177,1,143.999995605469,4|0,0:3|0:0,0:0:0:0:
120,96,259444,1,8,0:3:0:0:
339,32,259609,2,0,P|271:51|200:39,1,143.999995605469,2|12,0:0|0:3,0:0:0:0:
336,236,260268,6,0,P|353:166|398:111,1,143.999995605469,4|0,0:3|0:0,0:0:0:0:
480,64,260763,1,8,0:3:0:0:
324,25,260927,2,0,P|360:26|396:20,1,71.9999978027344,2|0,0:0|0:0,0:0:0:0:
196,116,261257,2,0,P|231:116|267:110,1,71.9999978027344,12|0,0:3|0:0,0:0:0:0:
111,8,261587,2,0,P|107:43|114:78,1,71.9999978027344,4|0,0:3|0:0,0:0:0:0:
196,116,261916,1,0,0:0:0:0:
232,12,262081,1,8,0:3:0:0:
252,212,262246,2,0,B|260:324|260:324|279:298,1,143.999995605469,2|12,0:0|0:3,0:0:0:0:
360,252,262740,1,0,0:0:0:0:
386,42,262905,6,0,P|337:93|326:163,1,143.999995605469,4|0,0:3|0:0,0:0:0:0:
360,252,263400,1,8,0:3:0:0:
484,160,263565,2,0,L|416:136,1,71.9999978027344,2|0,0:0|0:0,0:0:0:0:
332,337,263895,2,0,L|404:332,1,71.9999978027344,12|0,0:3|0:0,0:0:0:0:
326,163,264224,2,0,B|290:99|290:99|227:63,1,143.999995605469,4|0,0:3|0:0,0:0:0:0:
136,84,264718,1,8,0:3:0:0:
138,304,264883,2,0,L|139:340,3,35.9999989013672,2|0|0|0,0:0|0:0|0:0|0:0,0:0:0:0:
99,230,265213,1,0,0:0:0:0:
115,226,265296,1,0,0:0:0:0:
131,222,265378,1,0,0:0:0:0:
147,222,265460,1,0,0:0:0:0:
160,224,265543,6,0,P|226:199|295:215,1,143.999995605469,4|0,0:3|0:0,0:0:0:0:
384,248,266037,1,8,0:3:0:0:
232,288,266202,2,0,P|237:323|249:357,1,71.9999978027344,2|0,0:0|0:0,0:0:0:0:
313,145,266532,2,0,P|307:180|295:214,1,71.9999978027344,12|0,0:3|0:0,0:0:0:0:
238,62,266862,1,4,0:3:0:0:
238,62,267191,1,0,0:0:0:0:
182,154,267356,1,8,0:3:0:0:
238,62,267521,1,2,0:0:0:0:
207,165,267686,1,0,0:0:0:0:
238,62,267850,1,12,0:3:0:0:
234,165,268015,1,0,0:0:0:0:
79,40,268180,6,0,P|56:106|71:176,1,143.999995605469,4|0,0:3|0:0,0:0:0:0:
160,145,268675,1,8,0:3:0:0:
284,251,268840,2,0,L|213:247,1,71.9999978027344,2|0,0:0|0:0,0:0:0:0:
405,335,269169,2,0,L|333:330,1,71.9999978027344,12|0,0:3|0:0,0:0:0:0:
480,240,269499,2,0,L|497:97,1,143.999995605469,4|0,0:3|0:0,0:0:0:0:
452,16,269993,1,8,0:3:0:0:
256,163,270158,2,0,P|324:144|395:154,1,143.999995605469,2|12,0:0|0:3,0:0:0:0:
184,308,270817,6,0,B|214:225|124:188|183:101,1,215.999993408203,4|8,0:3|0:3,0:0:0:0:
272,60,271477,2,0,P|276:95|271:131,1,71.9999978027344,2|0,0:0|0:0,0:0:0:0:
85,74,271806,2,0,P|79:38|84:2,1,71.9999978027344,12|0,0:3|0:0,0:0:0:0:
271,131,272136,2,0,P|335:158|396:125,1,143.999995605469,4|0,0:3|0:0,0:0:0:0:
461,56,272631,1,8,0:3:0:0:
331,87,272795,2,0,P|320:54|317:18,1,71.9999978027344,2|0,0:0|0:0,0:0:0:0:
483,217,273125,2,0,P|494:183|497:147,1,71.9999978027344,12|0,0:3|0:0,0:0:0:0:
303,331,273455,6,0,P|234:315|162:318,1,143.999995605469,4|0,0:0|0:0,0:0:0:0:
76,352,273949,1,8,0:3:0:0:
92,260,274114,2,0,P|108:190|105:118,1,143.999995605469,6|0,0:0|0:0,0:0:0:0:
156,40,274609,1,0,0:0:0:0:
300,36,274773,6,0,P|334:28|370:29,1,71.9999978027344,4|0,0:0|0:0,0:0:0:0:
308,280,275103,2,0,P|273:289|237:288,1,71.9999978027344
300,36,275433,2,0,P|325:62|341:94,1,71.9999978027344,4|0,0:0|0:0,0:0:0:0:
50,275,275763,2,0,P|66:243|92:219,1,71.9999978027344
318,184,276092,5,0,0:0:0:0:
323,197,276422,1,0,0:0:0:0:
327,210,276752,1,0,0:0:0:0:
331,223,277081,1,0,0:0:0:0:
335,236,277411,1,2,0:0:0:0:
423,112,278730,5,0,0:0:0:0:
418,125,279060,1,0,0:0:0:0:
414,138,279390,1,0,0:0:0:0:
410,151,279719,1,0,0:0:0:0:
406,164,280049,1,2,0:0:0:0:
302,58,281367,5,0,0:0:0:0:
307,71,281697,1,0,0:0:0:0:
311,84,282027,1,0,0:0:0:0:
315,97,282356,1,0,0:0:0:0:
319,110,282686,1,2,0:0:0:0:
458,87,284004,5,0,0:0:0:0:
453,100,284334,1,0,0:0:0:0:
449,113,284664,1,0,0:0:0:0:
445,126,284993,1,0,0:0:0:0:
441,140,285323,1,2,0:0:0:0:
301,164,286312,1,8,0:0:0:0:
364,0,286642,5,12,0:0:0:0:
345,13,286972,1,0,0:0:0:0:
349,26,287302,1,0,0:0:0:0:
353,39,287631,1,0,0:0:0:0:
357,52,287961,1,2,0:0:0:0:
245,56,289279,5,0,0:0:0:0:
240,69,289609,1,0,0:0:0:0:
236,82,289939,1,0,0:0:0:0:
232,95,290268,1,0,0:0:0:0:
227,108,290598,1,2,0:0:0:0:
409,152,291916,5,0,0:0:0:0:
414,165,292246,1,0,0:0:0:0:
418,178,292576,1,0,0:0:0:0:
422,191,292905,1,0,0:0:0:0:
426,204,293235,1,2,0:0:0:0:
304,242,294554,5,0,0:0:0:0:
299,255,294884,1,0,0:0:0:0:
295,268,295214,1,0,0:0:0:0:
291,281,295543,1,0,0:0:0:0:
287,294,295872,1,2,0:0:0:0:
202,223,297250,5,0,0:0:0:0:
202,223,297767,5,0,0:0:0:0:
202,223,298309,6,0,L|288:212,1,60
328,141,298631,1,0,0:0:0:0:
329,120,298774,1,0,0:0:0:0:
326,102,298917,1,0,0:0:0:0:
316,84,299060,6,0,P|279:74|240:74,1,60
201,134,299403,2,0,P|164:144|125:144,1,60
44,58,299886,6,0,P|73:60|102:69,1,60
62,213,300592,2,0,L|59:134,1,60
59,153,303716,5,0,0:0:0:0:
