osu file format v14

[General]
AudioFilename: audio.mp3
AudioLeadIn: 0
PreviewTime: 197437
Countdown: 1
SampleSet: Soft
StackLeniency: 0.5
Mode: 0
LetterboxInBreaks: 0
WidescreenStoryboard: 0

[Editor]
Bookmarks: 1197,16520,30528,45814,58043,67215,79445,91674,116133,127215,139444,148616,160845,173074,197533,219697,248166,254280,276444,282558,307017,319246
DistanceSpacing: 0.7
BeatDivisor: 4
GridSize: 8
TimelineZoom: 2.13

[Metadata]
Title:EXEC_PAJA/.#Orica extracting.
TitleUnicode:EXEC_PAJA/.#Orica extracting.
Artist:Shimotsuki Haruka
ArtistUnicode:霜月はるか
Creator:Mir
Version:Wish
Source:アルトネリコ ~世界の終わりで詩い続ける少女~
Tags:ar tonelico melody of elemia Aurica Nestmile The Girl Who Continues to Sing at the End of the World Sekai no Owari de Utai Tsuzukeru Shoujo 彌紗・アルトセルク・リューン jrpg gust best game hymn Tsuchiya Akira土屋 暁 purger
BeatmapID:1398077
BeatmapSetID:660238

[Difficulty]
HPDrainRate:5
CircleSize:4.5
OverallDifficulty:8
ApproachRate:9
SliderMultiplier:2.3
SliderTickRate:1

[Events]
//Background and Video events
0,0,"polychrome nether.jpg",0,0
//Break Periods
//Storyboard Layer 0 (Background)
//Storyboard Layer 1 (Fail)
//Storyboard Layer 2 (Pass)
//Storyboard Layer 3 (Foreground)
//Storyboard Sound Samples

[TimingPoints]
1259,1191.65839126117,4,2,99,21,1,0
2451,1132.07547169811,4,2,90,13,1,0
2734,967.741935483871,4,2,90,15,1,0
2975,-100,4,2,90,20,0,0
3217,789.473684210526,4,2,90,25,1,0
3414,869.565217391304,4,2,90,25,1,0
3633,1034.48275862069,4,2,90,20,1,0
3891,1276.59574468085,4,2,90,16,1,0
4210,1714.28571428571,4,2,90,13,1,0
4638,1818.18181818182,4,2,90,13,1,0
5092,1538.46153846154,4,2,90,17,1,0
5476,1224.48979591837,4,2,90,15,1,0
5782,1176.47058823529,4,2,90,22,1,0
6074,869.565217391304,4,2,90,18,1,0
6291,697.674418604651,4,2,90,14,1,0
6465,869.565217391304,4,2,90,20,1,0
6682,769.230769230769,4,2,90,23,1,0
6874,1000,4,2,90,25,1,0
7124,1090.90909090909,4,2,90,27,1,0
7396,1224.48979591837,4,2,90,19,1,0
8008,1538.46153846154,4,2,90,20,1,0
8392,1818.18181818182,4,2,90,23,1,0
8846,1428.57142857143,4,2,90,23,1,0
9203,1176.4705882353,4,2,90,20,1,0
9497,952.380952380952,4,2,90,22,1,0
9973,937.5,4,2,90,26,1,0
10207,674.157303370787,4,2,90,29,1,0
10544,659.34065934066,4,2,90,29,1,0
10711,571.428571428571,4,2,90,31,1,0
10853,681.818181818182,4,2,90,31,1,0
11364,1034.48275862069,4,2,90,25,1,0
11881,1090.90909090909,4,2,90,23,1,0
12154,1200,4,2,90,25,1,0
12454,1276.59574468085,4,2,90,20,1,0
12773,1200,4,2,90,20,1,0
13073,1714.28571428571,4,2,90,16,1,0
13501,1840.49079754601,4,2,90,16,1,0
13961,2500,4,2,90,13,1,0
14586,4000,4,2,90,13,1,0
16582,3478.26086956522,4,2,99,15,1,0
18321,983.606557377049,4,2,90,20,1,0
18566,869.565217391304,4,2,90,20,1,0
18785,779.220779220779,4,2,90,23,1,0
18979,952.380952380952,4,2,90,23,1,0
19217,1111.11111111111,4,2,90,26,1,0
19494,1153.84615384615,4,2,90,26,1,0
20359,909.090909090909,4,2,90,25,1,0
20586,750,4,2,90,20,1,0
20773,952.380952380952,4,2,90,20,1,0
21011,845.070422535211,4,2,90,24,1,0
21433,882.352941176471,4,2,90,20,1,0
21874,1153.84615384616,4,2,90,23,1,0
22162,1016.94915254237,4,2,90,23,1,0
22416,1200,4,2,90,20,1,0
22716,1153.84615384615,4,2,90,20,1,0
23004,1071.42857142857,4,2,90,23,1,0
23272,1690.14084507042,4,2,90,25,1,0
23694,2086.95652173913,4,2,90,27,1,0
24217,857.142857142856,4,2,90,25,1,0
24431,779.220779220778,4,2,90,26,1,0
25015,491.803278688524,4,2,90,30,1,0
25137,540.540540540541,4,2,90,31,1,0
25272,606.060606060606,4,2,90,32,1,0
25423,722.89156626506,4,2,90,34,1,0
25965,967.741935483871,4,2,90,29,1,0
26206,1071.42857142857,4,2,90,26,1,0
26473,1304.34782608696,4,2,90,24,1,0
26799,1538.46153846154,4,2,90,22,1,0
27183,1818.18181818182,4,2,90,20,1,0
27637,1463.41463414634,4,2,90,16,1,0
28002,647.249190938511,4,2,90,5,1,0
30590,382.165605095541,4,2,1,41,1,0
30590,-166.666666666667,4,2,1,41,0,0
36704,-125,4,2,1,53,0,0
45876,-125,4,2,1,50,0,0
56577,-125,4,2,2,30,0,0
56959,-125,4,2,2,50,0,0
57341,-125,4,2,2,53,0,0
58105,-125,4,2,1,55,0,0
65749,-125,4,2,2,55,0,0
67277,-125,4,2,1,55,0,0
77978,-125,4,2,2,55,0,0
78742,-125,4,2,1,55,0,0
79125,-125,4,2,2,55,0,0
79507,-125,4,2,3,60,0,0
90207,-125,4,2,2,60,0,0
90589,-125,4,2,3,60,0,0
90685,-125,4,2,2,60,0,0
90972,-125,4,2,3,60,0,0
91067,-125,4,2,2,60,0,0
91354,-125,4,2,3,60,0,0
91450,-125,4,2,2,60,0,0
91736,-166.666666666667,4,2,4,70,0,0
115048,-166.666666666667,4,2,2,60,0,0
116195,382.165605095541,7,2,4,80,1,1
116195,-83.3333333333333,7,2,4,80,0,1
124220,382.165605095541,4,2,4,80,1,1
124220,-83.3333333333333,4,2,4,80,0,1
125366,-71.4285714285714,4,2,4,80,0,1
127277,-125,4,2,1,50,0,0
137977,-125,4,2,2,30,0,0
138359,-125,4,2,2,45,0,0
138741,-125,4,2,2,50,0,0
139506,-125,4,2,1,60,0,0
147149,-125,4,2,2,60,0,0
148678,-125,4,2,1,60,0,0
159378,-125,4,2,2,60,0,0
160143,-125,4,2,1,60,0,0
160525,-125,4,2,2,60,0,0
160907,-125,4,2,3,60,0,0
171608,-125,4,2,2,60,0,0
171990,-125,4,2,3,60,0,0
172085,-125,4,2,2,60,0,0
172372,-125,4,2,3,60,0,0
172468,-125,4,2,2,60,0,0
172754,-125,4,2,3,60,0,0
172850,-125,4,2,2,60,0,0
173136,-166.666666666667,4,2,4,55,0,0
196448,-166.666666666667,4,2,4,60,0,0
196831,-166.666666666667,4,2,2,55,0,0
197595,382.165605095541,7,2,4,80,1,1
197595,-83.3333333333333,7,2,4,80,0,1
205620,382.165605095541,4,2,4,80,1,1
205620,-83.3333333333333,4,2,4,80,0,1
208677,382.165605095541,7,2,4,80,1,1
208677,-83.3333333333333,7,2,4,80,0,1
216702,382.165605095541,4,2,4,80,1,1
216702,-83.3333333333333,4,2,4,80,0,1
217848,-71.4285714285714,4,2,4,80,0,1
219759,-125,4,2,4,65,0,0
223198,382.165605095541,3,2,4,65,1,0
223198,-125,3,2,4,65,0,0
225490,382.165605095541,4,2,4,65,1,0
225490,-125,4,2,4,65,0,0
228548,-125,4,2,4,65,0,0
231987,382.165605095541,3,2,4,65,1,0
231987,-125,3,2,4,65,0,0
234279,382.165605095541,4,2,4,65,1,0
234279,-125,4,2,4,65,0,0
237528,382.165605095541,7,2,4,60,1,0
237528,-125,7,2,4,60,0,0
240203,382.165605095541,3,2,4,60,1,0
240203,-125,3,2,4,60,0,0
242496,382.165605095541,7,2,4,60,1,0
242496,-125,4,2,4,60,0,0
245171,382.165605095541,4,2,4,60,1,0
245171,-125,4,2,4,60,0,0
247846,-50,4,2,1,55,0,0
248228,468.75,4,2,98,100,1,0
248228,-50,4,2,98,100,0,0
248696,400,4,2,1,20,1,0
248696,-200,4,2,1,20,0,0
248896,472.44094488189,4,2,1,20,1,0
249368,588.235294117647,4,2,1,20,1,0
249368,-200,4,2,1,20,0,0
249809,779.220779220779,4,2,1,20,1,0
249809,-200,4,2,1,20,0,0
250003,705.882352941176,4,2,1,20,1,0
250003,-200,4,2,1,20,0,0
250708,689.655172413793,4,2,1,20,1,0
250708,-200,4,2,1,20,0,0
252087,751.87969924812,4,2,1,5,1,0
252274,-100,4,2,1,7,0,0
252462,-100,4,2,1,9,0,0
252650,-100,4,2,97,11,0,0
252838,-100,4,2,97,13,0,0
253026,-100,4,2,97,15,0,0
253214,-100,4,2,97,17,0,0
253402,-100,4,2,97,25,0,0
253590,-100,4,2,97,55,0,0
253778,-100,4,2,97,75,0,0
253966,-100,4,2,97,100,0,0
254342,382.165605095541,7,2,4,80,1,1
254342,-83.3333333333333,7,2,4,80,0,1
262367,382.165605095541,8,2,4,80,1,1
262367,-83.3333333333333,7,2,4,80,0,1
265424,382.165605095541,7,2,4,80,1,1
265424,-83.3333333333333,7,2,4,80,0,1
273449,382.165605095541,8,2,4,80,1,1
273449,-83.3333333333333,7,2,4,80,0,1
274595,-71.4285714285714,7,2,4,80,0,1
276506,382.165605095541,4,2,1,55,1,0
276506,-125,4,2,1,55,0,0
281091,-125,4,2,96,55,0,0
281856,-125,4,2,1,55,0,0
282620,-166.666666666667,4,2,4,55,0,0
293512,-166.666666666667,4,2,96,55,0,0
293703,-166.666666666667,4,2,4,55,0,0
307079,-200,4,2,5,50,0,0
319308,-200,4,2,5,40,0,0

[Colours]
Combo1 : 222,152,152
Combo2 : 233,176,247
Combo3 : 176,234,180

[HitObjects]
169,46,1258,5,4,0:0:0:0:
206,74,2451,6,0,P|211:108|202:148,1,57.5,0|0,0:0|0:0,0:0:0:0:
145,175,2975,2,0,P|128:219|126:242,1,57.5,0|0,0:0|0:0,0:0:0:0:
170,304,3414,1,0,0:0:0:0:
239,248,3632,1,0,0:0:0:0:
317,298,3891,2,0,P|369:298|386:297,1,57.5,0|0,0:0|0:0,0:0:0:0:
443,239,4638,6,0,P|458:273|461:304,1,57.5,0|0,0:0|0:0,0:0:0:0:
359,203,5476,2,0,P|364:174|379:149,1,57.5,0|0,0:0|0:0,0:0:0:0:
430,69,6074,6,0,L|362:72,1,57.5,0|0,0:0|0:0,0:0:0:0:
292,33,6465,2,0,L|234:30,1,57.5
170,87,6874,2,0,L|112:89,1,57.5,0|0,0:0|0:0,0:0:0:0:
33,64,7395,1,0,0:0:0:0:
50,155,7702,1,0,0:0:0:0:
71,237,8008,6,0,P|76:281|67:311,1,57.5,0|0,0:0|0:0,0:0:0:0:
103,368,8846,2,0,P|98:324|107:294,1,57.5,0|0,0:0|0:0,0:0:0:0:
201,289,9497,6,0,L|276:291,1,57.5,0|0,0:0|0:0,0:0:0:0:
329,310,9973,2,0,L|254:312,1,57.5,0|0,0:0|0:0,0:0:0:0:
255,91,10375,6,0,P|266:127|261:154,1,57.5,0|0,0:0|0:0,0:0:0:0:
242,215,10711,2,0,P|240:186|250:159,1,57.5,0|0,0:0|0:0,0:0:0:0:
373,103,11023,5,0,0:0:0:0:
435,169,11192,1,0,0:0:0:0:
453,253,11364,6,0,P|455:294|443:327,1,57.5,0|0,0:0|0:0,0:0:0:0:
363,274,11880,1,0,0:0:0:0:
294,332,12153,1,0,0:0:0:0:
214,285,12454,6,0,P|206:241|210:213,1,57.5,0|0,0:0|0:0,0:0:0:0:
260,161,13073,2,0,P|268:117|264:89,1,57.5,0|0,0:0|0:0,0:0:0:0:
183,77,13961,2,0,P|175:33|180:1,1,57.5,0|0,0:0|0:0,0:0:0:0:
169,46,16582,5,4,0:0:0:0:
181,60,18321,6,0,L|238:65,1,57.5,0|0,0:0|0:0,0:0:0:0:
308,123,18785,2,0,L|371:117,1,57.5,0|0,0:0|0:0,0:0:0:0:
476,192,19217,2,0,L|413:186,1,57.5,0|0,0:0|0:0,0:0:0:0:
246,258,19781,5,0,0:0:0:0:
337,257,20069,1,0,0:0:0:0:
350,341,20359,2,0,P|300:345|281:339,1,57.5,0|0,0:0|0:0,0:0:0:0:
214,320,20773,2,0,P|242:315|270:322,1,57.5,0|0,0:0|0:0,0:0:0:0:
132,357,21221,6,0,P|126:316|138:281,1,57.5,0|0,0:0|0:0,0:0:0:0:
153,212,21653,2,0,P|156:240|150:268,1,57.5,0|0,0:0|0:0,0:0:0:0:
107,128,22162,2,0,L|176:124,1,57.5,0|0,0:0|0:0,0:0:0:0:
227,69,22716,2,0,L|284:72,1,57.5,0|0,0:0|0:0,0:0:0:0:
329,140,23272,2,0,L|386:136,1,57.5,0|0,0:0|0:0,0:0:0:0:
465,99,24217,6,0,P|473:137|465:168,1,57.5,0|0,0:0|0:0,0:0:0:0:
418,217,24625,1,0,0:0:0:0:
443,305,24820,1,0,0:0:0:0:
361,360,25015,6,0,L|297:355,1,57.5,0|0,0:0|0:0,0:0:0:0:
204,279,25272,2,0,L|268:274,1,57.5,0|0,0:0|0:0,0:0:0:0:
315,190,25603,2,0,L|251:185,1,57.5,0|0,0:0|0:0,0:0:0:0:
169,110,25965,2,0,L|233:105,1,57.5,0|0,0:0|0:0,0:0:0:0:
311,33,26473,2,0,L|247:28,1,57.5,0|0,0:0|0:0,0:0:0:0:
114,15,27183,2,0,L|178:10,1,57.5,0|0,0:0|0:0,0:0:0:0:
256,192,28001,12,0,30428,0:0:0:0:
134,100,30590,6,0,L|224:94,1,68.9999978942872,6|0,0:0|0:0,0:0:0:0:
268,128,30876,2,0,L|215:124,1,34.4999989471436,2|8,0:0|0:0,0:0:0:0:
173,192,31163,2,0,L|175:293,1,68.9999978942872,2|0,0:0|0:0,0:0:0:0:
174,284,31449,1,2,0:0:0:0:
174,308,31545,1,8,0:0:0:0:
277,319,31736,2,0,L|277:364,2,34.4999989471436,0|2|2,0:0|0:0|0:0,0:0:0:0:
174,260,32118,5,2,0:0:0:0:
277,299,32309,2,0,P|335:301|372:292,1,68.9999978942872,8|0,0:0|0:0,0:0:0:0:
368,290,32596,1,2,0:0:0:0:
387,276,32691,1,2,0:0:0:0:
315,172,32882,2,0,L|315:137,2,34.4999989471436,2|0|8,0:0|0:0|0:0,0:0:0:0:
395,257,33265,1,0,0:0:0:0:
209,181,33456,2,0,L|209:238,1,34.4999989471436,8|0,0:3|0:0,0:0:0:0:
156,290,33647,6,0,L|122:295,2,34.4999989471436,4|0|0,0:3|0:0|0:0,0:0:0:0:
190,297,33933,2,0,L|184:338,1,34.4999989471436,0|8,0:0|0:0,0:0:0:0:
43,308,34220,1,2,0:0:0:0:
156,290,34411,1,2,0:0:0:0:
270,272,34602,1,8,0:0:0:0:
151,122,34793,5,0,0:0:0:0:
135,140,34888,1,2,0:0:0:0:
127,162,34984,1,2,0:0:0:0:
128,186,35079,1,0,0:0:0:0:
139,208,35175,1,2,0:0:0:0:
209,177,35367,1,8,0:0:0:0:
151,122,35558,5,0,0:0:0:0:
135,140,35653,1,2,0:0:0:0:
127,162,35749,1,2,0:0:0:0:
128,186,35844,1,0,0:0:0:0:
139,208,35940,1,2,0:0:0:0:
285,182,36132,1,8,0:0:0:0:
156,290,36322,1,0,0:0:0:0:
280,97,36513,1,0,0:0:0:0:
46,152,36704,6,0,P|106:130|167:132,1,92,6|0,0:0|0:0,0:0:0:0:
210,147,36991,2,0,L|161:152,1,46,2|0,0:0|0:0,0:0:0:0:
265,232,37277,1,0,0:0:0:0:
297,232,37373,1,0,0:0:0:0:
330,232,37468,6,0,P|339:302|307:332,1,92,8|0,0:3|0:0,0:0:0:0:
309,327,37755,2,0,P|353:314|409:354,1,92,4|0,0:3|0:0,0:0:0:0:
413,357,38042,1,0,0:0:0:0:
202,301,38233,5,4,0:3:0:0:
427,191,38519,2,0,P|369:161|287:189,1,138,4|0,0:3|0:0,0:0:0:0:
150,199,38997,5,8,0:3:0:0:
181,205,39093,1,8,0:3:0:0:
212,210,39188,1,4,0:3:0:0:
33,243,39379,1,2,0:0:0:0:
33,243,39761,6,0,P|29:173|54:132,1,92,2|0,0:0|0:0,0:0:0:0:
34,92,40048,2,0,P|46:135|37:168,1,46,2|0,0:0|0:0,0:0:0:0:
106,204,40335,1,0,0:0:0:0:
171,61,40526,5,8,0:3:0:0:
149,302,40812,2,0,B|240:282|249:340|343:300,1,184,4|0,0:3|0:0,0:0:0:0:
351,298,41290,5,4,0:3:0:0:
187,374,41577,2,0,P|151:323|49:325,1,138,4|0,0:3|0:0,0:0:0:0:
87,172,42054,1,8,0:3:0:0:
105,198,42149,1,8,0:3:0:0:
123,224,42245,1,8,0:0:0:0:
51,120,42437,1,8,0:3:0:0:
69,146,42532,1,8,0:3:0:0:
87,172,42628,1,4,0:3:0:0:
326,102,42819,6,0,P|268:97|215:139,1,92,2|0,0:0|0:0,0:0:0:0:
228,179,43105,2,0,L|228:124,1,46,2|0,0:0|0:0,0:0:0:0:
196,34,43392,1,0,0:0:0:0:
116,122,43583,2,0,P|58:101|38:60,1,92,8|0,0:3|0:0,0:0:0:0:
25,61,43870,2,0,L|23:195,1,92,4|0,0:3|0:0,0:0:0:0:
24,175,44156,1,0,0:0:0:0:
205,236,44347,5,4,0:3:0:0:
27,328,44634,2,0,B|94:307|87:358|162:332,1,138,4|0,0:3|0:0,0:0:0:0:
287,79,45112,5,8,0:0:0:0:
275,108,45207,1,8,0:0:0:0:
272,140,45303,1,8,0:0:0:0:
280,172,45398,1,8,0:0:0:0:
315,193,45494,5,4,0:3:0:0:
332,218,45589,1,4,0:3:0:0:
340,249,45684,1,4,0:3:0:0:
337,281,45780,1,4,0:3:0:0:
292,315,45876,6,0,P|367:304|398:318,1,92,4|0,0:0|0:0,0:0:0:0:
408,324,46163,1,2,0:0:0:0:
432,341,46258,1,8,0:3:0:0:
373,383,46449,1,4,0:3:0:0:
440,135,46640,2,0,P|458:197|442:232,1,92,4|0,0:3|0:0,0:0:0:0:
417,214,46927,2,0,L|296:213,1,92,4|0,0:3|0:0,0:0:0:0:
298,231,47214,1,2,0:0:0:0:
226,38,47405,6,0,L|221:155,1,92,4|0,0:3|0:0,0:0:0:0:
190,136,47691,2,0,P|123:122|58:139,1,92,8|0,0:3|0:0,0:0:0:0:
71,138,47978,1,2,0:0:0:0:
135,281,48169,1,8,0:3:0:0:
147,251,48265,1,8,0:3:0:0:
162,223,48360,1,8,0:0:0:0:
108,339,48551,1,8,0:3:0:0:
120,309,48647,1,8,0:3:0:0:
135,281,48742,1,4,0:3:0:0:
359,271,48933,6,0,P|294:293|237:275,1,92,2|0,0:0|0:0,0:0:0:0:
241,280,49220,2,0,L|249:154,1,92,4|0,0:3|0:0,0:0:0:0:
268,164,49507,1,4,0:3:0:0:
101,87,49698,2,0,P|183:99|221:79,1,92,8|0,0:3|0:0,0:0:0:0:
213,75,49984,1,8,0:3:0:0:
238,55,50080,2,0,L|301:62,1,46,0|0,0:0|0:0,0:0:0:0:
381,127,50271,2,0,L|318:134,1,46,4|0,0:3|0:0,0:0:0:0:
493,77,50462,6,0,L|490:202,1,92,4|0,0:3|0:0,0:0:0:0:
461,181,50749,2,0,L|464:306,1,92,8|0,0:3|0:0,0:0:0:0:
465,304,51035,1,2,0:0:0:0:
323,298,51226,5,10,0:0:0:0:
290,297,51322,1,10,0:0:0:0:
257,296,51418,1,10,0:0:0:0:
224,295,51513,1,10,0:0:0:0:
189,317,51609,5,12,0:3:0:0:
156,316,51704,1,12,0:3:0:0:
123,316,51800,1,12,0:3:0:0:
90,316,51895,1,4,0:3:0:0:
66,338,51991,6,0,P|61:271|88:223,1,92,2|0,0:0|0:0,0:0:0:0:
90,225,52277,2,0,P|95:158|68:110,1,92,2|0,0:0|0:0,0:0:0:0:
72,107,52564,1,4,0:3:0:0:
194,104,52755,2,0,L|317:100,1,92,8|0,0:3|0:0,0:0:0:0:
312,119,53042,2,0,L|403:121,1,92,8|0,0:3|0:0,0:0:0:0:
435,124,53328,1,2,0:0:0:0:
337,377,53519,6,0,P|336:313|368:275,1,92,4|0,0:3|0:0,0:0:0:0:
374,270,53806,2,0,P|375:206|343:168,1,92,8|0,0:3|0:0,0:0:0:0:
329,181,54093,1,12,0:3:0:0:
156,268,54284,1,8,0:3:0:0:
187,263,54379,1,8,0:3:0:0:
219,258,54475,1,8,0:0:0:0:
93,278,54666,1,8,0:3:0:0:
124,273,54761,1,8,0:3:0:0:
156,268,54857,1,4,0:3:0:0:
179,63,55048,6,0,P|136:99|126:163,1,92,4|0,0:3|0:0,0:0:0:0:
128,163,55335,2,0,L|244:165,1,92,8|0,0:3|0:0,0:0:0:0:
245,183,55621,1,4,0:3:0:0:
402,106,55812,2,0,P|383:129|381:207,1,92,8|0,0:3|0:0,0:0:0:0:
399,210,56099,2,0,P|418:233|422:311,1,92,2|0,0:0|0:0,0:0:0:0:
412,321,56386,1,4,0:3:0:0:
309,315,56577,5,8,0:0:0:0:
295,315,56672,1,8,0:0:0:0:
281,315,56768,1,8,0:0:0:0:
267,315,56863,1,8,0:0:0:0:
244,288,56959,5,8,0:0:0:0:
223,288,57054,1,8,0:0:0:0:
202,288,57150,1,8,0:0:0:0:
181,288,57245,1,8,0:0:0:0:
157,308,57341,6,0,L|158:352,3,30.6666666666667
94,272,57628,1,8,0:0:0:0:
73,262,57723,6,0,L|26:250,5,30.6666666666667
126,190,58105,6,0,P|148:130|138:78,1,92,6|0,0:0|0:0,0:0:0:0:
134,72,58392,2,0,P|198:88|245:52,1,92,2|0,0:0|0:0,0:0:0:0:
244,57,58679,1,2,0:0:0:0:
330,14,58870,2,0,P|343:59|308:130,1,92,8|0,0:3|0:0,0:0:0:0:
312,126,59156,2,0,L|431:134,1,92,4|0,0:3|0:0,0:0:0:0:
427,153,59443,1,4,0:3:0:0:
512,122,59634,5,4,0:3:0:0:
379,340,59921,2,0,B|316:319|316:366|218:337,1,138,4|0,0:3|0:0,0:0:0:0:
156,237,60398,1,8,0:3:0:0:
166,267,60494,1,8,0:3:0:0:
175,297,60589,1,8,0:0:0:0:
137,177,60781,1,8,0:3:0:0:
147,207,60877,1,8,0:3:0:0:
156,237,60972,1,4,0:3:0:0:
66,108,61163,6,0,P|117:83|188:94,1,92,2|0,0:0|0:0,0:0:0:0:
178,99,61449,2,0,P|229:124|300:113,1,92,2|0,0:0|0:0,0:0:0:0:
289,105,61736,1,2,0:0:0:0:
392,273,61927,2,0,L|387:154,1,92,8|0,0:3|0:0,0:0:0:0:
415,164,62214,2,0,L|420:45,1,92,4|0,0:3|0:0,0:0:0:0:
421,40,62500,1,4,0:3:0:0:
263,124,62691,6,0,L|260:228,1,92,4|0,0:3|0:0,0:0:0:0:
266,247,62978,2,0,P|205:281|164:273,1,92,8|0,0:3|0:0,0:0:0:0:
159,260,63265,1,8,0:3:0:0:
63,176,63456,5,8,0:0:0:0:
66,144,63551,1,8,0:0:0:0:
69,111,63647,1,8,0:0:0:0:
72,79,63742,1,8,0:0:0:0:
44,62,63838,5,8,0:0:0:0:
75,60,63933,1,8,0:0:0:0:
107,58,64029,1,8,0:0:0:0:
139,56,64125,1,8,0:0:0:0:
162,77,64220,6,0,P|234:82|279:55,1,92,2|0,0:0|0:0,0:0:0:0:
271,50,64507,2,0,P|256:103|276:158,1,92,2|0,0:0|0:0,0:0:0:0:
280,165,64793,1,2,0:0:0:0:
425,25,64984,5,8,0:3:0:0:
312,257,65271,2,0,B|240:277|244:225|153:264,1,138,4|0,0:3|0:0,0:0:0:0:
57,339,65749,5,8,0:0:0:0:
86,276,65844,1,8,0:0:0:0:
34,162,66035,5,8,0:3:0:0:
34,162,66131,1,8,0:3:0:0:
103,48,66322,1,4,0:3:0:0:
172,164,66513,6,0,L|174:133,2,30.6666666666667,8|8|8,0:0|0:0|0:0,0:0:0:0:
256,184,66704,1,8,0:0:0:0:
256,184,66800,1,8,0:0:0:0:
256,184,66895,6,0,L|251:225,2,30.6666666666667,8|8|8,0:0|0:0|0:0,0:0:0:0:
339,171,67086,2,0,L|343:213,2,30.6666666666667,8|8|8,0:0|0:0|0:0,0:0:0:0:
366,99,67277,6,0,P|425:102|483:61,1,92,6|0,0:0|0:0,0:0:0:0:
468,24,67564,2,0,L|474:84,1,46,2|0,0:0|0:0,0:0:0:0:
275,89,67851,1,2,0:0:0:0:
293,277,68042,2,0,L|393:271,1,92,8|0,0:3|0:0,0:0:0:0:
401,244,68328,2,0,L|492:249,1,92,4|0,0:3|0:0,0:0:0:0:
510,276,68615,2,0,P|514:298|510:324,1,46,4|0,0:3|0:0,0:0:0:0:
273,365,68806,6,0,P|234:345|206:291,1,92,4|0,0:3|0:0,0:0:0:0:
202,273,69093,1,2,0:0:0:0:
207,241,69188,1,2,0:0:0:0:
114,340,69379,1,8,0:3:0:0:
225,157,69570,2,0,L|119:153,1,92,8|0,0:3|0:0,0:0:0:0:
120,183,69857,2,0,L|28:186,1,92,2|0,0:0|0:0,0:0:0:0:
7,161,70144,1,2,0:0:0:0:
228,57,70335,6,0,P|314:66|351:55,1,92,2|0,0:0|0:0,0:0:0:0:
379,24,70621,2,0,L|320:39,1,46,2|0,0:0|0:0,0:0:0:0:
450,68,70908,1,2,0:0:0:0:
332,272,71099,2,0,L|337:169,1,92,8|0,0:3|0:0,0:0:0:0:
363,161,71386,1,4,0:3:0:0:
389,143,71481,1,0,0:0:0:0:
227,224,71672,1,2,0:0:0:0:
197,211,71768,1,0,0:0:0:0:
167,198,71863,5,6,0:0:0:0:
90,67,72054,2,0,L|94:127,1,46,0|2,0:0|0:0,0:0:0:0:
205,118,72246,2,0,P|147:112|93:145,1,92,0|2,0:3|0:0,0:0:0:0:
0,284,72628,2,0,L|98:277,1,92,8|0,0:3|0:0,0:0:0:0:
107,249,72914,2,0,L|103:309,1,46,2|0,0:0|0:0,0:0:0:0:
53,375,73201,1,2,0:0:0:0:
59,170,73392,6,0,P|112:158|179:182,1,92,4|0,0:3|0:0,0:0:0:0:
214,202,73679,2,0,L|155:195,1,46,2|0,0:0|0:0,0:0:0:0:
293,253,73965,1,2,0:0:0:0:
367,12,74156,2,0,L|377:139,1,92,8|0,0:3|0:0,0:0:0:0:
404,115,74443,2,0,L|394:242,1,92,4|0,0:3|0:0,0:0:0:0:
392,238,74730,1,4,0:3:0:0:
180,298,74921,6,0,P|233:302|287:313,1,92,6|0,0:0|0:0,0:0:0:0:
301,320,75207,1,2,0:0:0:0:
330,333,75303,1,2,0:0:0:0:
257,222,75494,1,2,0:0:0:0:
108,246,75685,2,0,P|88:322|117:376,2,138,4|4|0,0:3|0:3|0:3,0:0:0:0:
271,108,76449,6,0,L|72:111,1,184,4|2,0:3|0:0,0:0:0:0:
248,224,77023,1,2,0:3:0:0:
278,214,77118,1,0,0:0:0:0:
309,206,77214,2,0,P|341:265|341:312,1,92,8|0,0:3|0:0,0:0:0:0:
344,320,77500,2,0,P|386:281|435:271,1,92,8|0,0:3|0:0,0:0:0:0:
450,274,77787,1,12,0:3:0:0:
420,71,77978,5,8,0:0:0:0:
491,56,78074,1,8,0:0:0:0:
332,47,78265,5,0,0:0:0:0:
332,47,78360,2,0,L|264:36,2,46,8|8|0,0:0|0:0|0:0,0:0:0:0:
313,199,78742,5,2,0:0:0:0:
333,224,78837,1,2,0:0:0:0:
343,254,78933,1,2,0:0:0:0:
344,287,79028,1,2,0:0:0:0:
335,317,79125,6,0,P|328:327|308:347,2,30.6666666666667,8|8|8,0:0|0:0|0:0,0:0:0:0:
264,277,79316,2,0,P|253:265|244:253,2,30.6666666666667,8|8|8,0:0|0:0|0:0,0:0:0:0:
176,303,79507,6,0,L|170:197,1,92,4|0,0:0|0:0,0:0:0:0:
333,224,79793,1,2,0:0:0:0:
376,224,79889,2,0,L|445:225,1,46,8|0,0:0|0:0,0:0:0:0:
415,82,80080,2,0,P|352:89|310:137,1,92,2|0,0:0|0:0,0:0:0:0:
317,134,80367,1,0,0:0:0:0:
317,166,80462,1,8,0:0:0:0:
394,268,80653,2,0,L|400:153,1,92,2|2,0:0|0:0,0:0:0:0:
309,312,80940,1,0,0:0:0:0:
282,329,81035,6,0,B|216:309|212:366|118:322,1,138,2|2,0:0|0:0,0:0:0:0:
116,321,81418,1,8,0:0:0:0:
218,147,81609,2,0,P|236:199|207:247,1,92,2|0,0:0|0:0,0:0:0:0:
199,252,81895,1,0,0:0:0:0:
166,255,81991,1,8,0:0:0:0:
28,117,82182,2,0,L|140:123,1,92,0|2,0:0|0:0,0:0:0:0:
248,49,82468,1,2,0:0:0:0:
278,39,82564,6,0,P|351:62|377:93,1,92,2|0,0:0|0:0,0:0:0:0:
366,176,82851,1,2,0:0:0:0:
387,200,82946,2,0,L|467:203,1,46,8|0,0:0|0:0,0:0:0:0:
494,126,83137,1,2,0:0:0:0:
285,137,83328,1,0,0:0:0:0:
268,164,83424,1,0,0:0:0:0:
252,191,83519,1,8,0:0:0:0:
278,39,83711,1,2,0:0:0:0:
387,200,83902,1,2,0:0:0:0:
200,110,84093,6,0,P|121:107|80:130,1,92,2|0,0:0|0:0,0:0:0:0:
42,178,84379,1,2,0:0:0:0:
56,206,84475,2,0,L|58:251,1,46,8|0,0:0|0:0,0:0:0:0:
24,337,84666,1,2,0:0:0:0:
158,309,84857,2,0,L|160:263,1,46,2|2,0:0|0:0,0:0:0:0:
259,178,85048,1,10,0:0:0:0:
290,170,85143,1,2,0:0:0:0:
322,171,85239,1,2,0:0:0:0:
352,180,85334,1,2,0:0:0:0:
379,197,85430,1,8,0:3:0:0:
401,221,85525,1,8,0:3:0:0:
415,250,85621,6,0,P|440:191|434:148,1,92,2|0,0:0|0:0,0:0:0:0:
383,66,85908,1,2,0:0:0:0:
352,77,86004,2,0,L|274:74,1,46,8|0,0:0|0:0,0:0:0:0:
138,51,86195,2,0,P|184:65|230:127,1,92,2|0,0:0|0:0,0:0:0:0:
227,124,86481,1,0,0:0:0:0:
227,156,86577,1,8,0:0:0:0:
40,155,86768,2,0,L|152:144,1,92,2|2,0:0|0:0,0:0:0:0:
228,247,87150,6,0,P|229:292|251:332,1,92,2|0,0:0|0:0,0:0:0:0:
347,290,87437,1,2,0:0:0:0:
363,262,87532,2,0,L|475:251,2,92,8|2|0,0:0|0:0|0:0,0:0:0:0:
314,162,88010,1,0,0:0:0:0:
332,136,88105,2,0,L|337:78,1,46,8|0,0:0|0:0,0:0:0:0:
266,56,88297,1,0,0:0:0:0:
414,167,88488,1,2,0:0:0:0:
206,125,88679,6,0,P|160:125|86:149,1,92,2|0,0:0|0:0,0:0:0:0:
6,184,88965,1,2,0:0:0:0:
28,160,89061,2,0,L|26:84,1,46,8|0,0:0|0:0,0:0:0:0:
159,218,89252,2,0,L|147:344,1,92,2|0,0:0|0:0,0:0:0:0:
253,352,89539,1,0,0:0:0:0:
278,333,89634,2,0,P|324:333|398:357,1,92,8|2,0:0|0:0,0:0:0:0:
461,376,90016,1,2,0:0:0:0:
252,248,90207,5,8,0:0:0:0:
237,219,90302,1,8,0:0:0:0:
231,187,90398,1,8,0:0:0:0:
235,155,90493,1,8,0:0:0:0:
270,138,90589,5,8,0:0:0:0:
284,109,90684,1,8,0:0:0:0:
290,77,90780,1,8,0:0:0:0:
286,45,90875,1,8,0:0:0:0:
242,10,90972,5,8,0:0:0:0:
196,4,91067,1,8,0:0:0:0:
154,20,91163,1,8,0:0:0:0:
123,53,91258,1,8,0:0:0:0:
111,97,91354,6,0,L|114:156,1,46,8|8,0:0|0:0,0:0:0:0:
5,297,91545,2,0,L|6:251,1,46,0|8,0:0|0:0,0:0:0:0:
163,311,91736,6,0,P|220:318|298:255,1,137.999995788574,4|0,0:0|0:0,0:0:0:0:
286,276,92309,1,2,0:0:0:0:
392,207,92500,2,0,L|315:201,1,68.9999978942872,8|0,0:0|0:0,0:0:0:0:
225,186,92882,1,0,0:0:0:0:
431,127,93074,6,0,L|354:121,1,68.9999978942872,2|0,0:0|0:0,0:0:0:0:
460,212,93456,2,0,L|383:206,1,68.9999978942872,2|0,0:0|0:0,0:0:0:0:
431,127,93838,1,2,0:0:0:0:
310,64,94029,2,0,P|310:110|325:141,1,68.9999978942872,8|0,0:0|0:0,0:0:0:0:
431,127,94411,2,0,P|441:94|439:60,1,68.9999978942872,2|0,0:0|0:0,0:0:0:0:
213,61,94793,6,0,P|152:66|77:22,1,137.999995788574,2|0,0:0|0:0,0:0:0:0:
85,31,95367,1,2,0:0:0:0:
110,208,95558,2,0,L|109:131,1,68.9999978942872,8|0,0:0|0:0,0:0:0:0:
203,221,95940,1,0,0:0:0:0:
90,301,96131,6,0,P|133:302|175:276,1,68.9999978942872,2|0,0:0|0:0,0:0:0:0:
288,353,96513,2,0,P|245:354|203:328,1,68.9999978942872,2|0,0:0|0:0,0:0:0:0:
203,221,96895,1,2,0:0:0:0:
335,263,97086,2,0,P|302:274|268:271,1,68.9999978942872,8|0,0:0|0:0,0:0:0:0:
319,175,97468,2,0,P|353:172|385:183,1,68.9999978942872,2|0,0:0|0:0,0:0:0:0:
416,45,97851,6,0,L|246:52,1,137.999995788574,2|0,0:0|0:0,0:0:0:0:
278,50,98424,1,2,0:0:0:0:
142,105,98615,2,0,L|210:107,1,68.9999978942872,8|0,0:0|0:0,0:0:0:0:
284,165,98997,1,0,0:0:0:0:
124,200,99188,6,0,L|192:202,1,68.9999978942872,2|0,0:0|0:0,0:0:0:0:
0,143,99570,2,0,L|68:140,1,68.9999978942872,2|0,0:0|0:0,0:0:0:0:
112,216,99953,1,2,0:0:0:0:
169,30,100144,2,0,P|91:40|76:48,1,68.9999978942872,8|0,0:0|0:0,0:0:0:0:
146,109,100526,2,0,P|151:124|178:148,2,34.4999989471436,2|0|0,0:0|0:0|0:0,0:0:0:0:
381,43,100908,6,0,L|369:201,1,137.999995788574,2|0,0:0|0:0,0:0:0:0:
370,180,101481,1,2,0:0:0:0:
441,313,101672,2,0,L|435:244,1,68.9999978942872,8|0,0:0|0:0,0:0:0:0:
223,278,102054,6,0,P|286:271|361:325,1,137.999995788574,2|0,0:0|0:0,0:0:0:0:
270,363,102628,2,0,P|229:372|188:369,1,68.9999978942872,2|0,0:0|0:0,0:0:0:0:
136,305,103010,1,2,0:0:0:0:
68,361,103201,2,0,L|28:372,2,34.4999989471436,8|0|0,0:0|0:0|0:0,0:0:0:0:
39,214,103583,2,0,L|46:306,1,68.9999978942872,2|0,0:0|0:0,0:0:0:0:
276,180,103965,6,0,P|273:106|211:67,1,137.999995788574,6|0,0:0|0:0,0:0:0:0:
225,69,104539,1,2,0:0:0:0:
119,144,104730,2,0,P|197:141|209:135,1,68.9999978942872,8|0,0:0|0:0,0:0:0:0:
60,78,105112,6,0,L|75:237,1,137.999995788574,2|0,0:0|0:0,0:0:0:0:
154,251,105685,2,0,P|126:283|85:303,2,68.9999978942872,2|0|0,0:0|0:0|0:0,0:0:0:0:
214,318,106258,2,0,P|242:350|283:370,1,68.9999978942872,8|0,0:0|0:0,0:0:0:0:
348,234,106640,2,0,P|319:252|297:279,1,68.9999978942872,2|0,0:0|0:0,0:0:0:0:
402,303,107023,6,0,L|398:150,1,137.999995788574,2|0,0:0|0:0,0:0:0:0:
445,90,107596,1,2,0:0:0:0:
281,94,107787,2,0,L|356:92,1,68.9999978942872,8|0,0:0|0:0,0:0:0:0:
225,28,108169,6,0,L|75:31,1,137.999995788574,2|0,0:0|0:0,0:0:0:0:
113,142,108742,2,0,P|163:120|177:104,1,68.9999978942872,2|0,0:0|0:0,0:0:0:0:
87,31,109125,1,2,0:0:0:0:
25,149,109316,2,0,P|47:198|63:212,1,68.9999978942872,8|0,0:0|0:0,0:0:0:0:
116,278,109698,2,0,P|137:251|147:218,1,68.9999978942872,2|0,0:0|0:0,0:0:0:0:
51,335,110080,6,0,L|209:330,1,137.999995788574,2|0,0:0|0:0,0:0:0:0:
257,276,110653,1,2,0:0:0:0:
331,333,110844,2,0,P|348:287|338:237,1,68.9999978942872,8|0,0:0|0:0,0:0:0:0:
209,104,111226,6,0,P|211:138|311:190,1,137.999995788574,2|0,0:0|0:0,0:0:0:0:
363,105,111800,2,0,P|318:104|285:114,1,68.9999978942872,2|0,0:0|0:0,0:0:0:0:
289,194,112182,1,2,0:0:0:0:
447,159,112373,2,0,L|456:72,1,68.9999978942872,8|0,0:0|0:0,0:0:0:0:
355,36,112755,2,0,L|362:104,1,68.9999978942872,2|0,0:0|0:0,0:0:0:0:
453,277,113137,6,0,P|395:264|312:311,1,137.999995788574,2|0,0:0|0:0,0:0:0:0:
325,294,113711,1,2,0:0:0:0:
225,259,113902,2,0,L|240:344,1,68.9999978942872,8|0,0:0|0:0,0:0:0:0:
247,109,114284,2,0,L|232:194,1,68.9999978942872,2|0,0:0|0:0,0:0:0:0:
74,117,115048,6,0,P|116:92|185:89,1,103.499996841431,0|0,0:0|0:0,0:0:0:0:
174,97,115430,2,0,L|168:119,2,22.9999992980957,8|8|8,0:0|0:0|0:0,0:0:0:0:
242,139,115621,1,8,0:0:0:0:
227,167,115717,5,8,0:0:0:0:
232,175,115812,1,8,0:0:0:0:
237,184,115908,1,8,0:0:0:0:
242,193,116004,1,8,0:0:0:0:
247,201,116099,1,8,0:0:0:0:
295,229,116195,6,0,P|360:225|421:143,1,137.999995788574,6|0,0:0|0:0,0:0:0:0:
408,40,116481,1,2,0:0:0:0:
341,93,116577,2,0,L|272:95,1,68.9999978942872,8|0,0:0|0:0,0:0:0:0:
64,38,116768,2,0,L|202:33,1,137.999995788574,2|0,0:0|0:0,0:0:0:0:
272,95,117054,1,0,0:0:0:0:
282,113,117150,2,0,P|255:184|228:199,1,68.9999978942872,10|0,0:0|0:0,0:0:0:0:
136,159,117341,1,0,0:0:0:0:
342,255,117532,6,0,B|239:292|244:205|127:255,1,206.999993682861,2|0,0:0|0:0,0:0:0:0:
107,331,117914,2,0,P|142:336|196:322,1,68.9999978942872,2|0,0:0|0:0,0:0:0:0:
297,172,118105,1,8,0:0:0:0:
264,136,118201,1,0,0:0:0:0:
294,98,118296,1,2,0:0:0:0:
512,143,118487,2,0,L|345:139,1,137.999995788574,2|0,0:0|0:0,0:0:0:0:
220,50,118774,1,0,0:0:0:0:
161,127,118870,6,0,P|124:51|154:-20,1,137.999995788574,6|0,0:0|0:0,0:0:0:0:
325,4,119156,1,2,0:0:0:0:
376,70,119252,2,0,L|372:188,1,68.9999978942872,8|0,0:0|0:0,0:0:0:0:
150,226,119443,2,0,P|220:210|287:286,2,137.999995788574,2|0|10,0:0|0:0|0:0,0:0:0:0:
119,338,119921,1,0,0:0:0:0:
156,346,120016,2,0,P|190:313|205:269,1,68.9999978942872,0|0,0:0|0:0,0:0:0:0:
200,163,120207,1,2,0:0:0:0:
156,144,120302,1,0,0:0:0:0:
110,157,120398,1,0,0:0:0:0:
509,48,120589,6,0,P|433:41|388:60,1,68.9999978942872,2|0,0:0|0:0,0:0:0:0:
384,100,120780,2,8,P|308:107|263:88,1,68.9999978942872
198,27,120972,2,0,P|232:26|265:35,1,68.9999978942872,2|0,0:0|0:0,0:0:0:0:
360,189,121163,2,8,P|360:223|351:256,1,68.9999978942872
288,354,121354,2,0,P|253:354|220:345,1,68.9999978942872,2|0,0:0|0:0,0:0:0:0:
172,113,121545,6,0,P|236:172|216:252,1,137.999995788574,6|0,0:0|0:0,0:0:0:0:
145,290,121831,1,2,0:0:0:0:
72,233,121927,2,0,P|98:211|131:201,1,68.9999978942872,8|0,0:0|0:0,0:0:0:0:
118,35,122118,2,0,P|73:122|175:208,1,206.999993682861,2|0,0:0|0:0,0:0:0:0:
240,120,122500,2,0,L|158:111,1,68.9999978942872,10|0,0:0|0:0,0:0:0:0:
132,296,122691,2,0,L|200:288,1,68.9999978942872
358,88,122882,6,0,B|404:195|306:181|346:308,1,206.999993682861,2|0,0:0|0:0,0:0:0:0:
495,244,123265,2,0,L|427:252,1,68.9999978942872,2|0,0:0|0:0,0:0:0:0:
279,361,123456,2,0,L|268:310,2,34.4999989471436,8|0|0,0:0|0:0|0:0,0:0:0:0:
200,288,123647,2,0,L|131:295,1,68.9999978942872,2|0,0:0|0:0,0:0:0:0:
85,42,123838,1,8,0:3:0:0:
128,63,123933,1,8,0:3:0:0:
173,45,124029,1,4,0:3:0:0:
211,74,124124,1,4,0:3:0:0:
276,19,124220,6,0,P|288:117|241:159,1,137.999995788574,6|0,0:0|0:0,0:0:0:0:
160,245,124506,1,2,0:0:0:0:
99,182,124602,2,0,P|162:160|203:174,1,68.9999978942872,8|0,0:0|0:0,0:0:0:0:
369,224,124793,2,0,L|215:211,1,137.999995788574,8|8,0:3|0:3,0:0:0:0:
183,331,125079,1,8,0:3:0:0:
216,354,125175,2,0,L|291:346,1,68.9999978942872,4|0,0:3|0:0,0:0:0:0:
430,136,125366,6,0,P|470:216|424:302,1,160.99999508667,6|2,0:0|0:0,0:0:0:0:
283,279,125653,1,0,0:0:0:0:
291,240,125748,2,0,P|345:223|400:232,1,80.499997543335,8|0,0:0|0:0,0:0:0:0:
505,337,125939,2,0,P|451:354|396:345,1,80.499997543335,2|0,0:0|0:0,0:0:0:0:
84,352,126130,6,0,P|73:312|91:242,1,80.499997543335,12|8,0:0|0:0,0:0:0:0:
231,241,126321,2,0,P|250:190|228:132,1,80.499997543335,2|0,0:0|0:0,0:0:0:0:
233,0,126512,2,0,P|193:1|156:17,1,80.499997543335,12|8,0:0|0:0,0:0:0:0:
8,144,126704,2,0,P|44:159|84:161,1,80.499997543335,2|0,0:0|0:0,0:0:0:0:
333,190,126895,5,14,0:0:0:0:
383,121,126990,1,10,0:0:0:0:
331,50,127086,1,10,0:0:0:0:
249,77,127181,1,10,0:0:0:0:
247,166,127277,6,0,P|213:192|155:198,1,92,4|0,0:3|0:0,0:0:0:0:
148,227,127563,2,0,L|47:236,1,92,8|0,0:3|0:0,0:0:0:0:
24,240,127850,1,4,0:3:0:0:
41,98,128041,2,0,L|147:92,1,92,4|0,0:3|0:0,0:0:0:0:
157,71,128327,2,0,L|248:76,1,92,4|0,0:3|0:0,0:0:0:0:
281,79,128614,1,8,0:3:0:0:
309,342,128805,6,0,L|217:336,1,92,8|0,0:3|0:0,0:0:0:0:
193,315,129091,2,0,L|101:320,1,92,8|0,0:3|0:0,0:0:0:0:
69,323,129378,1,4,0:3:0:0:
79,143,129569,1,8,0:3:0:0:
91,173,129665,1,8,0:3:0:0:
102,203,129761,1,8,0:0:0:0:
56,83,129952,1,8,0:3:0:0:
68,113,130048,1,8,0:3:0:0:
79,143,130143,1,4,0:3:0:0:
230,141,130334,6,0,P|297:124|332:85,1,92,4|0,0:3|0:0,0:0:0:0:
331,83,130620,2,0,P|398:100|433:139,1,92,4|0,0:3|0:0,0:0:0:0:
428,143,130907,1,8,0:3:0:0:
320,222,131098,2,0,P|391:246|417:281,1,92,8|0,0:3|0:0,0:0:0:0:
416,285,131385,1,8,0:3:0:0:
413,316,131480,2,0,L|342:322,1,46,0|0,0:0|0:0,0:0:0:0:
235,305,131671,2,0,L|280:301,1,46,8|0,0:3|0:0,0:0:0:0:
158,358,131862,6,0,P|142:299|168:240,1,92,4|0,0:3|0:0,0:0:0:0:
162,241,132149,2,0,P|178:182|152:123,1,92,4|0,0:3|0:0,0:0:0:0:
156,124,132436,1,2,0:0:0:0:
129,34,132627,5,10,0:0:0:0:
161,34,132722,1,10,0:0:0:0:
193,34,132818,1,10,0:0:0:0:
225,34,132913,1,10,0:0:0:0:
255,9,133009,5,12,0:3:0:0:
282,25,133105,1,12,0:3:0:0:
309,41,133200,1,12,0:3:0:0:
336,57,133296,1,12,0:3:0:0:
372,44,133391,6,0,P|400:106|383:159,1,92,4|0,0:3|0:0,0:0:0:0:
372,148,133678,2,0,P|344:210|361:263,1,92,4|0,0:3|0:0,0:0:0:0:
363,259,133964,1,8,0:3:0:0:
346,358,134155,2,0,P|247:349|227:334,1,92,8|0,0:3|0:0,0:0:0:0:
246,323,134442,2,0,P|147:332|127:347,1,92,8|0,0:3|0:0,0:0:0:0:
128,343,134729,1,4,0:3:0:0:
92,222,134920,6,0,L|102:119,1,92,4|0,0:3|0:0,0:0:0:0:
132,135,135206,2,0,L|122:32,1,92,8|0,0:3|0:0,0:0:0:0:
98,22,135493,1,4,0:3:0:0:
306,87,135684,1,8,0:3:0:0:
273,83,135780,1,8,0:3:0:0:
241,79,135875,1,8,0:0:0:0:
371,95,136066,1,8,0:3:0:0:
338,91,136162,1,8,0:3:0:0:
306,87,136257,1,4,0:3:0:0:
430,161,136448,6,0,P|441:238|429:264,1,92,4|0,0:3|0:0,0:0:0:0:
404,249,136735,2,0,P|393:326|405:352,1,92,4|0,0:3|0:0,0:0:0:0:
412,365,137022,1,8,0:3:0:0:
270,304,137213,2,0,L|155:297,1,92,8|0,0:3|0:0,0:0:0:0:
182,266,137499,2,0,L|90:271,1,92,8|0,0:3|0:0,0:0:0:0:
57,270,137786,1,8,0:3:0:0:
167,176,137977,5,8,0:0:0:0:
181,176,138072,1,8,0:0:0:0:
195,176,138168,1,8,0:0:0:0:
209,176,138263,1,8,0:0:0:0:
233,163,138359,5,8,0:0:0:0:
254,163,138454,1,8,0:0:0:0:
275,163,138550,1,8,0:0:0:0:
296,163,138645,1,8,0:0:0:0:
319,173,138741,6,0,L|316:216,3,30.6666666666667,8|8|8|8,0:0|0:0|0:0|0:0,0:0:0:0:
394,152,139028,1,8,0:0:0:0:
415,142,139123,6,0,L|460:133,5,30.6666666666667,8|8|8|8|8|8,0:0|0:0|0:0|0:0|0:0|0:0,0:0:0:0:
349,54,139506,6,0,P|293:43|226:65,1,92,6|0,0:0|0:0,0:0:0:0:
246,126,139792,2,0,L|253:76,1,46,2|0,0:0|0:0,0:0:0:0:
118,48,140079,1,2,0:0:0:0:
219,143,140270,5,8,0:3:0:0:
73,280,140557,2,0,L|246:285,1,138,4|4,0:3|0:3,0:0:0:0:
436,174,141034,6,0,P|383:174|323:225,1,92,2|0,0:0|0:0,0:0:0:0:
317,195,141321,2,0,P|264:195|204:144,1,92,8|0,0:3|0:0,0:0:0:0:
207,154,141608,1,2,0:0:0:0:
56,100,141799,1,8,0:3:0:0:
64,130,141894,1,8,0:3:0:0:
71,161,141990,1,8,0:0:0:0:
41,39,142181,1,8,0:3:0:0:
49,69,142276,1,8,0:3:0:0:
56,100,142372,1,4,0:3:0:0:
26,262,142563,6,0,P|74:274|132:254,1,92,2|0,0:0|0:0,0:0:0:0:
138,195,142850,2,0,L|131:251,1,46,2|0,0:0|0:0,0:0:0:0:
170,349,143136,1,2,0:0:0:0:
251,160,143327,2,0,P|339:170|367:186,1,92,8|0,0:3|0:0,0:0:0:0:
357,198,143614,2,0,P|445:188|473:172,1,92,4|0,0:3|0:0,0:0:0:0:
470,165,143901,1,2,0:0:0:0:
203,75,144092,6,0,P|159:115|159:176,1,92,4|0,0:3|0:0,0:0:0:0:
151,176,144378,2,0,P|195:216|195:277,1,92,8|0,0:3|0:0,0:0:0:0:
188,275,144665,1,4,0:3:0:0:
183,362,144856,5,10,0:0:0:0:
215,361,144951,1,10,0:0:0:0:
247,360,145047,1,10,0:0:0:0:
279,359,145142,1,10,0:0:0:0:
290,329,145238,5,10,0:0:0:0:
322,329,145333,1,10,0:0:0:0:
354,330,145429,1,10,0:0:0:0:
386,331,145524,1,10,0:0:0:0:
412,349,145620,6,0,P|430:266|408:225,1,92,6|0,0:0|0:0,0:0:0:0:
357,233,145907,2,0,L|415:242,1,46,2|0,0:0|0:0,0:0:0:0:
474,175,146194,1,2,0:0:0:0:
281,254,146385,5,8,0:3:0:0:
66,80,146671,2,0,B|131:61|131:114|235:79,1,138,4|2,0:3|0:0,0:0:0:0:
332,45,147149,5,8,0:0:0:0:
308,115,147245,1,8,0:0:0:0:
412,194,147436,5,8,0:3:0:0:
412,194,147531,1,8,0:3:0:0:
396,288,147722,1,12,0:3:0:0:
296,254,147913,6,0,L|295:224,2,30.6666666666667,8|8|8,0:0|0:0|0:0,0:0:0:0:
288,342,148105,1,8,0:0:0:0:
288,342,148200,1,8,0:0:0:0:
288,342,148296,6,0,L|291:381,2,30.6666666666667,8|8|8,0:0|0:0|0:0,0:0:0:0:
216,285,148487,2,0,L|213:254,2,30.6666666666667,8|8|8,0:0|0:0|0:0,0:0:0:0:
170,360,148677,6,0,P|111:363|53:322,1,92,6|0,0:0|0:0,0:0:0:0:
83,278,148964,2,0,L|70:337,1,46,2|0,0:0|0:0,0:0:0:0:
22,199,149251,1,2,0:0:0:0:
311,133,149442,2,0,P|260:147|201:135,1,92,8|0,0:3|0:0,0:0:0:0:
202,116,149729,2,0,P|151:102|92:114,1,92,4|0,0:3|0:0,0:0:0:0:
81,114,150015,2,0,P|61:119|26:121,1,46,2|0,0:0|0:0,0:0:0:0:
177,226,150206,6,0,P|241:235|292:209,1,92,4|0,0:3|0:0,0:0:0:0:
295,215,150493,2,0,P|359:206|410:232,1,92,8|0,0:3|0:0,0:0:0:0:
412,229,150780,1,8,0:3:0:0:
440,341,150971,2,0,L|437:237,1,92,8|0,0:3|0:0,0:0:0:0:
412,229,151257,2,0,L|415:125,1,92,4|0,0:3|0:0,0:0:0:0:
434,111,151544,1,2,0:0:0:0:
271,149,151735,6,0,P|209:143|156:108,1,92,4|0,0:3|0:0,0:0:0:0:
145,66,152022,2,0,L|155:116,1,46,2|0,0:0|0:0,0:0:0:0:
256,52,152308,1,2,0:0:0:0:
73,114,152499,2,0,L|65:223,1,92,8|0,0:3|0:0,0:0:0:0:
94,190,152786,2,0,L|102:299,1,92,8|0,0:3|0:0,0:0:0:0:
87,311,153073,1,2,0:0:0:0:
247,213,153264,5,4,0:3:0:0:
173,339,153455,2,0,L|233:336,1,46,0|4,0:3|0:3,0:0:0:0:
258,241,153646,2,0,P|264:294|244:347,1,92,0|8,0:0|0:3,0:0:0:0:
169,226,154028,2,0,P|157:181|164:136,1,92,8|0,0:3|0:0,0:0:0:0:
233,111,154315,2,0,L|169:116,1,46,2|0,0:0|0:0,0:0:0:0:
320,168,154601,1,2,0:0:0:0:
445,52,154792,6,0,L|441:156,1,92,4|0,0:3|0:0,0:0:0:0:
416,165,155079,2,0,L|420:269,1,92,2|0,0:0|0:0,0:0:0:0:
420,289,155366,1,2,0:0:0:0:
336,344,155557,2,0,P|266:336|231:296,1,92,8|0,0:3|0:0,0:0:0:0:
230,299,155843,2,0,P|189:277|144:279,1,92,4|0,0:3|0:0,0:0:0:0:
114,291,156130,1,2,0:0:0:0:
84,137,156321,5,10,0:0:0:0:
112,122,156417,1,10,0:0:0:0:
140,107,156512,1,2,0:0:0:0:
169,94,156608,1,2,0:0:0:0:
197,79,156703,2,0,L|281:82,1,46,10|10,0:0|0:0,0:0:0:0:
307,154,156894,2,0,L|223:157,1,46,4|4,0:3|0:3,0:0:0:0:
369,92,157085,2,0,P|392:183|350:232,2,138,4|4|0,0:3|0:3|0:0,0:0:0:0:
205,283,157850,6,0,P|263:286|304:268,1,92,4|0,0:3|0:0,0:0:0:0:
324,266,158136,2,0,P|382:263|423:281,1,92,2|0,0:0|0:0,0:0:0:0:
437,296,158423,1,2,0:0:0:0:
302,368,158614,2,0,L|188:358,1,92,8|0,0:3|0:0,0:0:0:0:
179,349,158901,2,0,L|87:357,1,92,4|0,0:3|0:0,0:0:0:0:
56,364,159187,1,2,0:0:0:0:
121,184,159378,5,8,0:0:0:0:
84,249,159474,1,8,0:0:0:0:
46,126,159665,5,0,0:0:0:0:
46,126,159761,2,0,L|27:72,2,46,8|8|0,0:0|0:0|0:0,0:0:0:0:
272,215,160143,5,2,0:0:0:0:
292,190,160238,1,2,0:0:0:0:
302,160,160334,1,2,0:0:0:0:
303,127,160429,1,2,0:0:0:0:
294,97,160526,6,0,P|287:87|267:67,2,30.6666666666667,8|8|8,0:0|0:0|0:0,0:0:0:0:
224,148,160716,2,0,P|217:158|197:178,2,30.6666666666667,8|8|8,0:0|0:0|0:0,0:0:0:0:
132,132,160907,6,0,P|128:202|157:248,1,92,6|0,0:0|0:0,0:0:0:0:
233,340,161194,1,2,0:0:0:0:
258,321,161289,2,0,L|342:324,1,46,8|0,0:0|0:0,0:0:0:0:
455,263,161480,2,0,L|341:258,1,92,2|0,0:0|0:0,0:0:0:0:
309,163,161767,1,0,0:0:0:0:
325,135,161862,2,0,L|328:69,1,46,8|0,0:0|0:0,0:0:0:0:
255,49,162054,1,2,0:0:0:0:
402,171,162245,1,2,0:0:0:0:
215,140,162436,6,0,P|154:134|88:73,1,138,4|2,0:3|0:0,0:0:0:0:
77,60,162818,1,8,0:0:0:0:
13,242,163009,2,0,P|54:222|99:221,1,92,2|0,0:0|0:0,0:0:0:0:
131,229,163296,1,0,0:0:0:0:
158,244,163391,1,8,0:0:0:0:
230,384,163582,2,0,L|222:282,1,92,2|2,0:0|0:0,0:0:0:0:
268,213,163869,1,0,0:0:0:0:
298,203,163964,6,0,L|408:209,1,92,6|0,0:0|0:0,0:0:0:0:
494,130,164251,1,2,0:0:0:0:
470,108,164347,2,0,L|463:46,1,46,8|0,0:0|0:0,0:0:0:0:
269,108,164538,2,0,P|329:104|383:65,1,92,2|0,0:0|0:0,0:0:0:0:
216,50,164824,1,0,0:0:0:0:
184,41,164920,2,0,L|127:42,1,46,8|0,0:0|0:0,0:0:0:0:
16,117,165111,2,0,L|107:115,1,92,2|2,0:0|0:0,0:0:0:0:
164,278,165493,6,0,P|156:228|178:177,1,92,4|0,0:3|0:0,0:0:0:0:
245,246,165780,1,2,0:0:0:0:
276,260,165875,2,0,L|354:256,1,46,8|0,0:0|0:0,0:0:0:0:
475,215,166066,1,2,0:0:0:0:
400,359,166257,2,0,P|405:335|407:302,1,46,0|0,0:0|0:0,0:0:0:0:
416,127,166448,1,8,0:0:0:0:
385,117,166543,1,0,0:0:0:0:
353,111,166639,1,0,0:0:0:0:
321,109,166734,1,0,0:0:0:0:
289,111,166830,1,2,0:0:0:0:
257,117,166927,1,2,0:0:0:0:
228,132,167022,6,0,P|169:137|124:115,1,92,6|0,0:0|0:0,0:0:0:0:
51,56,167308,1,2,0:0:0:0:
37,85,167404,2,0,L|33:169,1,46,8|0,0:0|0:0,0:0:0:0:
142,221,167595,2,0,P|96:214|53:227,1,92,2|0,0:0|0:0,0:0:0:0:
40,256,167882,1,0,0:0:0:0:
27,285,167977,1,8,0:0:0:0:
196,301,168168,2,0,L|310:296,1,92,2|2,0:0|0:0,0:0:0:0:
407,191,168550,6,0,P|429:234|416:299,1,92,4|0,0:3|0:0,0:0:0:0:
296,207,168837,1,2,0:0:0:0:
290,175,168933,2,0,P|288:149|298:111,1,46,8|0,0:0|0:0,0:0:0:0:
388,71,169124,2,0,P|325:85|226:47,1,138,2|0,0:0|0:0,0:0:0:0:
232,43,169506,1,8,0:0:0:0:
92,149,169697,2,0,L|198:140,1,92,2|2,0:0|0:0,0:0:0:0:
20,71,170079,6,0,P|-8:116|-7:190,1,92,6|0,0:0|0:0,0:0:0:0:
54,233,170366,1,2,0:0:0:0:
79,252,170461,2,0,L|79:308,1,46,8|0,0:0|0:0,0:0:0:0:
201,329,170652,2,0,P|255:301|302:303,1,92,2|0,0:0|0:0,0:0:0:0:
316,308,170939,1,0,0:0:0:0:
346,316,171034,1,8,0:0:0:0:
456,232,171226,2,0,L|350:223,1,92,2|2,0:0|0:0,0:0:0:0:
55,153,171608,5,8,0:0:0:0:
81,135,171703,1,8,0:0:0:0:
112,125,171799,1,8,0:0:0:0:
144,123,171894,1,8,0:0:0:0:
179,149,171990,5,8,0:0:0:0:
210,156,172085,1,8,0:0:0:0:
242,154,172180,1,8,0:0:0:0:
273,144,172276,1,8,0:0:0:0:
303,103,172372,5,8,0:0:0:0:
345,87,172467,1,8,0:0:0:0:
391,93,172563,1,8,0:0:0:0:
428,120,172658,1,8,0:0:0:0:
449,160,172754,6,0,L|446:227,1,46,8|8,0:0|0:0,0:0:0:0:
348,365,172945,2,0,L|345:319,1,46,8|8,0:0|0:0,0:0:0:0:
241,226,173136,6,0,P|169:221|111:264,1,137.999995788574,4|0,0:0|0:0,0:0:0:0:
116,256,173710,1,2,0:0:0:0:
65,188,173901,2,0,P|73:134|85:101,1,68.9999978942872,8|0,0:0|0:0,0:0:0:0:
21,56,174283,1,0,0:0:0:0:
171,54,174474,6,0,L|88:49,1,68.9999978942872,2|0,0:0|0:0,0:0:0:0:
237,136,174856,2,0,L|168:140,1,68.9999978942872,2|0,0:0|0:0,0:0:0:0:
273,56,175238,1,2,0:0:0:0:
399,188,175429,2,0,P|409:138|403:112,1,68.9999978942872,8|0,0:0|0:0,0:0:0:0:
307,184,175812,2,0,P|304:218|313:251,1,68.9999978942872,2|0,0:0|0:0,0:0:0:0:
363,358,176194,6,0,P|281:339|227:364,1,137.999995788574,2|0,0:0|0:0,0:0:0:0:
234,360,176767,1,2,0:0:0:0:
148,314,176958,2,0,P|140:263|142:239,1,68.9999978942872,8|0,0:0|0:0,0:0:0:0:
89,181,177340,1,0,0:0:0:0:
209,113,177531,6,0,P|191:151|160:174,1,68.9999978942872,2|0,0:0|0:0,0:0:0:0:
79,45,177913,2,0,P|97:83|128:106,1,68.9999978942872,2|0,0:0|0:0,0:0:0:0:
173,32,178296,1,2,0:0:0:0:
318,90,178487,2,0,L|395:86,1,68.9999978942872,8|0,0:0|0:0,0:0:0:0:
462,182,178869,2,0,L|385:178,1,68.9999978942872,2|0,0:0|0:0,0:0:0:0:
356,335,179251,6,0,P|351:269|294:234,1,137.999995788574,2|0,0:0|0:0,0:0:0:0:
294,234,179824,1,2,0:0:0:0:
206,321,180015,2,0,L|297:317,1,68.9999978942872,8|0,0:0|0:0,0:0:0:0:
294,234,180398,1,0,0:0:0:0:
220,132,180589,6,0,P|217:169|228:209,1,68.9999978942872,2|0,0:0|0:0,0:0:0:0:
316,60,180971,2,0,P|319:97|308:137,1,68.9999978942872,2|0,0:0|0:0,0:0:0:0:
235,42,181353,1,2,0:0:0:0:
155,94,181544,2,0,P|101:101|83:98,1,68.9999978942872,8|0,0:0|0:0,0:0:0:0:
37,39,181926,2,0,L|24:7,2,34.4999989471436,2|0|0,0:0|0:0|0:0,0:0:0:0:
73,176,182308,6,0,P|97:237|66:307,1,137.999995788574,2|0,0:0|0:0,0:0:0:0:
71,301,182882,1,2,0:0:0:0:
213,349,183073,2,0,L|126:354,1,68.9999978942872,8|0,0:0|0:0,0:0:0:0:
234,221,183455,6,0,L|381:237,1,137.999995788574,2|0,0:0|0:0,0:0:0:0:
348,88,184028,2,0,P|346:125|363:162,1,68.9999978942872,2|0,0:0|0:0,0:0:0:0:
431,110,184410,1,2,0:0:0:0:
330,11,184601,2,0,L|268:16,2,34.4999989471436,8|0|0,0:0|0:0|0:0,0:0:0:0:
440,43,184984,2,0,P|442:80|425:117,1,68.9999978942872,2|0,0:0|0:0,0:0:0:0:
152,94,185366,6,0,P|199:103|249:192,1,137.999995788574,6|0,0:0|0:0,0:0:0:0:
248,173,185939,1,2,0:0:0:0:
89,198,186130,2,0,P|150:181|171:181,1,68.9999978942872,8|0,0:0|0:0,0:0:0:0:
340,269,186512,6,0,L|196:275,1,137.999995788574,2|0,0:0|0:0,0:0:0:0:
149,350,187085,2,0,P|210:367|240:359,2,68.9999978942872,2|0|2,0:0|0:0|0:0,0:0:0:0:
73,277,187659,2,0,L|69:209,1,68.9999978942872,8|0,0:0|0:0,0:0:0:0:
154,107,188041,2,0,L|149:175,1,68.9999978942872,2|0,0:0|0:0,0:0:0:0:
377,171,188423,6,0,P|310:172|250:124,1,137.999995788574,2|0,0:0|0:0,0:0:0:0:
254,131,188996,1,2,0:0:0:0:
337,25,189187,2,0,P|343:71|318:113,1,68.9999978942872,8|0,0:0|0:0,0:0:0:0:
279,303,189569,6,0,P|334:263|402:264,1,137.999995788574,2|0,0:0|0:0,0:0:0:0:
449,330,190143,2,0,P|501:353|524:354,2,68.9999978942872,2|0|2,0:0|0:0|0:0,0:0:0:0:
396,240,190716,2,0,P|387:207|394:174,1,68.9999978942872,8|0,0:0|0:0,0:0:0:0:
431,15,191098,2,0,P|439:48|430:81,1,68.9999978942872,2|0,0:0|0:0,0:0:0:0:
283,187,191480,6,0,P|200:187|154:125,1,137.999995788574,2|0,0:0|0:0,0:0:0:0:
163,151,192054,1,2,0:0:0:0:
88,39,192245,2,0,L|95:118,1,68.9999978942872,8|0,0:0|0:0,0:0:0:0:
8,273,192627,6,0,P|60:230|127:237,1,137.999995788574,2|0,0:0|0:0,0:0:0:0:
150,330,193200,2,0,P|116:326|88:306,2,68.9999978942872,2|0|2,0:0|0:0|0:0,0:0:0:0:
263,373,193773,2,0,L|256:292,1,68.9999978942872,8|0,0:0|0:0,0:0:0:0:
215,166,194155,2,0,L|209:234,1,68.9999978942872,2|0,0:0|0:0,0:0:0:0:
335,255,194538,6,0,P|386:252|465:191,1,137.999995788574,2|0,0:0|0:0,0:0:0:0:
456,204,195111,1,2,0:0:0:0:
365,158,195302,2,0,L|352:125,2,34.4999989471436,8|0|0,0:0|0:0|0:0,0:0:0:0:
442,79,195684,2,0,L|454:46,2,34.4999989471436,2|0|0,0:0|0:0|0:0,0:0:0:0:
115,134,196448,6,0,P|185:158|228:149,1,103.499996841431
221,143,196831,2,0,L|215:120,2,22.9999992980957,8|8|8,0:0|0:0|0:0,0:0:0:0:
300,186,197022,1,0,0:0:0:0:
286,166,197118,5,8,0:0:0:0:
291,158,197213,1,8,0:0:0:0:
296,149,197309,1,8,0:0:0:0:
301,140,197405,1,8,0:0:0:0:
306,132,197500,1,8,0:0:0:0:
328,97,197595,6,0,P|404:87|483:137,1,137.999995788574,6|0,0:0|0:0,0:0:0:0:
440,235,197881,1,2,0:0:0:0:
352,272,197977,2,0,P|345:243|357:194,1,68.9999978942872,8|0,0:0|0:0,0:0:0:0:
421,349,198168,2,0,L|228:342,1,137.999995788574,2|0,0:0|0:0,0:0:0:0:
186,218,198454,1,0,0:0:0:0:
159,258,198550,2,0,L|162:333,1,68.9999978942872,10|0,0:0|0:0,0:0:0:0:
283,343,198741,2,0,L|280:274,1,68.9999978942872,0|0,0:0|0:0,0:0:0:0:
243,147,198932,6,0,P|158:132|96:243,1,206.999993682861,2|0,0:0|0:0,0:0:0:0:
163,326,199314,2,0,L|159:258,1,68.9999978942872,10|0,0:0|0:0,0:0:0:0:
242,146,199505,2,0,L|247:215,1,68.9999978942872,0|0,0:0|0:0,0:0:0:0:
331,328,199696,2,0,L|335:259,1,68.9999978942872,2|0,0:0|0:0,0:0:0:0:
405,184,199887,1,4,0:3:0:0:
450,200,199983,1,4,0:3:0:0:
458,252,200079,1,4,0:3:0:0:
355,25,200270,6,0,P|298:58|285:129,1,137.999995788574,6|0,0:0|0:0,0:0:0:0:
405,184,200556,1,2,0:0:0:0:
432,105,200652,2,0,P|393:102|342:125,1,68.9999978942872,8|0,0:0|0:0,0:0:0:0:
276,245,200843,2,0,P|211:266|147:246,2,137.999995788574,2|0|10,0:0|0:0|0:0,0:0:0:0:
230,78,201321,1,0,0:0:0:0:
209,112,201416,2,0,L|213:180,1,68.9999978942872,0|0,0:0|0:0,0:0:0:0:
151,314,201607,2,0,L|146:245,1,68.9999978942872,2|0,0:0|0:0,0:0:0:0:
93,160,201798,1,0,0:0:0:0:
392,32,201989,6,0,P|410:108|406:130,1,68.9999978942872,2|0,0:0|0:0,0:0:0:0:
373,179,202180,2,0,P|359:210|354:244,1,68.9999978942872,8|8,0:0|0:0,0:0:0:0:
433,352,202372,2,0,L|336:344,1,68.9999978942872,2|0,0:0|0:0,0:0:0:0:
256,326,202563,2,0,L|187:331,1,68.9999978942872,8|8,0:0|0:0,0:0:0:0:
94,363,202754,2,0,L|25:357,1,68.9999978942872,2|0,0:0|0:0,0:0:0:0:
145,117,202945,6,0,B|217:98|215:152|339:108,1,137.999995788574,6|0,0:0|0:0,0:0:0:0:
439,99,203231,1,2,0:0:0:0:
388,32,203327,2,0,P|360:109|380:150,1,68.9999978942872,8|0,0:0|0:0,0:0:0:0:
353,280,203518,2,0,P|448:286|505:176,1,206.999993682861,2|0,0:0|0:0,0:0:0:0:
341,192,203900,2,0,L|235:189,1,68.9999978942872,10|0,0:0|0:0,0:0:0:0:
165,270,204091,2,0,L|271:267,1,68.9999978942872,0|0,0:0|0:0,0:0:0:0:
316,80,204282,6,0,B|214:43|217:153|79:89,1,206.999993682861,2|0,0:0|0:0,0:0:0:0:
88,6,204665,2,0,P|131:12|159:35,1,68.9999978942872,2|0,0:0|0:0,0:0:0:0:
28,139,204856,2,0,L|18:218,1,68.9999978942872,8|0,0:0|0:0,0:0:0:0:
193,254,205047,2,0,L|184:185,1,68.9999978942872,2|0,0:0|0:0,0:0:0:0:
86,262,205238,1,4,0:3:0:0:
61,303,205333,1,4,0:3:0:0:
84,345,205429,1,4,0:3:0:0:
224,328,205620,6,0,P|317:345|353:323,1,137.999995788574,6|0,0:0|0:0,0:0:0:0:
438,290,205906,1,2,0:0:0:0:
492,351,206002,2,0,P|447:369|419:367,1,68.9999978942872,8|0,0:0|0:0,0:0:0:0:
410,198,206193,2,0,P|450:158|539:155,2,137.999995788574,2|0|10,0:0|0:0|0:0,0:0:0:0:
246,248,206670,1,0,0:0:0:0:
278,224,206766,2,0,P|304:155|287:120,1,68.9999978942872,0|0,0:0|0:0,0:0:0:0:
176,99,206957,2,0,P|184:126|211:159,1,68.9999978942872,2|0,0:0|0:0,0:0:0:0:
312,144,207148,1,0,0:0:0:0:
273,9,207339,1,2,0:0:0:0:
240,32,207435,6,0,P|153:43|102:3,1,137.999995788574,8|0,0:0|0:0,0:0:0:0:
0,49,207721,2,0,L|6:160,1,68.9999978942872,2|0,0:0|0:0,0:0:0:0:
9,231,207912,2,0,L|4:302,2,68.9999978942872,8|0|2,0:0|0:0|0:0,0:0:0:0:
168,253,208295,1,8,0:3:0:0:
202,233,208390,1,8,0:3:0:0:
235,255,208486,1,4,0:3:0:0:
269,234,208581,1,4,0:3:0:0:
334,290,208677,6,0,P|352:224|309:161,1,137.999995788574,6|0,0:0|0:0,0:0:0:0:
202,44,208963,1,2,0:0:0:0:
187,126,209059,2,0,P|253:113|278:91,1,68.9999978942872,8|0,0:0|0:0,0:0:0:0:
393,58,209250,2,0,P|475:48|535:74,2,137.999995788574,2|0|10,0:0|0:0|0:0,0:0:0:0:
450,201,209727,1,0,0:0:0:0:
468,236,209823,2,0,L|469:321,1,68.9999978942872,0|0,0:0|0:0,0:0:0:0:
390,343,210014,6,0,B|313:299|285:388|174:334,1,206.999993682861,2|0,0:0|0:0,0:0:0:0:
142,265,210396,2,0,L|231:264,1,68.9999978942872,2|0,0:0|0:0,0:0:0:0:
292,204,210587,1,8,0:0:0:0:
266,172,210683,1,0,0:0:0:0:
294,143,210778,1,2,0:0:0:0:
168,168,210969,2,0,P|109:163|54:102,1,137.999995788574,2|0,0:0|0:0,0:0:0:0:
155,58,211256,1,0,0:0:0:0:
179,26,211352,6,0,B|237:4|256:58|335:17,1,137.999995788574,6|0,0:0|0:0,0:0:0:0:
425,25,211638,1,2,0:0:0:0:
365,93,211734,2,0,L|375:177,1,68.9999978942872,8|0,0:0|0:0,0:0:0:0:
447,299,211925,2,0,P|477:230|435:161,2,137.999995788574,2|0|10,0:0|0:0|0:0,0:0:0:0:
291,266,212403,1,0,0:0:0:0:
319,238,212498,2,0,L|411:234,1,68.9999978942872,0|0,0:0|0:0,0:0:0:0:
315,370,212689,2,0,L|227:366,1,68.9999978942872,2|0,0:0|0:0,0:0:0:0:
186,290,212880,1,0,0:0:0:0:
161,19,213071,6,0,P|169:76|150:108,1,68.9999978942872,2|0,0:0|0:0,0:0:0:0:
101,130,213262,2,0,P|91:156|93:197,1,68.9999978942872,8|8,0:0|0:0,0:0:0:0:
182,224,213454,2,0,P|191:250|185:294,1,68.9999978942872,2|0,0:0|0:0,0:0:0:0:
128,356,213645,2,0,P|101:365|51:363,1,68.9999978942872,8|8,0:0|0:0,0:0:0:0:
8,301,213836,2,0,P|-1:274|1:230,1,68.9999978942872,2|0,0:0|0:0,0:0:0:0:
178,211,214027,6,0,P|243:184|326:208,1,137.999995788574,6|0,0:0|0:0,0:0:0:0:
391,326,214313,1,2,0:0:0:0:
385,249,214409,2,0,L|381:163,1,68.9999978942872,8|0,0:0|0:0,0:0:0:0:
386,0,214600,2,0,L|544:2,2,137.999995788574,2|0|10,0:0|0:0|0:0,0:0:0:0:
241,30,215078,1,0,0:0:0:0:
212,58,215173,2,0,P|209:88|224:134,1,68.9999978942872,0|0,0:0|0:0,0:0:0:0:
294,202,215364,6,0,P|238:200|178:326,1,206.999993682861,2|0,0:0|0:0,0:0:0:0:
257,352,215747,2,0,P|264:314|253:272,1,68.9999978942872,2|0,0:0|0:0,0:0:0:0:
108,369,215938,2,0,L|57:374,2,34.4999989471436,8|0|0,0:0|0:0|0:0,0:0:0:0:
179,251,216129,2,0,P|186:213|171:170,1,68.9999978942872,2|0,0:0|0:0,0:0:0:0:
52,22,216320,1,8,0:3:0:0:
77,53,216415,1,8,0:3:0:0:
54,85,216511,1,4,0:3:0:0:
76,119,216606,1,4,0:3:0:0:
32,187,216702,6,0,P|86:200|151:140,1,137.999995788574,6|0,0:0|0:0,0:0:0:0:
275,74,216988,1,2,0:0:0:0:
200,35,217084,2,0,P|191:62|200:110,1,68.9999978942872,8|0,0:0|0:0,0:0:0:0:
254,230,217275,2,0,P|255:201|239:161,1,68.9999978942872,8|0,0:3|0:0,0:0:0:0:
168,268,217466,1,8,0:3:0:0:
144,300,217561,1,8,0:3:0:0:
160,336,217657,2,0,L|244:337,1,68.9999978942872,4|0,0:3|0:0,0:0:0:0:
459,269,217848,6,0,P|417:252|356:264,1,80.499997543335,6|0,0:0|0:0,0:0:0:0:
313,384,218039,2,0,P|352:385|396:364,1,80.499997543335,2|0,0:0|0:0,0:0:0:0:
241,164,218230,2,0,L|247:256,1,80.499997543335,8|0,0:0|0:0,0:0:0:0:
380,160,218421,2,0,L|385:79,1,80.499997543335,2|0,0:0|0:0,0:0:0:0:
45,44,218612,6,0,P|133:34|160:49,1,80.499997543335,12|8,0:0|0:0,0:0:0:0:
211,110,218803,2,0,P|299:120|326:105,1,80.499997543335,2|0,0:0|0:0,0:0:0:0:
409,1,218994,2,0,P|369:-1|331:14,1,80.499997543335,12|8,0:0|0:0,0:0:0:0:
168,231,219186,2,0,P|166:270|181:308,1,80.499997543335,2|0,0:0|0:0,0:0:0:0:
378,336,219377,5,14,0:0:0:0:
460,309,219472,1,10,0:0:0:0:
460,221,219568,1,10,0:0:0:0:
378,194,219663,1,10,0:0:0:0:
326,264,219759,6,0,L|271:268,2,46,0|0|0,0:0|0:0|0:0,0:0:0:0:
378,194,220141,1,0,0:0:0:0:
298,46,220332,1,2,0:0:0:0:
297,78,220427,1,0,0:0:0:0:
296,110,220523,1,8,0:0:0:0:
378,194,220714,1,0,0:0:0:0:
431,108,220905,1,2,0:0:0:0:
216,187,221096,6,0,P|166:192|116:174,2,92,2|2|2,0:0|0:0|0:0,0:0:0:0:
179,100,221669,1,0,0:0:0:0:
94,267,221860,1,2,0:0:0:0:
1,98,222051,6,0,B|85:131|103:64|181:101,1,184,8|0,0:0|0:0,0:0:0:0:
216,187,222625,2,0,P|221:210|214:243,1,46,0|0,0:0|0:0,0:0:0:0:
155,357,222816,5,8,0:0:0:0:
361,254,223007,1,8,0:0:0:0:
155,357,223198,5,2,0:0:0:0:
152,325,223293,1,0,0:0:0:0:
150,292,223389,1,0,0:0:0:0:
260,302,223580,1,0,0:0:0:0:
375,345,223771,6,0,P|427:324|449:274,2,92,2|8|0,0:0|0:0|0:0,0:0:0:0:
307,143,224344,1,2,0:0:0:0:
361,254,224535,1,0,0:0:0:0:
156,223,224726,6,0,L|265:220,1,92,8|0,0:0|0:0,0:0:0:0:
352,144,225108,2,0,L|280:141,1,46,8|0,0:0|0:0,0:0:0:0:
182,60,225299,2,0,L|254:57,1,46,8|0,0:0|0:0,0:0:0:0:
465,61,225490,6,0,B|499:141|417:154|459:266,1,184,6|0,0:0|0:0,0:0:0:0:
485,324,226063,1,2,0:0:0:0:
250,254,226254,5,8,0:0:0:0:
308,338,226445,1,0,0:0:0:0:
374,263,226636,2,0,P|372:207|332:164,1,92,0|0,0:0|0:0,0:0:0:0:
155,115,227018,5,2,0:0:0:0:
217,346,227209,2,0,P|263:349|308:338,1,92,2|0,0:0|0:0,0:0:0:0:
388,88,227591,5,8,0:0:0:0:
35,300,227974,1,8,0:0:0:0:
161,236,228165,1,2,0:0:0:0:
161,236,228547,6,0,L|156:180,2,46,2|0|0,0:0|0:0|0:0,0:0:0:0:
215,318,228930,1,0,0:0:0:0:
276,255,229121,1,2,0:0:0:0:
80,103,229312,1,8,0:0:0:0:
73,202,229503,1,0,0:0:0:0:
183,72,229694,1,0,0:0:0:0:
231,165,229885,6,0,P|293:165|331:152,2,92,2|2|2,0:0|0:0|0:0,0:0:0:0:
183,72,230458,1,0,0:0:0:0:
165,240,230649,1,2,0:0:0:0:
393,118,230840,6,0,B|429:198|339:223|386:318,1,184,8|0,0:0|0:0,0:0:0:0:
426,358,231414,1,2,0:0:0:0:
321,156,231605,5,8,0:0:0:0:
451,269,231796,1,8,0:0:0:0:
321,156,231987,5,2,0:0:0:0:
323,187,232082,1,0,0:0:0:0:
325,219,232178,1,0,0:0:0:0:
345,372,232369,2,0,P|293:368|237:337,1,92,0|2,0:0|0:0,0:0:0:0:
77,293,232751,2,0,P|119:275|165:273,1,92,8|0,0:0|0:0,0:0:0:0:
248,263,233133,5,2,0:0:0:0:
182,192,233324,1,2,0:0:0:0:
375,239,233515,1,8,0:0:0:0:
85,113,233897,5,8,0:0:0:0:
242,83,234088,1,8,0:0:0:0:
40,35,234279,6,0,L|64:229,1,184,2|0,0:0|0:0,0:0:0:0:
76,312,234852,1,2,0:0:0:0:
190,199,235043,1,8,0:0:0:0:
62,217,235234,1,0,0:0:0:0:
210,295,235425,6,0,L|387:293,1,138,0|0,0:0|0:0,0:0:0:0:
375,310,235807,1,2,0:0:0:0:
307,149,235998,1,2,0:0:0:0:
307,149,236189,1,0,0:0:0:0:
462,351,236380,5,8,0:0:0:0:
180,126,236763,1,8,0:0:0:0:
223,186,237145,5,2,0:0:0:0:
264,243,237528,6,0,P|332:242|408:149,1,184,2|0,0:0|0:0,0:0:0:0:
373,79,238101,1,2,0:0:0:0:
421,182,238292,2,0,L|537:179,1,92,8|0,0:0|0:0,0:0:0:0:
349,55,238674,6,0,L|233:52,2,92,0|2|0,0:0|0:0|0:0,0:0:0:0:
303,136,239247,1,2,0:0:0:0:
206,120,239438,2,0,P|173:66|180:17,1,92,2|0,0:0|0:0,0:0:0:0:
88,131,239820,2,0,P|83:176|55:212,1,92,8|0,0:0|0:0,0:0:0:0:
38,310,240203,2,0,P|117:288|201:329,1,138,2|0,0:0|0:0,0:0:0:0:
195,321,240585,6,0,L|308:315,1,92,2|0,0:0|0:0,0:0:0:0:
415,236,240967,2,0,L|302:230,1,92,8|0,0:0|0:0,0:0:0:0:
195,310,241349,2,0,L|308:304,1,92,0|2,0:0|0:0,0:0:0:0:
415,225,241731,2,0,L|302:219,1,92,0|2,0:0|0:0,0:0:0:0:
195,321,242113,2,0,L|308:315,1,92,8|0,0:0|0:0,0:0:0:0:
272,152,242495,6,0,B|190:125|184:199|61:154,1,184,2|0,0:0|0:0,0:0:0:0:
26,69,243069,1,2,0:0:0:0:
135,1,243260,2,0,P|141:55|120:101,1,92,8|0,0:0|0:0,0:0:0:0:
23,205,243642,6,0,P|15:250|29:293,2,92,0|2|0,0:0|0:0|0:0,0:0:0:0:
92,163,244215,1,2,0:0:0:0:
226,277,244406,2,0,P|155:277|113:252,1,92,2|0,0:0|0:0,0:0:0:0:
285,197,244788,1,8,0:0:0:0:
441,318,245171,5,2,0:0:0:0:
294,205,245362,1,0,0:0:0:0:
372,101,245553,2,0,P|391:161|368:209,1,92,2|0,0:0|0:0,0:0:0:0:
262,91,245935,2,0,P|254:46|273:4,1,92,8|0,0:0|0:0,0:0:0:0:
463,102,246317,2,0,L|344:100,1,92,0|2,0:0|0:0,0:0:0:0:
200,185,246699,2,0,L|319:183,2,92,0|2|2,0:0|0:0|0:0,0:0:0:0:
56,135,247272,1,0,0:0:0:0:
86,123,247368,1,0,0:0:0:0:
116,113,247463,6,0,L|166:103,5,30.6666666666667,8|0|0|0|0|0,0:0|0:0|0:0|0:0|0:0|0:0,0:0:0:0:
198,49,247846,2,0,B|236:41|236:41|276:54,5,76.6666666666667,8|8|8|8|8|8,0:0|0:0|0:0|0:0|0:0|0:0,0:0:0:0:
232,129,248228,6,0,L|229:174,2,28.75,4|0|0,0:0|0:0|0:0,0:0:0:0:
261,150,252651,6,0,L|263:135,32,14.375
203,214,254342,6,0,P|266:235|326:205,1,137.999995788574,6|0,0:0|0:0,0:0:0:0:
394,78,254628,1,2,0:0:0:0:
458,143,254724,2,0,P|389:167|362:164,1,68.9999978942872,8|0,0:0|0:0,0:0:0:0:
153,67,254915,2,0,B|217:87|225:31|311:64,1,137.999995788574,2|0,0:0|0:0,0:0:0:0:
89,7,255201,1,0,0:0:0:0:
62,47,255297,2,0,L|65:122,1,68.9999978942872,10|0,0:0|0:0,0:0:0:0:
160,225,255488,2,0,L|163:156,1,68.9999978942872,0|0,0:0|0:0,0:0:0:0:
72,335,255679,6,0,L|299:323,1,206.999993682861,2|0,0:0|0:0,0:0:0:0:
355,368,256061,2,0,P|366:320|356:281,1,68.9999978942872,10|0,0:0|0:0,0:0:0:0:
285,170,256252,2,0,P|283:204|293:236,1,68.9999978942872,0|0,0:0|0:0,0:0:0:0:
368,116,256443,2,0,P|369:81|359:49,1,68.9999978942872,2|0,0:0|0:0,0:0:0:0:
206,99,256634,1,4,0:3:0:0:
162,120,256730,1,4,0:3:0:0:
120,88,256826,1,4,0:3:0:0:
64,306,257017,6,0,B|138:286|120:340|228:302,1,137.999995788574,6|0,0:0|0:0,0:0:0:0:
392,299,257303,1,2,0:0:0:0:
344,243,257399,2,0,L|247:245,1,68.9999978942872,8|0,0:0|0:0,0:0:0:0:
154,162,257590,2,0,P|89:141|25:161,2,137.999995788574,2|0|10,0:0|0:0|0:0,0:0:0:0:
275,244,258068,1,0,0:0:0:0:
296,210,258163,2,0,L|292:142,1,68.9999978942872,0|0,0:0|0:0,0:0:0:0:
210,15,258354,2,0,L|215:84,1,68.9999978942872,2|0,0:0|0:0,0:0:0:0:
84,225,258545,1,0,0:0:0:0:
419,382,258736,6,0,P|437:306|433:284,1,68.9999978942872,2|0,0:0|0:0,0:0:0:0:
400,235,258927,2,0,P|386:204|381:170,1,68.9999978942872,8|8,0:0|0:0,0:0:0:0:
460,62,259119,2,0,L|363:70,1,68.9999978942872,2|0,0:0|0:0,0:0:0:0:
283,88,259310,2,0,L|214:83,1,68.9999978942872,8|8,0:0|0:0,0:0:0:0:
121,51,259501,2,0,L|52:57,1,68.9999978942872,2|0,0:0|0:0,0:0:0:0:
84,225,259692,6,0,B|157:190|241:234,1,137.999995788574,6|0,0:0|0:0,0:0:0:0:
353,280,259978,1,2,0:0:0:0:
302,347,260074,2,0,P|274:270|294:229,1,68.9999978942872,8|0,0:0|0:0,0:0:0:0:
298,80,260265,2,0,P|393:74|452:187,1,206.999993682861,2|0,0:0|0:0,0:0:0:0:
435,260,260647,2,0,L|329:257,1,68.9999978942872,10|0,0:0|0:0,0:0:0:0:
279,168,260838,2,0,L|385:165,1,68.9999978942872,0|0,0:0|0:0,0:0:0:0:
182,333,261029,6,0,L|186:115,1,206.999993682861,2|0,0:0|0:0,0:0:0:0:
177,37,261412,2,0,P|220:43|248:66,1,68.9999978942872,2|0,0:0|0:0,0:0:0:0:
33,83,261603,2,0,L|34:151,1,68.9999978942872,8|0,0:0|0:0,0:0:0:0:
90,285,261794,2,0,L|91:216,1,68.9999978942872,2|0,0:0|0:0,0:0:0:0:
274,183,261985,1,4,0:3:0:0:
314,157,262080,1,4,0:3:0:0:
357,178,262176,1,4,0:3:0:0:
182,333,262367,6,0,L|339:337,1,137.999995788574,6|0,0:0|0:0,0:0:0:0:
425,222,262653,1,2,0:0:0:0:
357,178,262749,2,0,P|343:233|356:264,1,68.9999978942872,8|0,0:0|0:0,0:0:0:0:
377,65,262940,2,0,B|439:41|435:97|531:61,2,137.999995788574,2|0|10,0:0|0:0|0:0,0:0:0:0:
234,27,263417,1,0,0:0:0:0:
202,51,263513,2,0,P|176:120|193:155,1,68.9999978942872,0|0,0:0|0:0,0:0:0:0:
255,248,263704,2,0,P|248:214|227:187,1,68.9999978942872,2|0,0:0|0:0,0:0:0:0:
125,196,263895,1,0,0:0:0:0:
362,180,264086,1,2,0:0:0:0:
410,183,264182,6,0,P|475:229|490:298,1,137.999995788574,8|0,0:0|0:0,0:0:0:0:
383,364,264468,2,0,L|300:356,1,68.9999978942872,2|0,0:0|0:0,0:0:0:0:
204,323,264659,2,0,L|135:329,2,68.9999978942872,8|0|2,0:0|0:0|0:0,0:0:0:0:
324,201,265042,1,8,0:3:0:0:
290,167,265137,1,8,0:3:0:0:
320,129,265233,1,4,0:3:0:0:
285,95,265328,1,4,0:3:0:0:
338,28,265424,6,0,P|272:10|209:53,1,137.999995788574,6|0,0:0|0:0,0:0:0:0:
162,202,265710,1,2,0:0:0:0:
110,124,265806,2,0,P|142:111|177:111,1,68.9999978942872,8|0,0:0|0:0,0:0:0:0:
228,257,265997,2,0,P|170:291|106:274,2,137.999995788574,2|0|10,0:0|0:0|0:0,0:0:0:0:
305,184,266474,1,0,0:0:0:0:
329,225,266570,2,0,L|330:310,1,68.9999978942872,0|0,0:0|0:0,0:0:0:0:
475,368,266761,6,0,B|398:324|370:413|259:359,1,206.999993682861,2|0,0:0|0:0,0:0:0:0:
189,316,267143,2,0,L|121:317,2,68.9999978942872,2|0|8,0:0|0:0|0:0,0:0:0:0:
275,222,267430,1,0,0:0:0:0:
305,184,267525,2,0,P|322:132|316:95,1,68.9999978942872,2|0,0:0|0:0,0:0:0:0:
163,183,267716,1,4,0:3:0:0:
121,158,267812,1,4,0:3:0:0:
76,177,267908,1,4,0:3:0:0:
179,26,268099,6,0,P|248:7|337:42,1,137.999995788574,6|0,0:0|0:0,0:0:0:0:
407,117,268385,1,2,0:0:0:0:
474,75,268481,2,0,L|465:6,1,68.9999978942872,8|0,0:0|0:0,0:0:0:0:
321,118,268672,2,0,P|297:181|327:241,2,137.999995788574,2|0|10,0:0|0:0|0:0,0:0:0:0:
423,264,269150,1,0,0:0:0:0:
402,306,269245,2,0,P|375:328|342:336,1,68.9999978942872,0|0,0:0|0:0,0:0:0:0:
173,313,269436,2,0,P|199:291|232:283,1,68.9999978942872,2|0,0:0|0:0,0:0:0:0:
311,347,269627,1,0,0:0:0:0:
41,72,269818,6,0,L|138:62,1,68.9999978942872,2|0,0:0|0:0,0:0:0:0:
188,25,270009,2,0,L|256:32,1,68.9999978942872,8|8,0:0|0:0,0:0:0:0:
308,107,270201,2,0,L|376:99,1,68.9999978942872,2|0,0:0|0:0,0:0:0:0:
475,155,270392,2,0,L|482:223,1,68.9999978942872,8|8,0:0|0:0,0:0:0:0:
407,295,270583,2,0,L|399:363,1,68.9999978942872,2|0,0:0|0:0,0:0:0:0:
101,243,270774,6,0,P|166:216|249:240,1,137.999995788574,6|0,0:0|0:0,0:0:0:0:
291,338,271060,1,2,0:0:0:0:
323,262,271156,2,0,L|319:176,1,68.9999978942872,8|0,0:0|0:0,0:0:0:0:
374,69,271347,2,0,B|435:51|454:94|532:71,2,137.999995788574,2|0|10,0:0|0:0|0:0,0:0:0:0:
241,30,271825,1,0,0:0:0:0:
212,58,271920,2,0,P|209:88|224:134,1,68.9999978942872,0|0,0:0|0:0,0:0:0:0:
220,265,272111,6,0,L|434:254,1,206.999993682861,2|0,0:0|0:0,0:0:0:0:
512,224,272494,2,0,P|517:257|510:291,1,68.9999978942872,2|0,0:0|0:0,0:0:0:0:
431,163,272685,2,0,P|423:129|429:95,1,68.9999978942872,8|0,0:0|0:0,0:0:0:0:
495,12,272876,1,2,0:0:0:0:
309,77,273067,1,8,0:3:0:0:
278,102,273162,1,8,0:3:0:0:
246,79,273258,1,4,0:3:0:0:
212,101,273353,1,4,0:3:0:0:
144,57,273449,6,0,P|131:111|191:176,1,137.999995788574,6|0,0:0|0:0,0:0:0:0:
301,296,273735,1,2,0:0:0:0:
243,247,273831,2,0,L|153:251,1,68.9999978942872,8|0,0:0|0:0,0:0:0:0:
56,318,274022,2,0,L|124:314,1,68.9999978942872,8|0,0:3|0:0,0:0:0:0:
262,363,274213,1,8,0:3:0:0:
302,336,274308,1,8,0:3:0:0:
344,359,274404,2,0,P|396:358|422:344,1,68.9999978942872,4|0,0:3|0:0,0:0:0:0:
362,199,274595,6,0,L|368:291,1,80.499997543335,6|0,0:0|0:0,0:0:0:0:
476,183,274786,2,0,L|481:102,1,80.499997543335,2|0,0:0|0:0,0:0:0:0:
185,156,274977,2,0,P|260:158|281:151,1,80.499997543335,8|0,0:0|0:0,0:0:0:0:
401,33,275168,2,0,P|361:27|321:33,1,80.499997543335,2|0,0:0|0:0,0:0:0:0:
221,325,275359,6,0,P|230:285|226:244,1,80.499997543335,12|8,0:0|0:0,0:0:0:0:
92,209,275550,2,0,P|83:169|87:128,1,80.499997543335,2|0,0:0|0:0,0:0:0:0:
151,8,275741,2,0,P|191:-1|232:3,1,80.499997543335,12|8,0:0|0:0,0:0:0:0:
432,14,275933,2,0,P|441:54|437:95,1,80.499997543335,2|0,0:0|0:0,0:0:0:0:
361,292,276124,5,14,0:0:0:0:
277,316,276219,1,10,0:0:0:0:
226,245,276315,1,10,0:0:0:0:
276,175,276410,1,10,0:0:0:0:
368,204,276506,6,0,P|411:199|461:162,1,92,6|0,0:0|0:0,0:0:0:0:
461,143,276792,1,4,0:3:0:0:
447,113,276888,1,0,0:0:0:0:
276,175,277079,2,0,L|266:220,1,46,4|0,0:3|0:0,0:0:0:0:
160,110,277270,2,0,L|169:155,1,46,8|0,0:3|0:0,0:0:0:0:
71,180,277461,2,0,L|62:226,1,46,0|8,0:0|0:3,0:0:0:0:
125,28,277652,1,0,0:3:0:0:
328,78,277843,6,0,P|399:83|429:72,1,92,4|4,0:3|0:3,0:0:0:0:
444,59,278130,1,0,0:0:0:0:
470,40,278225,1,0,0:0:0:0:
495,19,278321,2,0,L|502:123,1,92,8|0,0:3|0:0,0:0:0:0:
493,141,278607,1,8,0:3:0:0:
366,278,278798,1,8,0:3:0:0:
398,274,278894,1,8,0:3:0:0:
430,271,278990,1,8,0:0:0:0:
302,285,279181,1,8,0:3:0:0:
334,281,279277,1,8,0:3:0:0:
366,278,279372,1,4,0:3:0:0:
231,250,279563,6,0,L|223:311,1,46,4|0,0:3|0:0,0:0:0:0:
292,158,279754,2,0,L|300:219,1,46,0|4,0:0|0:3,0:0:0:0:
276,365,279945,1,0,0:0:0:0:
112,271,280136,2,0,P|62:285|23:326,2,92,4|8|0,0:3|0:3|0:0,0:0:0:0:
125,241,280614,2,0,L|131:143,1,92,8|0,0:3|0:0,0:0:0:0:
130,117,280900,1,2,0:0:0:0:
391,189,281091,6,0,P|333:202|251:181,2,138,4|8|4,0:0|0:3|0:3,0:0:0:0:
486,94,281856,1,10,0:0:0:0:
489,126,281951,1,10,0:0:0:0:
492,158,282047,1,10,0:0:0:0:
495,190,282142,1,10,0:0:0:0:
464,224,282238,5,4,0:3:0:0:
460,256,282333,1,4,0:3:0:0:
457,288,282429,1,4,0:3:0:0:
454,320,282524,1,4,0:3:0:0:
483,372,282620,6,0,P|421:370|350:318,1,137.999995788574,4|0,0:0|0:0,0:0:0:0:
358,329,283193,1,2,0:0:0:0:
216,294,283384,2,0,L|286:290,1,68.9999978942872,8|0,0:0|0:0,0:0:0:0:
330,228,283767,1,0,0:0:0:0:
267,119,283958,6,0,P|256:148|263:200,1,68.9999978942872,2|0,0:0|0:0,0:0:0:0:
343,71,284340,2,0,P|354:100|347:152,1,68.9999978942872,2|0,0:0|0:0,0:0:0:0:
330,228,284722,1,2,0:0:0:0:
198,124,284913,2,0,L|282:117,1,68.9999978942872,8|0,0:0|0:0,0:0:0:0:
129,62,285295,2,0,L|72:55,2,34.4999989471436,2|0|0,0:0|0:0|0:0,0:0:0:0:
58,144,285677,6,0,P|82:163|94:268,1,137.999995788574,2|0,0:0|0:0,0:0:0:0:
96,263,286251,1,2,0:0:0:0:
175,337,286442,2,0,L|246:335,1,68.9999978942872,8|0,0:0|0:0,0:0:0:0:
271,255,286824,1,0,0:0:0:0:
403,315,287015,6,0,L|332:313,1,68.9999978942872,2|0,0:0|0:0,0:0:0:0:
497,235,287397,2,0,L|428:236,1,68.9999978942872,2|0,0:0|0:0,0:0:0:0:
381,164,287779,1,2,0:0:0:0:
449,43,287970,2,0,P|451:79|436:122,1,68.9999978942872,8|0,0:0|0:0,0:0:0:0:
320,112,288353,2,0,P|311:78|308:55,2,34.4999989471436,2|0|0,0:0|0:0|0:0,0:0:0:0:
219,145,288735,6,0,P|163:156|82:117,1,137.999995788574,2|0,0:0|0:0,0:0:0:0:
90,125,289308,1,2,0:0:0:0:
79,219,289499,2,0,L|83:297,1,68.9999978942872,8|0,0:0|0:0,0:0:0:0:
92,368,289881,1,0,0:0:0:0:
234,307,290072,6,0,P|200:305|154:318,1,68.9999978942872,2|0,0:0|0:0,0:0:0:0:
370,365,290455,2,0,P|336:367|290:354,1,68.9999978942872,2|0,0:0|0:0,0:0:0:0:
346,277,290837,1,2,0:0:0:0:
287,197,291028,2,0,L|284:127,1,68.9999978942872,8|0,0:0|0:0,0:0:0:0:
356,71,291410,2,0,L|396:65,2,34.4999989471436,2|0|0,0:0|0:0|0:0,0:0:0:0:
96,56,291792,6,0,P|170:46|254:74,1,137.999995788574,2|0,0:0|0:0,0:0:0:0:
230,61,292365,1,2,0:0:0:0:
182,130,292556,2,0,P|176:171|181:201,1,68.9999978942872,8|0,0:0|0:0,0:0:0:0:
160,308,292939,6,0,P|163:273|66:211,1,137.999995788574,2|0,0:0|0:0,0:0:0:0:
12,291,293512,2,0,L|98:286,1,68.9999978942872,6|0,0:0|0:0,0:0:0:0:
104,375,293894,1,0,0:0:0:0:
234,341,294085,2,0,L|268:342,2,34.4999989471436,10|0|0,0:0|0:0|0:0,0:0:0:0:
160,308,294467,2,0,P|178:268|183:227,1,68.9999978942872,2|0,0:0|0:0,0:0:0:0:
362,110,294849,6,0,P|288:117|218:73,1,137.999995788574,6|0,0:0|0:0,0:0:0:0:
232,88,295423,1,2,0:0:0:0:
288,198,295614,2,0,L|292:277,1,68.9999978942872,8|0,0:0|0:0,0:0:0:0:
301,352,295996,1,0,0:0:0:0:
383,307,296187,6,0,L|386:238,1,68.9999978942872,2|0,0:0|0:0,0:0:0:0:
469,384,296569,2,0,L|465:315,1,68.9999978942872,2|0,0:0|0:0,0:0:0:0:
386,238,296951,1,2,0:0:0:0:
440,119,297142,2,0,P|454:163|452:203,1,68.9999978942872,8|0,0:0|0:0,0:0:0:0:
345,106,297525,2,0,P|347:71|356:51,2,34.4999989471436,2|0|0,0:0|0:0|0:0,0:0:0:0:
309,188,297907,6,0,P|246:192|161:137,1,137.999995788574,2|0,0:0|0:0,0:0:0:0:
180,159,298480,1,2,0:0:0:0:
102,114,298671,2,0,L|110:32,1,68.9999978942872,8|0,0:0|0:0,0:0:0:0:
103,211,299053,1,0,0:0:0:0:
254,156,299244,6,0,P|220:158|187:167,1,68.9999978942872,2|0,0:0|0:0,0:0:0:0:
380,224,299627,2,0,P|345:222|312:213,1,68.9999978942872,2|0,0:0|0:0,0:0:0:0:
422,152,300009,1,2,0:0:0:0:
450,270,300200,2,0,L|461:350,1,68.9999978942872,8|0,0:0|0:0,0:0:0:0:
358,349,300582,2,0,L|355:384,2,34.4999989471436,2|0|0,0:0|0:0|0:0,0:0:0:0:
249,298,300964,6,0,P|175:296|100:335,1,137.999995788574,2|0,0:0|0:0,0:0:0:0:
117,321,301537,1,2,0:0:0:0:
54,239,301728,2,0,P|45:202|51:162,1,68.9999978942872,8|0,0:0|0:0,0:0:0:0:
105,121,302111,1,0,0:0:0:0:
258,162,302302,6,0,L|183:164,1,68.9999978942872,2|0,0:0|0:0,0:0:0:0:
351,84,302684,2,0,L|276:86,1,68.9999978942872,2|0,0:0|0:0,0:0:0:0:
411,21,303066,1,2,0:0:0:0:
426,140,303257,2,0,P|432:178|418:223,1,68.9999978942872,8|0,0:0|0:0,0:0:0:0:
379,307,303639,2,0,L|385:347,2,34.4999989471436,2|0|0,0:0|0:0|0:0,0:0:0:0:
267,254,304021,6,0,P|208:258|162:323,1,137.999995788574,2|0,0:0|0:0,0:0:0:0:
162,317,304595,1,2,0:0:0:0:
117,238,304786,2,0,L|115:156,1,68.9999978942872,8|0,0:0|0:0,0:0:0:0:
289,109,305168,6,0,P|236:123|156:68,1,137.999995788574,2|0,0:0|0:0,0:0:0:0:
165,85,305741,1,2,0:0:0:0:
361,63,305932,2,0,P|373:114|366:148,1,68.9999978942872,0|2,0:0|0:0,0:0:0:0:
295,255,306314,2,0,P|294:220|305:188,1,68.9999978942872,8|0,0:0|0:0,0:0:0:0:
389,234,306697,1,2,0:0:0:0:
315,338,307079,6,0,L|241:330,1,57.5,6|8,0:0|0:0,0:0:0:0:
238,336,307365,1,8,0:0:0:0:
218,340,307461,1,8,0:0:0:0:
100,269,307652,6,0,L|174:277,1,57.5,2|8,0:0|0:0,0:0:0:0:
177,271,307938,1,8,0:0:0:0:
197,267,308034,1,0,0:0:0:0:
245,193,308225,6,0,P|201:180|168:182,1,57.5,2|8,0:0|0:0,0:0:0:0:
169,184,308512,1,8,0:0:0:0:
149,188,308607,1,8,0:0:0:0:
136,89,308798,6,0,L|181:95,1,28.75,2|0,0:0|0:0,0:0:0:0:
259,112,308990,1,8,0:0:0:0:
259,112,309085,1,8,0:0:0:0:
259,112,309181,1,8,0:0:0:0:
335,60,309372,6,0,P|373:58|407:60,1,57.5,8|8,0:0|0:0,0:0:0:0:
456,115,309754,2,0,L|498:116,2,28.75,8|8|8,0:0|0:0|0:0,0:0:0:0:
383,278,310136,6,0,P|380:233|387:202,1,57.5,2|8,0:0|0:0,0:0:0:0:
387,201,310423,1,8,0:0:0:0:
393,181,310518,1,8,0:0:0:0:
408,353,310709,6,0,P|366:354|327:340,1,57.5,2|8,0:0|0:0,0:0:0:0:
332,342,310996,1,8,0:0:0:0:
313,334,311091,1,8,0:0:0:0:
137,283,311283,6,0,P|165:278|193:280,1,57.5,2|8,0:0|0:0,0:0:0:0:
213,285,311569,1,8,0:0:0:0:
232,290,311665,1,0,0:0:0:0:
250,208,311856,6,0,L|247:162,1,28.75,2|0,0:0|0:0,0:0:0:0:
238,79,312047,1,8,0:0:0:0:
238,79,312142,1,8,0:0:0:0:
238,79,312238,1,8,0:0:0:0:
163,142,312429,6,0,P|128:147|91:141,1,57.5,8|8,0:0|0:0,0:0:0:0:
61,80,312811,2,0,L|58:39,2,28.75,8|8|8,0:0|0:0|0:0,0:0:0:0:
216,83,313193,6,0,L|293:80,1,57.5,2|8,0:0|0:0,0:0:0:0:
293,79,313480,1,8,0:0:0:0:
313,79,313576,1,8,0:0:0:0:
416,161,313767,6,0,L|339:158,1,57.5,2|8,0:0|0:0,0:0:0:0:
339,157,314054,1,8,0:0:0:0:
319,157,314150,1,8,0:0:0:0:
252,223,314340,5,2,0:0:0:0:
300,310,314531,2,0,L|273:337,1,28.75,8|8,0:0|0:0,0:0:0:0:
216,378,314722,2,0,P|171:367|155:352,1,57.5,8|10,0:0|0:0,0:0:0:0:
151,343,315009,1,8,0:0:0:0:
145,323,315104,2,0,L|143:285,2,28.75,8|8|8,0:0|0:0|0:0,0:0:0:0:
103,161,315486,6,0,P|100:127|101:99,1,57.5,8|8,0:0|0:0,0:0:0:0:
38,46,315869,2,0,L|0:34,2,28.75,8|8|8,0:0|0:0|0:0,0:0:0:0:
218,114,316251,6,0,P|270:112|287:106,1,57.5,2|8,0:0|0:0,0:0:0:0:
293,104,316537,1,8,0:0:0:0:
311,96,316633,1,8,0:0:0:0:
328,86,316728,1,0,0:0:0:0:
344,74,316824,1,10,0:0:0:0:
405,152,317015,6,0,P|411:200|410:221,1,57.5,0|8,0:0|0:0,0:0:0:0:
404,228,317302,1,8,0:0:0:0:
397,247,317397,1,10,0:0:0:0:
273,222,317588,5,8,0:0:0:0:
292,215,317684,1,8,0:0:0:0:
311,209,317779,1,8,0:0:0:0:
306,299,317970,1,10,0:0:0:0:
212,291,318162,5,8,0:0:0:0:
193,297,318257,1,8,0:0:0:0:
174,304,318353,1,8,0:0:0:0:
118,183,318544,6,0,P|119:222|117:248,1,57.5,8|10,0:0|0:0,0:0:0:0:
35,156,318926,2,0,P|33:127|34:98,1,57.5,8|8,0:0|0:0,0:0:0:0:
96,31,319308,5,0,0:0:0:0:
