osu file format v14

[General]
AudioFilename: audio.mp3
AudioLeadIn: 0
PreviewTime: 180166
Countdown: 0
SampleSet: Soft
StackLeniency: 0.7
Mode: 0
LetterboxInBreaks: 0
WidescreenStoryboard: 1

[Editor]
Bookmarks: 22284,31739,44803,54477,57706,67383,70609,86450,96435,101272,102885,133851,194805,196418,199643,206095,218998,238353,245993
DistanceSpacing: 1.6
BeatDivisor: 4
GridSize: 32
TimelineZoom: 1.6

[Metadata]
Title:EXEC_LINCA/.
TitleUnicode:EXEC_LINCA/.
Artist:Shimotsuki Haruka
ArtistUnicode:霜月はるか
Creator:Mir
Version:Insane
Source:アルトネリコ ~世界の終わりで詩い続ける少女~
Tags:Shurelia Gust NIS America Ar Tonelico Sekai no Owari de Utai Tsuzukeru Shoujo The Girl Who Continues to Sing at the End of the World Melody of Elemia Aurica Nestmile オリカ ネストミール Visual Novel JRPG best ps2 hymn
BeatmapID:1455666
BeatmapSetID:686464

[Difficulty]
HPDrainRate:6
CircleSize:4
OverallDifficulty:7
ApproachRate:8.7
SliderMultiplier:1.4
SliderTickRate:1

[Events]
//Background and Video events
0,0,"aurica nestmile.png",0,0
//Break Periods
2,25563,31134
2,130220,140988
//Storyboard Layer 0 (Background)
//Storyboard Layer 1 (Fail)
//Storyboard Layer 2 (Pass)
//Storyboard Layer 3 (Foreground)
//Storyboard Sound Samples

[TimingPoints]
571,441.176470588235,4,2,1,10,1,0
1012,416.666666666667,4,2,1,10,1,0
1428,402.684563758389,4,2,1,10,1,0
1830,422.535211267606,4,2,1,13,1,0
2252,474.308300395257,4,2,1,16,1,0
2252,-100,4,2,1,16,0,0
3201,530.973451327434,4,2,1,10,1,0
3466,368.098159509202,4,2,1,17,1,0
4202,422.535211267606,4,2,1,10,1,0
4624,400,4,2,1,10,1,0
4624,-133.333333333333,4,2,1,10,0,0
5424,422.535211267606,4,2,99,27,1,0
6269,404.040404040404,4,2,1,10,1,0
7077,400,4,2,1,10,1,0
7877,-100,4,2,1,17,0,0
9077,-100,4,2,1,15,0,0
10277,387.096774193548,4,2,1,13,1,0
10277,-133.333333333333,4,2,1,13,0,0
11824,412.371134020619,4,2,99,27,1,0
12236,-100,4,2,1,10,0,0
12648,402.684563758389,4,2,1,18,1,0
13453,396.039603960396,4,2,1,20,1,0
14641,413.793103448276,4,2,1,10,1,0
15054,415.22491349481,4,2,1,16,1,0
15884,370.37037037037,4,2,1,10,1,0
15884,-133.333333333333,4,2,1,10,0,0
16624,408.719346049046,4,2,99,27,1,0
17850,-100,4,2,1,10,0,0
18258,404.040404040404,4,2,1,14,1,0
18258,-100,4,2,1,14,0,0
19875,400,4,2,1,12,1,0
19875,-133.333333333333,4,2,1,12,0,0
20675,506.329113924051,4,2,1,10,1,0
20675,-100,4,2,1,10,0,0
21688,348.837209302326,4,2,1,8,1,0
22036,384.615384615385,4,2,1,10,1,0
22466,384.615384615385,4,2,1,10,1,0
22594,431.654676258993,4,2,1,10,1,0
22737,483.870967741935,4,2,1,10,1,0
22898,705.882352941176,4,2,1,10,1,0
23133,769.230769230769,4,2,1,10,1,0
23389,952.380952380952,4,2,1,10,1,0
23706,413.793103448276,4,2,1,10,1,0
25363,300,4,2,1,10,1,0
25963,315.789473684211,4,2,1,10,1,0
26594,298.507462686567,4,2,1,10,1,0
30176,301.507537688442,4,2,1,10,1,0
31779,322.58064516129,5,2,1,20,1,0
31940,322.58064516129,5,2,3,26,1,0
33552,-100,5,2,3,18,0,0
33714,-100,5,2,3,26,0,0
35165,-100,5,2,3,10,0,0
35327,-100,5,2,3,26,0,0
36778,-100,5,2,3,5,0,0
36939,-100,5,2,3,26,0,0
38391,-100,5,2,3,29,0,0
40004,-100,5,2,3,20,0,0
40165,-100,5,2,3,29,0,0
41617,-100,5,2,3,13,0,0
41778,-100,5,2,3,29,0,0
44843,-100,5,2,1,37,0,0
70649,-83.3333333333333,5,2,2,48,0,1
83587,322.58064516129,5,2,5,36,1,0
83587,-200,5,2,5,36,0,0
86845,314.13612565445,5,2,1,32,1,0
86845,-200,5,2,1,32,0,0
87473,-200,5,2,1,26,0,0
89043,328.767123287671,5,2,1,20,1,0
89043,-200,5,2,1,20,0,0
90029,321.71581769437,5,2,5,36,1,0
90029,-200,5,2,5,36,0,0
91637,322.58064516129,5,2,5,32,1,0
91637,-200,5,2,5,32,0,0
103411,-200,5,2,5,32,0,0
109378,309.278350515464,5,2,2,15,1,0
109995,322.58064516129,3,2,2,47,1,1
110317,-83.3333333333333,3,2,2,47,0,1
116769,322.58064516129,4,2,2,47,1,1
116769,-83.3333333333333,4,2,2,47,0,1
117978,-83.3333333333333,4,2,1,20,0,0
118059,322.58064516129,3,2,2,50,1,1
118059,-66.6666666666667,3,2,2,50,0,1
118381,-100,3,2,2,47,0,1
123865,-100,3,2,2,47,0,1
124833,322.58064516129,4,2,2,50,1,0
124833,-100,4,2,2,50,0,0
125639,340.909090909091,4,2,1,52,1,0
126150,322.58064516129,3,2,2,55,1,0
126150,-100,3,2,2,55,0,0
129053,-100,3,2,2,23,0,0
141633,322.58064516129,5,2,3,29,1,0
154523,322.58064516129,5,2,1,38,1,0
180329,322.58064516129,5,2,2,47,1,1
180329,-83.3333333333333,5,2,2,47,0,1
193232,-200,5,2,5,36,0,0
206135,-200,5,2,5,34,0,0
218232,-200,5,2,98,45,0,0
218393,-200,5,2,5,34,0,0
220490,-100,5,2,3,27,0,0
222264,-100,5,2,3,17,0,0
222425,-100,5,2,3,27,0,0
223877,-100,5,2,3,12,0,0
224038,-100,5,2,3,27,0,0
225490,-100,5,2,3,7,0,0
225651,-100,5,2,3,27,0,0
228716,-100,5,2,3,17,0,0
228877,-100,5,2,3,27,0,0
230328,-100,5,2,3,12,0,0
230490,-100,5,2,3,27,0,0
231941,-100,5,2,3,7,0,0
232103,-100,5,2,3,27,0,0
235167,-100,5,2,3,17,0,0
235328,-100,5,2,3,27,0,0
236780,-100,5,2,3,12,0,0
236941,-100,5,2,3,27,0,0
238393,-100,5,2,3,12,0,0
238554,-100,5,2,3,27,0,0
241619,-100,5,2,3,17,0,0
241780,-100,5,2,3,27,0,0
243232,-100,5,2,3,12,0,0
243393,-100,5,2,3,27,0,0
246458,-100,5,2,1,20,0,0
246539,-100,5,2,1,20,0,0

[Colours]
Combo1 : 232,206,183
Combo2 : 215,215,215
Combo3 : 255,185,185
Combo4 : 255,174,247

[HitObjects]
288,96,571,6,0,L|130:103,1,140,0|0,0:0|0:0,0:0:0:0:
7,196,1428,2,0,L|146:189,1,140,0|0,0:0|0:0,0:0:0:0:
189,354,2252,6,0,P|127:351|161:188,1,280,0|0,0:0|0:0,0:0:0:0:
229,271,3466,2,0,L|153:273,1,70,0|0,0:0|0:0,0:0:0:0:
146,189,3834,2,0,L|295:183,1,140,0|0,0:0|0:0,2:0:0:0:
428,303,4624,6,0,B|472:212|360:188|438:85,1,210.000008010865,0|2,0:0|0:0,0:0:0:0:
426,102,6269,6,0,P|372:118|281:80,1,140,0|0,0:0|0:0,0:0:0:0:
163,102,7077,2,0,P|230:118|295:92,1,140
101,183,7877,6,0,P|64:124|213:21,1,280,0|0,0:0|0:0,0:0:0:0:
229,116,9077,2,0,P|195:110|161:101,1,70,0|0,0:0|0:0,0:0:0:0:
287,191,9477,2,0,P|354:175|442:185,1,140,0|0,0:0|0:0,0:0:0:0:
336,305,10277,6,0,B|232:265|226:339|123:302,2,210.000008010865,0|0|2,0:0|0:0|0:0,0:0:0:0:
336,305,12236,1,0,0:0:0:0:
394,242,12648,1,0,0:0:0:0:
358,161,13050,1,0,0:0:0:0:
276,127,13453,6,0,L|124:135,2,140,0|0|0,0:0|0:0|0:0,0:0:0:0:
354,91,14641,2,0,L|358:171,1,70,0|0,0:0|0:0,0:0:0:0:
417,233,15054,2,0,P|341:252|283:219,1,140,0|0,0:0|0:0,0:0:0:0:
219,130,15884,6,0,B|175:95|126:108|126:108|75:152|8:128,1,210.000008010865,0|2,0:0|0:0,0:0:0:0:
22,132,17850,5,0,0:0:0:0:
87,194,18258,2,0,P|98:254|80:339,1,140,0|0,0:0|0:0,0:0:0:0:
176,363,19066,2,0,L|330:356,1,140,0|0,0:0|0:0,0:0:0:0:
356,134,19875,6,0,P|321:179|352:279,1,157.500006008148,0|0,0:0|0:0,0:0:0:0:
407,212,20675,6,0,P|495:241|414:277,1,210,0|0,0:0|0:0,0:0:0:0:
351,275,21688,5,0,0:0:0:0:
256,192,21775,12,0,25363,0:0:0:0:
56,86,31779,6,0,P|45:120|43:155,1,70,0|2,0:0|0:0,0:0:0:0:
124,178,32101,2,0,P|134:211|136:246,1,70,0|0,0:0|0:0,0:0:0:0:
115,327,32423,2,0,L|28:332,2,70,0|0|0,0:0|0:0|0:0,0:0:0:0:
197,308,32907,1,0,0:0:0:0:
276,336,33069,1,0,0:0:0:0:
355,308,33230,2,0,L|424:312,1,70,0|0,0:0|0:0,0:0:0:0:
488,158,33552,6,0,P|439:134|400:131,1,70,2|0,0:0|0:0,0:0:0:0:
341,149,33875,2,0,P|292:173|253:176,1,70,0|0,0:0|0:0,0:0:0:0:
192,173,34198,2,0,L|182:83,2,70,0|0|0,0:0|0:0|0:0,0:0:0:0:
240,241,34681,1,0,0:0:0:0:
187,306,34843,1,0,0:0:0:0:
109,273,35004,2,0,P|56:265|16:275,1,70,0|2,0:0|0:0,0:0:0:0:
240,241,35327,6,0,P|293:249|333:239,1,70,0|0,0:0|0:0,0:0:0:0:
390,226,35649,2,0,P|424:223|458:231,1,70,0|0,0:0|0:0,0:0:0:0:
503,303,35972,2,0,L|496:380,2,70,0|0|0,0:0|0:0|0:0,0:0:0:0:
458,231,36456,1,0,0:0:0:0:
496,156,36617,1,0,0:0:0:0:
451,84,36778,6,0,P|395:81|361:90,1,70,2|0,0:0|0:0,0:0:0:0:
299,104,37101,2,0,P|243:107|209:98,1,70,0|0,0:0|0:0,0:0:0:0:
152,71,37423,2,0,L|144:-4,2,70,0|0|0,0:0|0:0|0:0,0:0:0:0:
105,141,37907,1,0,0:0:0:0:
153,210,38069,1,0,0:0:0:0:
233,184,38230,1,0,0:0:0:0:
153,210,38391,6,0,P|134:262|176:350,1,140,2|0,0:0|0:0,0:0:0:0:
224,275,38875,2,0,P|302:261|365:284,1,140,0|0,0:0|0:0,0:0:0:0:
432,331,39359,2,0,P|446:282|437:253,1,70,0|0,0:0|0:0,0:0:0:0:
379,201,39681,2,0,P|365:152|374:123,1,70,0|0,0:0|0:0,0:0:0:0:
493,92,40004,6,0,B|442:134|442:134|342:134,1,140,2|0,0:0|0:0,0:0:0:0:
289,131,40488,2,0,L|149:133,1,140,0|0,0:0|0:0,0:0:0:0:
80,202,40972,2,0,P|63:153|69:118,1,70,0|0,0:0|0:0,0:0:0:0:
112,66,41294,2,0,P|129:17|123:-18,1,70,0|0,0:0|0:0,0:0:0:0:
64,135,41617,6,0,P|18:169|33:255,1,140,2|0,0:0|0:0,0:0:0:0:
77,305,42101,2,0,L|231:299,1,140,0|0,0:0|0:0,0:0:0:0:
289,256,42585,2,0,P|302:296|294:338,1,70,0|0,0:0|0:0,0:0:0:0:
394,313,42907,2,0,P|381:353|389:395,1,70,0|0,0:0|0:0,0:0:0:0:
469,357,43230,6,0,L|518:361,2,46.6666666666667,0|0|0,0:0|0:0|0:0,0:0:0:0:
511,270,43552,2,0,L|462:274,2,46.6666666666667,0|0|0,0:0|0:0|0:0,0:0:0:0:
466,186,43875,2,0,L|515:190,2,46.6666666666667,0|0|0,0:0|0:0|0:0,0:0:0:0:
427,107,44198,1,0,0:0:0:0:
427,107,44305,2,0,L|380:103,1,46.6666666666667,0|0,0:0|0:0,0:0:0:0:
456,29,44520,1,0,0:0:0:0:
456,29,44627,2,0,L|502:25,1,46.6666666666667,0|0,0:0|0:0,0:0:0:0:
306,71,44843,6,0,P|227:84|162:37,1,140,12|2,0:0|0:0,0:0:0:0:
46,56,45327,2,0,L|57:139,1,70,2|0,0:0|0:0,0:0:0:0:
176,163,45649,1,2,0:0:0:0:
176,163,45810,2,0,L|165:246,1,70,2|0,0:0|0:0,0:0:0:0:
65,243,46133,2,0,L|75:313,1,70,2|0,0:0|0:0,0:0:0:0:
165,373,46456,6,0,P|232:358|271:302,1,140,8|2,0:0|0:0,0:0:0:0:
165,231,46939,2,0,P|204:287|271:302,1,140,2|2,0:0|0:0,0:0:0:0:
360,291,47423,1,2,0:0:0:0:
304,216,47585,1,0,0:0:0:0:
271,302,47746,2,0,L|278:371,1,70,2|2,0:0|0:0,0:0:0:0:
395,201,48069,6,0,B|411:146|411:146|396:51,1,140,8|2,0:0|0:0,0:0:0:0:
305,54,48552,2,0,P|239:67|206:60,1,70,2|0,0:0|0:0,0:0:0:0:
118,38,48875,1,2,0:0:0:0:
118,38,49036,2,0,L|136:122,1,70,2|0,0:0|0:0,0:0:0:0:
237,66,49359,2,0,L|219:150,1,70,2|0,0:0|0:0,0:0:0:0:
30,197,49681,6,0,P|100:184|174:223,1,140,8|2,0:0|0:0,0:0:0:0:
292,224,50165,2,0,P|224:237|160:210,1,140,2|2,0:0|0:0,0:0:0:0:
30,197,50649,2,0,L|36:286,1,70,2|0,0:0|0:0,0:0:0:0:
36,284,50891,1,0,0:0:0:0:
38,301,50971,1,0,0:0:0:0:
160,210,51133,1,8,0:0:0:0:
118,347,51294,6,0,P|171:351|262:345,1,140,8|2,0:0|0:0,0:0:0:0:
313,287,51778,2,0,P|336:326|338:366,1,70,2|0,0:0|0:0,0:0:0:0:
420,352,52101,1,2,0:0:0:0:
420,352,52262,2,0,L|500:355,1,70,2|0,0:0|0:0,0:0:0:0:
470,266,52585,2,0,L|390:269,1,70,2|0,0:0|0:0,0:0:0:0:
250,204,52907,6,0,L|241:164,2,35,8|0|0,0:0|0:0|0:0,0:0:0:0:
275,286,53230,2,0,P|232:286|198:270,1,70,2|2,0:0|0:0,0:0:0:0:
96,216,53552,2,0,P|139:216|173:200,1,70,0|2,0:0|0:0,0:0:0:0:
122,59,53875,2,0,L|116:146,1,70,2|0,0:0|0:0,0:0:0:0:
96,216,54198,2,0,L|102:303,1,70,0|8,0:0|0:0,0:0:0:0:
117,128,54520,6,0,B|193:97|172:155|275:117,1,140,8|2,0:0|0:0,0:0:0:0:
289,66,55004,2,0,P|260:99|255:151,1,70,2|0,0:0|0:0,0:0:0:0:
376,194,55327,1,2,0:0:0:0:
376,194,55488,2,0,P|364:161|340:136,1,70,2|0,0:0|0:0,0:0:0:0:
282,208,55810,2,0,L|281:294,1,70,2|0,0:0|0:0,0:0:0:0:
218,354,56133,6,0,P|155:363|72:310,1,140,8|2,0:0|0:0,0:0:0:0:
77,195,56617,2,0,B|101:259|101:259|84:348,1,140,2|2,0:0|0:0,0:0:0:0:
16,376,57101,1,2,0:0:0:0:
12,294,57262,2,0,L|18:249,2,35,0|0|2,0:0|0:0|0:0,0:0:0:0:
87,329,57585,1,8,0:0:0:0:
136,108,57746,6,0,B|171:74|171:74|288:70,1,140,12|2,0:0|0:0,0:0:0:0:
350,87,58230,2,0,P|362:126|357:164,1,70,2|0,0:0|0:0,0:0:0:0:
302,214,58552,1,2,0:0:0:0:
262,70,58714,2,0,P|260:35|271:2,1,70,2|0,0:0|0:0,0:0:0:0:
362,3,59036,2,0,L|431:9,1,70,2|0,0:0|0:0,0:0:0:0:
498,92,59359,6,0,P|509:151|486:235,1,140,8|2,0:0|0:0,0:0:0:0:
398,257,59843,2,0,P|395:215|412:166,2,70,2|0|2,0:0|0:0|0:0,0:0:0:0:
386,351,60327,1,2,0:0:0:0:
471,318,60488,1,0,0:0:0:0:
398,257,60649,1,2,0:0:0:0:
312,303,60810,1,8,0:0:0:0:
184,246,60972,6,0,B|121:220|123:270|19:243,1,140,8|2,0:0|0:0,0:0:0:0:
39,117,61456,2,0,P|62:168|33:265,1,140,2|2,0:0|0:0,0:0:0:0:
15,327,61939,2,0,P|55:334|95:326,1,70,2|0,0:0|0:0,0:0:0:0:
167,347,62262,2,0,P|207:340|247:348,1,70,2|0,0:0|0:0,0:0:0:0:
326,331,62585,6,0,P|342:266|306:190,1,140,8|2,0:0|0:0,0:0:0:0:
305,66,63069,2,0,B|290:121|290:121|321:220,1,140,2|2,0:0|0:0,0:0:0:0:
381,264,63552,1,2,0:0:0:0:
218,167,63875,2,0,L|122:169,1,70,2|8,0:0|0:0,0:0:0:0:
20,46,64198,6,0,B|60:87|60:87|62:188,1,140,8|2,0:0|0:0,0:0:0:0:
6,230,64681,2,0,L|8:310,1,70,2|0,0:0|0:0,0:0:0:0:
88,356,65004,1,2,0:0:0:0:
155,294,65165,2,0,P|215:298|230:296,1,70,2|0,0:0|0:0,0:0:0:0:
368,353,65488,2,0,P|333:351|298:355,1,70,2|0,0:0|0:0,0:0:0:0:
224,296,65810,6,0,L|221:244,2,35,8|0|0,0:0|0:0|0:0,0:0:0:0:
297,224,66133,2,0,P|331:228|366:226,1,70,2|2,0:0|0:0,0:0:0:0:
426,167,66456,2,0,P|460:162|495:164,1,70,0|2,0:0|0:0,0:0:0:0:
333,70,66778,2,0,L|346:164,1,70,2|0,0:0|0:0,0:0:0:0:
435,0,67101,2,0,L|422:94,1,70,2|8,0:0|0:0,0:0:0:0:
246,116,67423,6,0,P|184:122|100:78,1,140,8|2,0:0|0:0,0:0:0:0:
0,51,67907,2,0,P|36:100|23:181,1,140,0|2,0:0|0:0,0:0:0:0:
11,264,68391,2,0,P|57:258|96:233,1,70,2|0,0:0|0:0,0:0:0:0:
202,331,68714,2,0,P|156:325|117:300,1,70,2|0,0:0|0:0,0:0:0:0:
262,253,69036,6,0,L|431:251,1,140,8|2,0:0|0:0,0:0:0:0:
435,382,69520,2,0,B|405:336|405:336|401:251,1,140,2|2,0:0|0:0,0:0:0:0:
398,180,70004,2,0,L|400:250,1,70,2|0,0:0|0:0,0:0:0:0:
486,305,70327,2,0,L|484:236,1,70,2|8,0:0|0:0,0:0:0:0:
403,96,70649,5,14,0:0:0:0:
403,96,70810,1,0,0:0:0:0:
330,36,70972,1,0,0:0:0:0:
245,83,71133,1,10,0:0:0:0:
320,128,71294,1,0,0:0:0:0:
403,96,71456,1,0,0:0:0:0:
245,83,71617,2,0,B|183:72|183:72|77:84,1,167.999994873047,10|10,0:0|0:0,0:0:0:0:
24,186,72101,1,0,0:0:0:0:
96,258,72262,6,0,L|103:154,1,83.9999974365235,10|0,0:0|0:0,0:0:0:0:
99,261,72585,1,0,0:0:0:0:
192,335,72746,2,0,L|184:231,1,83.9999974365235,10|0,0:0|0:0,0:0:0:0:
189,338,73069,1,0,0:0:0:0:
276,162,73230,2,0,L|269:245,1,83.9999974365235,10|0,0:0|0:0,0:0:0:0:
340,384,73552,2,0,L|333:300,1,83.9999974365235,10|0,0:0|0:0,0:0:0:0:
408,228,73875,5,10,0:0:0:0:
493,284,74036,1,0,0:0:0:0:
497,183,74198,1,0,0:0:0:0:
408,228,74359,1,10,0:0:0:0:
413,330,74520,1,0,0:0:0:0:
493,284,74681,1,0,0:0:0:0:
411,131,74843,2,0,B|353:120|353:120|239:133,1,167.999994873047,10|10,0:0|0:0,0:0:0:0:
178,194,75327,1,0,0:0:0:0:
89,137,75488,6,0,L|78:45,1,83.9999974365235,10|0,0:0|0:0,0:0:0:0:
89,137,75810,1,0,0:0:0:0:
168,277,75972,2,0,L|179:185,1,83.9999974365235,10|0,0:0|0:0,0:0:0:0:
168,277,76294,1,0,0:0:0:0:
78,337,76456,2,0,L|67:245,1,83.9999974365235,10|0,0:0|0:0,0:0:0:0:
78,337,76778,1,10,0:0:0:0:
166,383,76939,1,0,0:0:0:0:
256,345,77101,5,10,0:0:0:0:
256,345,77262,1,0,0:0:0:0:
168,277,77423,1,0,0:0:0:0:
166,383,77585,1,10,0:0:0:0:
256,345,77746,1,0,0:0:0:0:
267,236,77907,1,0,0:0:0:0:
170,175,78069,2,0,P|155:103|214:17,1,167.999994873047,10|10,0:0|0:0,0:0:0:0:
302,33,78552,1,0,0:0:0:0:
454,125,78714,6,0,L|463:36,1,83.9999974365235,10|0,0:0|0:0,0:0:0:0:
454,125,79036,1,0,0:0:0:0:
371,200,79198,2,0,L|361:111,1,83.9999974365235,10|0,0:0|0:0,0:0:0:0:
371,200,79520,1,0,0:0:0:0:
478,293,79681,2,0,L|487:204,1,83.9999974365235,10|0,0:0|0:0,0:0:0:0:
383,295,80004,2,0,L|392:378,1,83.9999974365235,10|0,0:0|0:0,0:0:0:0:
184,278,80327,5,10,0:0:0:0:
204,377,80488,1,0,0:0:0:0:
293,321,80649,1,0,0:0:0:0:
184,278,80810,1,10,0:0:0:0:
98,367,80972,1,0,0:0:0:0:
204,377,81133,1,0,0:0:0:0:
241,208,81294,2,0,P|168:193|93:262,1,167.999994873047,10|10,0:0|0:0,0:0:0:0:
184,278,81778,1,0,0:0:0:0:
290,133,81939,6,0,L|297:39,1,83.9999974365235,10|0,0:0|0:0,0:0:0:0:
290,133,82262,1,0,0:0:0:0:
387,170,82423,2,0,L|380:76,1,83.9999974365235,10|0,0:0|0:0,0:0:0:0:
387,170,82746,1,0,0:0:0:0:
339,245,82907,2,0,P|400:254|432:269,1,83.9999974365235,10|0,0:0|0:0,0:0:0:0:
486,341,83230,2,0,P|446:354|404:358,1,83.9999974365235,10|0,0:0|0:0,0:0:0:0:
281,327,83587,6,0,B|139:276|148:389|-5:329,1,280,2|0,0:0|0:0,0:0:0:0:
70,263,85038,1,0,0:0:0:0:
70,263,85199,2,0,B|91:202|50:186|56:127|56:127|74:169|111:189,1,210,0|0,0:0|0:0,0:0:0:0:
144,105,86490,2,0,L|185:100,1,35,0|0,0:0|0:0,0:0:0:0:
267,63,86845,6,0,P|274:117|261:158,1,70,0|0,0:0|0:0,0:0:0:0:
209,188,87473,2,0,L|213:233,1,35,0|0,0:0|0:0,0:0:0:0:
290,250,87787,2,0,L|286:295,1,35,0|0,0:0|0:0,0:0:0:0:
216,338,88101,1,0,0:0:0:0:
216,338,88258,1,0,0:0:0:0:
216,338,88415,6,0,L|166:333,1,35,0|0,0:0|0:0,0:0:0:0:
63,290,88729,2,0,L|113:285,1,35,0|0,0:0|0:0,0:0:0:0:
212,222,89043,2,0,L|166:216,3,35,0|0|0|0,0:0|0:0|0:0|0:0,0:0:0:0:
116,157,89700,1,0,0:0:0:0:
103,124,89864,1,0,0:0:0:0:
109,88,90029,6,0,P|177:62|307:93,1,210,2|0,0:0|0:0,0:0:0:0:
306,92,91315,1,0,0:0:0:0:
378,46,91476,1,0,0:0:0:0:
378,46,91637,6,0,P|393:75|285:180,1,210,0|0,0:0|0:0,0:0:0:0:
292,181,92927,2,0,L|285:227,1,35,0|0,0:0|0:0,0:0:0:0:
127,217,93249,2,0,P|163:216|206:233,1,70,0|0,0:0|0:0,0:0:0:0:
256,192,93895,12,0,96153,0:0:0:0:
371,120,96475,5,2,0:0:0:0:
283,94,96798,2,0,P|279:57|287:12,2,70,0|0|0,0:0|0:0|0:0,0:0:0:0:
371,120,97766,1,0,0:0:0:0:
303,180,98088,6,0,B|241:196|202:176|202:176|157:154|94:170,1,210,0|0,0:0|0:0,0:0:0:0:
8,195,99378,1,0,0:0:0:0:
71,258,99701,2,0,P|76:291|73:335,2,70,0|0|0,0:0|0:0|0:0,0:0:0:0:
8,195,100669,2,0,P|4:162|5:150,3,35,0|0|0|0,0:0|0:0|0:0|0:0,0:0:0:0:
43,79,101314,6,0,L|123:80,1,70,0|0,0:0|0:0,0:0:0:0:
183,27,101959,1,0,0:0:0:0:
183,27,102120,1,0,0:0:0:0:
183,27,102282,2,0,P|197:59|194:107,1,70,0|0,0:0|0:0,0:0:0:0:
191,215,102927,6,0,B|225:207|225:207|268:210,1,70,2|0,0:0|0:0,0:0:0:0:
301,216,103411,2,0,B|335:218|335:218|369:210,1,70
411,202,103895,1,0,0:0:0:0:
339,136,104217,1,0,0:0:0:0:
492,141,104540,6,0,P|510:173|501:244,2,105
424,82,105830,2,0,L|425:43,1,35,0|0,0:0|0:0,0:0:0:0:
408,101,106153,2,0,P|370:113|328:114,2,70,0|0|0,0:0|0:0|0:0,0:0:0:0:
424,82,107120,1,0,0:0:0:0:
272,56,107766,6,0,P|260:85|266:169,2,105,0|0|0,0:0|0:0|0:0,0:0:0:0:
279,39,108895,1,0,0:0:0:0:
251,58,109056,1,0,0:0:0:0:
174,78,109217,1,0,0:0:0:0:
99,42,109378,5,2,0:0:0:0:
97,55,109532,1,2,0:0:0:0:
95,68,109687,1,2,0:0:0:0:
93,81,109841,1,2,0:0:0:0:
86,186,109995,5,12,0:0:0:0:
86,186,110478,2,0,P|146:196|241:140,1,167.999994873047,0|8,0:0|0:0,0:0:0:0:
318,105,110962,2,0,L|328:6,1,83.9999974365235,8|0,0:0|0:0,0:0:0:0:
326,188,111285,2,0,L|316:89,1,83.9999974365235,8|0,0:0|0:0,0:0:0:0:
317,271,111607,2,0,L|327:172,1,83.9999974365235,8|0,0:0|0:0,0:0:0:0:
112,329,111930,5,12,0:0:0:0:
112,329,112414,2,0,B|96:275|96:275|125:146,1,167.999994873047,0|8,0:0|0:0,0:0:0:0:
198,170,112898,2,0,P|152:180|110:156,1,83.9999974365235,8|0,0:0|0:0,0:0:0:0:
276,165,113220,2,0,P|230:155|188:179,1,83.9999974365235,8|0,0:0|0:0,0:0:0:0:
354,169,113543,2,0,P|308:179|266:155,1,83.9999974365235,8|0,0:0|0:0,0:0:0:0:
478,202,113865,5,12,0:0:0:0:
479,202,114349,2,0,P|501:281|474:360,1,167.999994873047,0|8,0:0|0:0,0:0:0:0:
410,316,114833,2,0,P|417:264|400:225,1,83.9999974365235,8|0,0:0|0:0,0:0:0:0:
341,359,115156,2,0,P|380:345|409:315,1,83.9999974365235,8|0,0:0|0:0,0:0:0:0:
269,323,115478,2,0,P|300:350|340:360,1,83.9999974365235,8|0,0:0|0:0,0:0:0:0:
225,169,115801,6,0,L|212:269,1,83.9999974365235,12|0,0:0|0:0,0:0:0:0:
123,105,116124,2,0,L|136:205,1,83.9999974365235,8|0,0:0|0:0,0:0:0:0:
42,180,116446,2,0,L|29:280,1,83.9999974365235,8|8,0:0|0:0,0:0:0:0:
210,85,116769,6,0,P|252:88|287:110,1,83.9999974365235,12|0,0:0|0:0,0:0:0:0:
342,33,117091,2,0,P|369:66|378:106,1,83.9999974365235,8|0,0:0|0:0,0:0:0:0:
467,95,117414,2,0,P|462:136|440:171,1,83.9999974365235,8|0,0:0|0:0,0:0:0:0:
511,226,117736,2,0,P|479:252|439:262,1,83.9999974365235,10|0,0:0|0:0,0:0:0:0:
325,184,118059,6,0,P|362:247|276:348,1,210.000008010865,12|0,0:0|0:0,0:0:0:0:
135,252,118542,2,0,L|288:255,1,140,0|8,0:0|0:0,0:0:0:0:
65,78,119026,5,10,0:0:0:0:
65,78,119349,2,0,L|64:8,1,70,8|0,0:0|0:0,0:0:0:0:
65,147,119671,2,0,L|64:77,1,70,8|0,0:0|0:0,0:0:0:0:
166,132,119994,6,0,P|247:106|324:139,1,140,12|0,0:0|0:0,0:0:0:0:
361,145,120478,2,0,P|314:132|288:110,1,70,0|0,0:0|0:0,0:0:0:0:
365,60,120800,1,8,0:0:0:0:
417,293,120962,5,10,0:0:0:0:
417,293,121284,2,0,P|470:290|501:273,1,70,8|0,0:0|0:0,0:0:0:0:
349,283,121607,2,0,P|402:286|433:303,1,70,8|0,0:0|0:0,0:0:0:0:
261,336,121929,6,0,P|248:297|295:202,1,140,12|0,0:0|0:0,0:0:0:0:
284,139,122413,2,0,L|284:230,1,70,0|0,0:0|0:0,0:0:0:0:
374,182,122736,1,8,0:0:0:0:
54,170,122897,5,10,0:0:0:0:
54,170,123220,2,0,P|10:162|-23:168,1,70,8|0,0:0|0:0,0:0:0:0:
199,207,123542,2,0,P|155:215|122:209,1,70,8|0,0:0|0:0,0:0:0:0:
283,139,123865,5,12,0:0:0:0:
139,332,124026,1,8,0:0:0:0:
139,332,124107,1,8,0:0:0:0:
139,332,124188,1,8,0:0:0:0:
199,207,124349,1,8,0:0:0:0:
303,341,124510,1,8,0:0:0:0:
303,341,124591,1,8,0:0:0:0:
303,341,124671,1,8,0:0:0:0:
448,192,124833,5,12,0:0:0:0:
448,192,125639,5,0,0:0:0:0:
256,192,125809,1,0,0:0:0:0:
64,192,125979,1,0,0:0:0:0:
257,358,126150,5,4,0:0:0:0:
256,192,126230,12,0,130020,0:0:0:0:
163,62,141633,6,0,P|182:117|151:195,1,140,2|0,0:0|0:0,0:0:0:0:
192,275,142116,2,0,L|365:268,1,140,0|0,0:0|0:0,0:0:0:0:
397,211,142600,2,0,P|420:263|419:302,1,70,0|0,0:0|0:0,0:0:0:0:
487,326,142923,2,0,P|493:291|511:261,1,70,0|0,0:0|0:0,0:0:0:0:
479,183,143245,6,0,B|498:148|498:148|496:29,1,140,0|0,0:0|0:0,0:0:0:0:
412,44,143729,2,0,L|259:43,1,140,0|0,0:0|0:0,0:0:0:0:
188,33,144213,2,0,B|181:69|181:69|187:116,1,70,0|0,0:0|0:0,0:0:0:0:
265,127,144536,2,0,B|272:163|272:163|266:210,1,70,0|0,0:0|0:0,0:0:0:0:
197,241,144858,6,0,P|278:232|330:286,1,140,0|0,0:0|0:0,0:0:0:0:
366,337,145342,2,0,L|514:336,1,140,0|0,0:0|0:0,0:0:0:0:
471,258,145826,2,0,P|460:207|469:164,1,70
501,115,146149,2,0,P|512:64|503:21,1,70,0|0,0:0|0:0,0:0:0:0:
430,71,146471,6,0,L|280:75,1,140,0|0,0:0|0:0,0:0:0:0:
214,36,146955,2,0,B|165:31|165:31|129:43|129:43|64:40,1,140,0|0,0:0|0:0,0:0:0:0:
18,102,147439,2,0,P|17:159|26:184,1,70,0|0,0:0|0:0,0:0:0:0:
104,165,147762,2,0,P|105:222|96:247,1,70,0|0,0:0|0:0,0:0:0:0:
40,291,148084,6,0,B|83:288|83:288|177:349,1,140,2|0,0:0|0:0,0:0:0:0:
248,343,148568,2,0,P|276:314|262:216,1,140,0|0,0:0|0:0,0:0:0:0:
218,153,149052,2,0,L|228:69,1,70,0|0,0:0|0:0,0:0:0:0:
309,89,149374,2,0,L|299:5,1,70,0|0,0:0|0:0,0:0:0:0:
395,70,149697,6,0,P|452:60|500:144,1,140,0|0,0:0|0:0,0:0:0:0:
436,170,150181,2,0,L|444:314,1,140,0|0,0:0|0:0,0:0:0:0:
368,348,150665,2,0,P|328:353|290:341,1,70,0|0,0:0|0:0,0:0:0:0:
263,270,150987,2,0,P|223:265|185:277,1,70,0|0,0:0|0:0,0:0:0:0:
144,339,151310,6,0,L|151:181,1,140,0|0,0:0|0:0,0:0:0:0:
67,182,151794,2,0,L|60:24,1,140,0|0,0:0|0:0,0:0:0:0:
145,47,152278,2,0,P|201:63|232:55,1,70,0|0,0:0|0:0,0:0:0:0:
285,21,152600,2,0,P|319:21|351:35,1,70,0|0,0:0|0:0,0:0:0:0:
425,76,152923,6,0,L|433:21,2,46.6666666666667,0|0|0,0:0|0:0|0:0,0:0:0:0:
452,152,153245,2,0,L|496:118,2,46.6666666666667,0|0|0,0:0|0:0|0:0,0:0:0:0:
439,232,153568,2,0,L|494:240,2,46.6666666666667,0|0|0,0:0|0:0|0:0,0:0:0:0:
375,292,153891,2,0,P|320:287|296:275,1,70,0|0,0:0|0:0,0:0:0:0:
282,201,154213,2,0,P|337:196|361:184,1,70,0|0,0:0|0:0,0:0:0:0:
228,309,154523,6,0,B|196:227|196:227|200:149,1,140,14|2,0:0|0:0,0:0:0:0:
218,78,155006,2,0,P|173:101|74:86,1,140,2|2,0:0|0:0,0:0:0:0:
86,92,155410,1,0,0:0:0:0:
86,92,155490,2,0,P|115:150|110:204,1,105,2|0,0:0|0:0,0:0:0:0:
99,229,155813,2,0,L|106:299,1,70,2|0,0:0|0:0,0:0:0:0:
206,344,156135,6,0,P|266:346|319:279,1,140,8|2,0:0|0:0,0:0:0:0:
287,199,156619,2,0,P|330:251|397:252,1,140,2|2,0:0|0:0,0:0:0:0:
397,252,157023,1,0,0:0:0:0:
397,252,157103,1,2,0:0:0:0:
474,315,157264,1,0,0:0:0:0:
474,315,157345,1,0,0:0:0:0:
474,315,157426,2,0,L|473:389,1,70,2|8,0:0|0:0,0:0:0:0:
484,229,157748,6,0,B|496:172|496:172|463:88,1,140,8|2,0:0|0:0,0:0:0:0:
283,234,158232,2,0,P|349:241|406:189,1,140,2|2,0:0|0:0,0:0:0:0:
402,196,158635,1,0,0:0:0:0:
402,196,158716,2,0,L|367:85,1,105,2|0,0:0|0:0,0:0:0:0:
333,74,159039,2,0,P|302:67|246:75,1,70,2|0,0:0|0:0,0:0:0:0:
155,132,159361,6,0,P|132:80|166:-8,1,140,8|2,0:0|0:0,0:0:0:0:
264,69,159845,2,0,B|216:132|216:132|140:133,1,140,2|2,0:0|0:0,0:0:0:0:
155,132,160248,1,0,0:0:0:0:
155,132,160329,1,2,0:0:0:0:
98,208,160490,1,0,0:0:0:0:
98,208,160571,1,0,0:0:0:0:
98,208,160652,2,0,L|94:284,1,70,2|8,0:0|0:0,0:0:0:0:
319,232,160974,6,0,P|252:218|176:256,1,140,8|2,0:0|0:0,0:0:0:0:
90,347,161458,2,0,L|93:277,1,70,2|0,0:0|0:0,0:0:0:0:
187,244,161781,1,2,0:0:0:0:
254,317,161942,2,0,P|310:328|338:318,1,70,2|0,0:0|0:0,0:0:0:0:
321,325,162184,1,0,0:0:0:0:
321,325,162264,2,0,P|377:314|405:324,1,70,2|0,0:0|0:0,0:0:0:0:
469,307,162587,6,0,L|482:256,2,35,8|0|0,0:0|0:0|0:0,0:0:0:0:
401,228,162910,2,0,P|401:183|431:137,1,70,2|2,0:0|0:0,0:0:0:0:
479,100,163232,2,0,P|479:55|449:9,1,70,0|2,0:0|0:0,0:0:0:0:
469,32,163474,1,0,0:0:0:0:
469,32,163555,1,2,0:0:0:0:
377,80,163716,1,0,0:0:0:0:
377,80,163797,1,0,0:0:0:0:
377,80,163877,2,0,L|284:78,1,70,2|8,0:0|0:0,0:0:0:0:
185,28,164200,6,0,B|216:66|216:66|197:182,1,140,8|2,0:0|0:0,0:0:0:0:
272,250,164684,2,0,L|116:242,1,140,2|2,0:0|0:0,0:0:0:0:
132,242,165087,1,0,0:0:0:0:
132,242,165168,2,0,P|157:286|147:347,1,105,2|0,0:0|0:0,0:0:0:0:
126,372,165490,1,2,0:0:0:0:
71,307,165652,1,0,0:0:0:0:
126,372,165813,6,0,L|268:367,1,140,10|2,0:0|0:0,0:0:0:0:
353,371,166297,2,0,P|371:315|318:233,1,140,2|2,0:0|0:0,0:0:0:0:
337,245,166700,1,0,0:0:0:0:
337,245,166781,1,2,0:0:0:0:
449,158,166942,1,0,0:0:0:0:
449,158,167023,1,0,0:0:0:0:
449,158,167103,1,2,0:0:0:0:
381,81,167264,1,8,0:0:0:0:
277,183,167426,6,0,P|223:195|142:164,1,140,12|2,0:0|0:0,0:0:0:0:
139,27,167910,2,0,L|147:196,1,140,2|2,0:0|0:0,0:0:0:0:
122,252,168393,2,0,P|85:254|32:236,1,70,2|0,0:0|0:0,0:0:0:0:
53,246,168635,1,0,0:0:0:0:
53,246,168716,1,2,0:0:0:0:
143,334,168877,1,0,0:0:0:0:
143,334,168958,1,0,0:0:0:0:
143,334,169039,6,0,P|201:323|299:333,1,140,8|2,0:0|0:0,0:0:0:0:
366,369,169523,2,0,L|355:214,1,140,2|2,0:0|0:0,0:0:0:0:
356,229,169926,1,0,0:0:0:0:
356,229,170006,1,2,0:0:0:0:
271,173,170168,1,0,0:0:0:0:
271,173,170248,1,0,0:0:0:0:
271,173,170329,2,0,L|275:257,1,70,2|8,0:0|0:0,0:0:0:0:
442,193,170652,6,0,B|461:144|461:144|451:49,1,140,8|2,0:0|0:0,0:0:0:0:
360,38,171135,2,0,L|204:44,1,140,2|2,0:0|0:0,0:0:0:0:
220,43,171539,1,0,0:0:0:0:
220,43,171619,1,2,0:0:0:0:
119,52,171781,1,0,0:0:0:0:
119,52,171861,1,0,0:0:0:0:
119,52,171942,2,0,P|143:83|152:135,1,70,2|0,0:0|0:0,0:0:0:0:
66,191,172264,6,0,L|235:185,1,140,10|2,0:0|0:0,0:0:0:0:
348,289,172748,2,0,L|179:283,1,140,2|2,0:0|0:0,0:0:0:0:
208,284,173152,1,0,0:0:0:0:
208,284,173232,1,2,0:0:0:0:
298,203,173393,1,0,0:0:0:0:
298,203,173474,1,0,0:0:0:0:
298,203,173555,2,0,L|383:206,1,70,2|8,0:0|0:0,0:0:0:0:
383,329,173877,6,0,B|348:289|348:289|367:205,1,140,8|2,0:0|0:0,0:0:0:0:
429,140,174361,2,0,B|457:169|451:209|451:209|439:279,1,140,2|2,0:0|0:0,0:0:0:0:
440,272,174764,1,0,0:0:0:0:
440,272,174845,1,2,0:0:0:0:
392,337,175006,1,0,0:0:0:0:
392,337,175087,1,0,0:0:0:0:
392,337,175168,2,0,L|298:338,1,70,2|0,0:0|0:0,0:0:0:0:
235,344,175490,6,0,L|224:379,2,35,8|0|0,0:0|0:0|0:0,0:0:0:0:
272,266,175813,2,0,P|276:223|261:185,1,70,2|2,0:0|0:0,0:0:0:0:
115,134,176135,2,0,P|106:167|111:204,1,70,0|2,0:0|0:0,0:0:0:0:
110,202,176377,1,0,0:0:0:0:
110,202,176458,2,0,L|202:199,1,70,2|0,0:0|0:0,0:0:0:0:
179,200,176700,1,0,0:0:0:0:
179,200,176781,2,0,P|187:233|183:270,1,70,2|8,0:0|0:0,0:0:0:0:
222,120,177103,6,0,L|388:118,1,140,8|2,0:0|0:0,0:0:0:0:
457,28,177587,2,0,L|317:29,1,140,2|2,0:0|0:0,0:0:0:0:
317,29,177990,1,0,0:0:0:0:
317,29,178071,2,0,L|234:33,1,70,2|0,0:0|0:0,0:0:0:0:
247,32,178313,1,0,0:0:0:0:
247,32,178393,1,2,0:0:0:0:
71,60,178716,6,0,P|107:93|96:186,1,140,8|2,0:0|0:0,0:0:0:0:
40,266,179200,2,0,L|188:260,1,140,2|2,0:0|0:0,0:0:0:0:
179,260,179603,1,0,0:0:0:0:
179,260,179684,1,2,0:0:0:0:
262,311,179845,2,0,L|270:358,2,35,0|0|2,0:0|0:0|0:0,0:0:0:0:
188,268,180168,1,8,0:0:0:0:
266,217,180329,5,14,0:0:0:0:
266,217,180490,1,0,0:0:0:0:
183,171,180651,1,0,0:0:0:0:
106,226,180812,1,10,0:0:0:0:
188,268,180974,1,0,0:0:0:0:
266,217,181135,1,0,0:0:0:0:
102,132,181296,2,0,P|51:152|26:278,1,167.999994873047,10|10,0:0|0:0,0:0:0:0:
85,310,181780,1,0,0:0:0:0:
102,132,181941,6,0,L|107:36,1,83.9999974365235,10|0,0:0|0:0,0:0:0:0:
115,162,182264,1,0,0:0:0:0:
234,203,182425,2,0,L|229:107,1,83.9999974365235,10|0,0:0|0:0,0:0:0:0:
221,233,182748,1,0,0:0:0:0:
87,343,182909,2,0,L|92:247,1,83.9999974365235,10|0,0:0|0:0,0:0:0:0:
225,316,183232,2,0,L|220:220,1,83.9999974365235,10|0,0:0|0:0,0:0:0:0:
397,299,183554,5,10,0:0:0:0:
324,350,183716,1,0,0:0:0:0:
317,262,183877,1,0,0:0:0:0:
402,384,184038,1,10,0:0:0:0:
475,333,184199,1,0,0:0:0:0:
461,241,184361,1,0,0:0:0:0:
281,181,184522,2,0,L|97:185,1,167.999994873047,10|10,0:0|0:0,0:0:0:0:
52,239,185006,1,0,0:0:0:0:
130,80,185167,6,0,L|136:-14,1,83.9999974365235,10|0,0:0|0:0,0:0:0:0:
94,98,185490,1,0,0:0:0:0:
245,163,185651,2,0,L|239:69,1,83.9999974365235,10|0,0:0|0:0,0:0:0:0:
281,181,185974,1,0,0:0:0:0:
107,268,186135,2,0,L|113:174,1,83.9999974365235,10|0,0:0|0:0,0:0:0:0:
71,286,186458,1,10,0:0:0:0:
148,361,186619,1,0,0:0:0:0:
241,294,186780,5,10,0:0:0:0:
241,294,186941,1,0,0:0:0:0:
318,359,187103,1,0,0:0:0:0:
340,261,187264,1,10,0:0:0:0:
260,200,187425,1,0,0:0:0:0:
241,294,187587,1,0,0:0:0:0:
421,321,187748,2,0,P|439:244|381:170,1,167.999994873047,10|10,0:0|0:0,0:0:0:0:
340,261,188232,1,0,0:0:0:0:
168,108,188393,6,0,L|155:3,1,83.9999974365235,10|0,0:0|0:0,0:0:0:0:
208,133,188716,1,0,0:0:0:0:
70,247,188877,2,0,L|83:142,1,83.9999974365235,10|0,0:0|0:0,0:0:0:0:
30,272,189200,1,0,0:0:0:0:
179,296,189361,2,0,L|166:191,1,83.9999974365235,10|0,0:0|0:0,0:0:0:0:
292,286,189683,2,0,L|281:369,1,83.9999974365235,10|0,0:0|0:0,0:0:0:0:
429,230,190006,5,10,0:0:0:0:
398,308,190167,1,0,0:0:0:0:
486,303,190329,1,0,0:0:0:0:
511,223,190490,1,10,0:0:0:0:
398,308,190651,1,0,0:0:0:0:
450,378,190812,1,0,0:0:0:0:
461,153,190974,2,0,B|474:52|474:52|452:-22,1,167.999994873047,10|10,0:0|0:0,0:0:0:0:
371,48,191458,1,0,0:0:0:0:
220,105,191619,6,0,L|194:0,1,83.9999974365235,10|0,0:0|0:0,0:0:0:0:
235,155,191941,1,0,0:0:0:0:
350,129,192103,2,0,L|376:24,1,83.9999974365235,10|0,0:0|0:0,0:0:0:0:
335,179,192425,1,0,0:0:0:0:
269,241,192587,2,0,L|289:322,1,83.9999974365235,10|0,0:0|0:0,0:0:0:0:
391,324,192909,2,0,L|411:242,1,83.9999974365235,0|0,0:0|0:0,0:0:0:0:
289,322,193232,6,0,B|170:251|156:371|12:305,1,280,2|0,0:0|0:0,0:0:0:0:
19,308,194683,1,0,0:0:0:0:
83,237,194845,2,0,L|89:19,1,210,0|0,0:0|0:0,0:0:0:0:
89,26,196135,2,0,P|125:36|132:36,1,35,0|0,0:0|0:0,0:0:0:0:
218,48,196458,6,0,L|216:130,1,70,0|0,0:0|0:0,0:0:0:0:
210,199,197103,2,0,L|251:196,1,35,0|0,0:0|0:0,0:0:0:0:
314,137,197425,2,0,L|348:139,1,35,0|0,0:0|0:0,0:0:0:0:
429,203,197748,1,0,0:0:0:0:
429,203,197909,1,0,0:0:0:0:
429,203,198070,6,0,L|426:248,1,35,0|0,0:0|0:0,0:0:0:0:
357,334,198393,2,0,L|354:299,1,35,0|0,0:0|0:0,0:0:0:0:
251,303,198716,2,0,L|248:337,3,35,0|0|0|0,0:0|0:0|0:0|0:0,0:0:0:0:
155,358,199361,1,0,0:0:0:0:
118,338,199522,1,0,0:0:0:0:
97,301,199683,6,0,P|68:239|108:73,1,245,2|0,0:0|0:0,0:0:0:0:
107,74,200974,1,0,0:0:0:0:
181,25,201135,1,0,0:0:0:0:
181,25,201296,6,0,B|236:42|236:42|393:21,1,210,0|0,0:0|0:0,0:0:0:0:
387,21,202587,2,0,L|390:71,1,35,0|0,0:0|0:0,0:0:0:0:
461,108,202909,6,0,P|486:143|489:175,1,70,0|0,0:0|0:0,0:0:0:0:
438,241,203393,1,0,0:0:0:0:
438,241,203554,2,0,L|389:241,1,35,0|0,0:0|0:0,0:0:0:0:
307,243,203877,1,0,0:0:0:0:
256,192,203958,12,0,205812,0:0:0:0:
110,111,206135,5,2,0:0:0:0:
61,182,206458,2,0,P|52:223|55:260,2,70,0|0|0,0:0|0:0|0:0,0:0:0:0:
110,111,207425,1,0,0:0:0:0:
192,156,207748,2,0,P|262:165|404:148,1,210,0|0,0:0|0:0,0:0:0:0:
439,74,209038,1,0,0:0:0:0:
399,149,209361,6,0,P|384:193|391:226,1,70,0|0,0:0|0:0,0:0:0:0:
422,288,210006,1,0,0:0:0:0:
355,354,210328,2,0,L|315:351,3,35,0|0|0|0,0:0|0:0|0:0|0:0,0:0:0:0:
231,351,210974,6,0,B|221:313|221:313|238:269,1,70,0|0,0:0|0:0,0:0:0:0:
241,197,211619,2,0,L|246:149,1,35,0|0,0:0|0:0,0:0:0:0:
254,128,211941,2,0,P|303:136|334:128,1,70,0|0,0:0|0:0,0:0:0:0:
197,65,212587,6,0,L|113:72,1,70,2|0,0:0|0:0,0:0:0:0:
96,41,213070,2,0,L|26:35,1,70,0|0,0:0|0:0,0:0:0:0:
3,70,213554,1,0,0:0:0:0:
80,136,213877,1,0,0:0:0:0:
9,212,214199,6,0,P|-3:258|6:326,2,105,0|0|0,0:0|0:0|0:0,0:0:0:0:
126,226,215490,2,0,L|92:224,1,35,0|0,0:0|0:0,0:0:0:0:
126,200,215812,2,0,P|124:165|131:130,2,70,0|0|0,0:0|0:0|0:0,0:0:0:0:
219,249,216780,1,0,0:0:0:0:
332,167,217425,6,0,P|343:203|340:244,1,70,0|0,0:0|0:0,0:0:0:0:
219,249,217909,2,0,P|264:234|294:376,1,245,0|0,0:0|0:0,0:0:0:0:
81,34,220490,6,0,L|95:110,1,70,0|2,0:0|0:0,0:0:0:0:
174,123,220812,2,0,L|160:199,1,70,0|0,0:0|0:0,0:0:0:0:
111,260,221135,2,0,P|59:259|34:250,2,70,0|0|0,0:0|0:0|0:0,0:0:0:0:
186,296,221619,1,0,0:0:0:0:
256,250,221780,1,0,0:0:0:0:
329,210,221941,2,0,P|341:259|333:287,1,70,0|0,0:0|0:0,0:0:0:0:
304,354,222264,6,0,L|226:366,1,70,2|0,0:0|0:0,0:0:0:0:
150,367,222587,2,0,L|80:356,1,70,0|0,0:0|0:0,0:0:0:0:
17,301,222909,2,0,P|-1:351|3:380,2,70,0|0|0,0:0|0:0|0:0,0:0:0:0:
80,356,223393,1,0,0:0:0:0:
95,273,223554,1,0,0:0:0:0:
30,218,223716,6,0,L|32:139,1,70,0|2,0:0|0:0,0:0:0:0:
115,153,224038,2,0,L|116:83,1,70,0|0,0:0|0:0,0:0:0:0:
72,11,224361,2,0,P|28:20|-6:41,2,70,0|0|0,0:0|0:0|0:0,0:0:0:0:
116,83,224845,1,0,0:0:0:0:
199,86,225006,1,0,0:0:0:0:
261,29,225167,2,0,L|336:28,1,70,0|0,0:0|0:0,0:0:0:0:
392,85,225490,6,0,P|405:128|398:163,1,70,2|0,0:0|0:0,0:0:0:0:
389,235,225812,2,0,P|376:278|383:313,1,70,0|0,0:0|0:0,0:0:0:0:
431,368,226135,2,0,L|507:367,2,70,0|0|0,0:0|0:0|0:0,0:0:0:0:
379,302,226619,1,0,0:0:0:0:
295,306,226780,1,0,0:0:0:0:
242,371,226941,6,0,L|172:371,1,70,0|2,0:0|0:0,0:0:0:0:
102,323,227264,2,0,P|88:258|99:229,1,70,0|0,0:0|0:0,0:0:0:0:
164,220,227587,2,0,P|178:155|167:126,2,70,0|0|0,0:0|0:0|0:0,0:0:0:0:
87,255,228070,1,0,0:0:0:0:
23,199,228232,1,0,0:0:0:0:
57,122,228393,2,0,P|70:90|70:55,1,70,0|0,0:0|0:0,0:0:0:0:
152,33,228716,6,0,L|234:39,1,70,2|0,0:0|0:0,0:0:0:0:
282,96,229038,2,0,L|351:90,1,70,0|0,0:0|0:0,0:0:0:0:
432,115,229361,2,0,P|431:66|412:37,2,70,0|0|0,0:0|0:0|0:0,0:0:0:0:
368,170,229845,1,0,0:0:0:0:
408,243,230006,1,0,0:0:0:0:
368,317,230167,6,0,P|324:336|291:334,1,70,0|2,0:0|0:0,0:0:0:0:
237,282,230490,2,0,L|233:192,1,70,0|0,0:0|0:0,0:0:0:0:
157,177,230812,2,0,L|161:87,2,70,0|0|0,0:0|0:0|0:0,0:0:0:0:
113,249,231296,1,0,0:0:0:0:
67,319,231457,1,0,0:0:0:0:
16,251,231619,2,0,L|10:172,1,70,0|0,0:0|0:0,0:0:0:0:
34,100,231941,6,0,P|52:62|53:32,1,70,2|0,0:0|0:0,0:0:0:0:
137,30,232264,2,0,L|212:23,2,70,0|0|0,0:0|0:0|0:0,0:0:0:0:
53,34,232748,1,0,0:0:0:0:
99,103,232909,1,0,0:0:0:0:
106,186,233070,1,0,0:0:0:0:
52,251,233232,1,0,0:0:0:0:
69,332,233393,1,0,0:0:0:0:
149,354,233554,6,0,P|227:363|292:336,1,140,2|0,0:0|0:0,0:0:0:0:
333,273,234038,2,0,L|346:111,1,140,0|0,0:0|0:0,0:0:0:0:
310,56,234522,2,0,P|275:69|221:67,1,70,0|0,0:0|0:0,0:0:0:0:
166,34,234845,2,0,P|131:21|77:23,1,70,0|0,0:0|0:0,0:0:0:0:
31,68,235167,6,0,L|62:221,1,140,2|0,0:0|0:0,0:0:0:0:
142,212,235651,2,0,P|113:269|35:294,1,140,0|0,0:0|0:0,0:0:0:0:
23,376,236135,2,0,L|107:374,1,70,0|0,0:0|0:0,0:0:0:0:
177,372,236458,2,0,L|261:370,1,70,0|0,0:0|0:0,0:0:0:0:
330,360,236780,6,0,B|362:295|362:295|361:206,1,140,2|0,0:0|0:0,0:0:0:0:
357,143,237264,2,0,L|351:-4,1,140,0|0,0:0|0:0,0:0:0:0:
435,10,237748,2,0,P|480:29|501:61,1,70,0|0,0:0|0:0,0:0:0:0:
501,127,238070,2,0,L|501:205,1,70,0|0,0:0|0:0,0:0:0:0:
484,278,238393,6,0,P|443:243|350:228,1,140,0|0,0:0|0:0,0:0:0:0:
289,272,238877,2,0,L|131:268,1,140,0|0,0:0|0:0,0:0:0:0:
79,316,239361,2,0,P|66:276|70:233,1,70,0|0,0:0|0:0,0:0:0:0:
126,190,239683,2,0,P|139:150|135:107,1,70,0|0,0:0|0:0,0:0:0:0:
89,53,240006,6,0,B|151:33|151:33|248:37,1,140,2|0,0:0|0:0,0:0:0:0:
267,109,240490,2,0,B|329:129|329:129|426:125,1,140,0|0,0:0|0:0,0:0:0:0:
479,88,240974,2,0,L|477:168,1,70,0|0,0:0|0:0,0:0:0:0:
475,241,241296,2,0,L|473:321,1,70,0|0,0:0|0:0,0:0:0:0:
402,356,241619,6,0,P|341:357|276:300,1,140,2|0,0:0|0:0,0:0:0:0:
248,231,242103,2,0,L|98:238,1,140,0|0,0:0|0:0,0:0:0:0:
30,269,242587,2,0,P|24:243|33:192,1,70,0|0,0:0|0:0,0:0:0:0:
97,151,242909,2,0,P|103:125|94:74,1,70,0|0,0:0|0:0,0:0:0:0:
48,13,243232,6,0,P|147:45|205:19,1,140,2|0,0:0|0:0,0:0:0:0:
260,19,243716,2,0,L|252:181,1,140,0|0,0:0|0:0,0:0:0:0:
184,207,244199,2,0,L|190:286,1,70,0|0,0:0|0:0,0:0:0:0:
273,280,244522,2,0,L|267:359,1,70,0|0,0:0|0:0,0:0:0:0:
351,341,244845,6,0,L|505:343,1,140,0|0,0:0|0:0,0:0:0:0:
464,263,245328,2,0,P|451:200|473:128,1,140,0|0,0:0|0:0,0:0:0:0:
495,47,245812,2,0,L|404:49,1,70,0|0,0:0|0:0,0:0:0:0:
343,28,246135,2,0,L|273:26,1,70,0|0,0:0|0:0,0:0:0:0:
