osu file format v14

[General]
AudioFilename: audio.mp3
AudioLeadIn: 0
PreviewTime: 180166
Countdown: 0
SampleSet: Soft
StackLeniency: 0.2
Mode: 0
LetterboxInBreaks: 0
WidescreenStoryboard: 1

[Editor]
Bookmarks: 22284,31739,44803,54477,57706,67383,70609,86450,96435,101272,102885,133851,194805,196418,199643,206095,218998,238353,245993
DistanceSpacing: 1
BeatDivisor: 4
GridSize: 32
TimelineZoom: 0.9999998

[Metadata]
Title:EXEC_LINCA/.
TitleUnicode:EXEC_LINCA/.
Artist:Shimotsuki Haruka
ArtistUnicode:霜月はるか
Creator:Mir
Version:Advanced
Source:アルトネリコ ~世界の終わりで詩い続ける少女~
Tags:Shurelia Gust NIS America Ar Tonelico Sekai no Owari de Utai Tsuzukeru Shoujo The Girl Who Continues to Sing at the End of the World Melody of Elemia Aurica Nestmile オリカ ネストミール Visual Novel JRPG best ps2 hymn
BeatmapID:1453575
BeatmapSetID:686464

[Difficulty]
HPDrainRate:3
CircleSize:3
OverallDifficulty:3
ApproachRate:6
SliderMultiplier:1.2
SliderTickRate:1

[Events]
//Background and Video events
0,0,"aurica nestmile.png",0,0
//Break Periods
2,130220,140433
2,220651,232354
//Storyboard Layer 0 (Background)
//Storyboard Layer 1 (Fail)
//Storyboard Layer 2 (Pass)
//Storyboard Layer 3 (Foreground)
//Storyboard Sound Samples

[TimingPoints]
571,441.176470588235,4,2,1,10,1,0
1012,416.666666666667,4,2,1,10,1,0
1428,402.684563758389,4,2,1,10,1,0
1830,422.535211267606,4,2,1,13,1,0
2252,474.308300395257,4,2,1,16,1,0
2252,-133.333333333333,4,2,1,16,0,0
3201,530.973451327434,4,2,1,10,1,0
3466,368.098159509202,4,2,1,17,1,0
4202,422.535211267606,4,2,1,10,1,0
4624,400,4,2,1,10,1,0
4624,-133.333333333333,4,2,1,10,0,0
5424,422.535211267606,4,2,99,27,1,0
6269,404.040404040404,4,2,1,10,1,0
7077,400,4,2,1,10,1,0
7877,-133.333333333333,4,2,1,17,0,0
9077,-100,4,2,1,15,0,0
10277,387.096774193548,4,2,1,13,1,0
10277,-133.333333333333,4,2,1,13,0,0
11824,412.371134020619,4,2,99,27,1,0
12236,-100,4,2,1,10,0,0
12648,402.684563758389,4,2,1,18,1,0
13453,396.039603960396,4,2,1,20,1,0
14641,413.793103448276,4,2,1,10,1,0
15054,415.22491349481,4,2,1,16,1,0
15884,370.37037037037,4,2,1,10,1,0
15884,-133.333333333333,4,2,1,10,0,0
16624,408.719346049046,4,2,99,27,1,0
17850,-100,4,2,1,10,0,0
18258,404.040404040404,4,2,1,14,1,0
18258,-133.333333333333,4,2,1,14,0,0
19875,400,4,2,1,12,1,0
19875,-133.333333333333,4,2,1,12,0,0
20675,506.329113924051,4,2,1,10,1,0
20675,-153.846153846153,4,2,1,10,0,0
21688,348.837209302326,4,2,1,8,1,0
22036,384.615384615385,4,2,1,10,1,0
22466,384.615384615385,4,2,1,10,1,0
22594,431.654676258993,4,2,1,10,1,0
22737,483.870967741935,4,2,1,10,1,0
22898,705.882352941176,4,2,1,10,1,0
23133,769.230769230769,4,2,1,10,1,0
23389,952.380952380952,4,2,1,10,1,0
23706,413.793103448276,4,2,1,10,1,0
25363,300,4,2,1,10,1,0
25963,315.789473684211,4,2,1,10,1,0
26594,298.507462686567,4,2,1,10,1,0
30176,301.507537688442,4,2,1,10,1,0
31779,322.58064516129,5,2,1,20,1,0
31940,322.58064516129,5,2,3,26,1,0
33552,-100,5,2,3,18,0,0
33714,-100,5,2,3,26,0,0
35165,-100,5,2,3,10,0,0
35327,-100,5,2,3,26,0,0
36778,-100,5,2,3,5,0,0
36939,-100,5,2,3,26,0,0
38391,-100,5,2,3,29,0,0
40004,-100,5,2,3,20,0,0
40165,-100,5,2,3,29,0,0
41617,-100,5,2,3,13,0,0
41778,-100,5,2,3,29,0,0
44843,-100,5,2,1,37,0,0
70649,-100,5,2,2,48,0,1
83587,322.58064516129,5,2,5,36,1,0
83587,-100,5,2,5,36,0,0
86845,314.13612565445,5,2,1,32,1,0
86845,-100,5,2,1,32,0,0
87473,-100,5,2,1,26,0,0
89043,328.767123287671,5,2,1,20,1,0
90029,321.71581769437,5,2,5,36,1,0
90029,-100,5,2,5,36,0,0
91637,322.58064516129,5,2,5,32,1,0
91637,-100,5,2,5,32,0,0
103411,-100,5,2,5,32,0,0
109378,309.278350515464,5,2,2,15,1,0
109995,322.58064516129,3,2,2,47,1,1
110317,-100,3,2,2,47,0,1
116769,322.58064516129,4,2,2,47,1,1
116769,-100,4,2,2,47,0,1
117978,-100,4,2,1,20,0,0
118059,322.58064516129,3,2,2,50,1,1
118059,-100,3,2,2,50,0,1
118381,-100,3,2,2,47,0,1
119026,-100,3,2,2,47,0,1
119348,-100,3,2,2,47,0,1
119994,-100,3,2,2,47,0,1
120316,-100,3,2,2,47,0,1
120962,-100,3,2,2,47,0,1
121284,-100,3,2,2,47,0,1
121929,-100,3,2,2,47,0,1
122251,-100,3,2,2,47,0,1
122897,-100,3,2,2,47,0,1
123219,-100,3,2,2,47,0,1
123865,-100,3,2,2,47,0,1
124833,322.58064516129,4,2,2,50,1,0
124833,-100,4,2,2,50,0,0
125639,340.909090909091,4,2,1,52,1,0
126150,322.58064516129,3,2,2,55,1,0
126150,-100,3,2,2,55,0,0
129053,-100,3,2,2,23,0,0
141633,322.58064516129,5,2,3,29,1,0
154523,322.58064516129,5,2,1,38,1,0
180329,322.58064516129,5,2,2,47,1,1
180329,-100,5,2,2,47,0,1
193232,-100,5,2,5,36,0,0
206135,-100,5,2,5,34,0,0
218232,-100,5,2,98,45,0,0
218393,-100,5,2,5,34,0,0
220490,-100,5,2,3,27,0,0
222264,-100,5,2,3,17,0,0
222425,-100,5,2,3,27,0,0
223877,-100,5,2,3,12,0,0
224038,-100,5,2,3,27,0,0
225490,-100,5,2,3,7,0,0
225651,-100,5,2,3,27,0,0
228716,-100,5,2,3,17,0,0
228877,-100,5,2,3,27,0,0
230328,-100,5,2,3,12,0,0
230490,-100,5,2,3,27,0,0
231941,-100,5,2,3,7,0,0
232103,-100,5,2,3,27,0,0
235167,-100,5,2,3,17,0,0
235328,-100,5,2,3,27,0,0
236780,-100,5,2,3,12,0,0
236941,-100,5,2,3,27,0,0
238393,-100,5,2,3,12,0,0
238554,-100,5,2,3,27,0,0
241619,-100,5,2,3,17,0,0
241780,-100,5,2,3,27,0,0
243232,-100,5,2,3,12,0,0
243393,-100,5,2,3,27,0,0
246458,-100,5,2,1,20,0,0
246539,-100,5,2,1,20,0,0

[Colours]
Combo1 : 232,206,183
Combo2 : 215,215,215
Combo3 : 255,185,185
Combo4 : 255,174,247

[HitObjects]
59,106,31940,6,0,L|197:100,1,120,2|0,0:0|0:0,0:0:0:0:
276,30,32585,2,0,L|395:35,1,120,0|0,0:0|0:0,0:0:0:0:
435,80,33069,1,0,0:0:0:0:
435,80,33230,2,0,P|440:108|435:149,1,60,0|0,0:0|0:0,0:0:0:0:
378,147,33552,6,0,P|353:200|360:271,1,120,2|0,0:0|0:0,0:0:0:0:
379,378,34198,2,0,P|304:344|262:352,1,120,0|0,0:0|0:0,0:0:0:0:
214,372,34681,1,0,0:0:0:0:
214,372,34843,2,0,L|141:368,1,60,0|0,0:0|0:0,0:0:0:0:
105,333,35165,6,0,B|89:274|89:274|101:196,1,120,2|0,0:0|0:0,0:0:0:0:
110,156,35649,2,0,L|243:171,1,120,0|0,0:0|0:0,0:0:0:0:
287,154,36133,1,0,0:0:0:0:
253,38,36456,1,0,0:0:0:0:
358,2,36778,6,0,P|410:21|450:76,1,120,2|0,0:0|0:0,0:0:0:0:
498,104,37262,2,0,P|446:123|406:178,1,120,0|0,0:0|0:0,0:0:0:0:
387,229,37746,1,0,0:0:0:0:
476,309,38069,1,0,0:0:0:0:
376,375,38391,6,0,B|321:355|321:355|239:355,1,120,2|0,0:0|0:0,0:0:0:0:
199,356,38875,2,0,L|63:359,1,120,0|0,0:0|0:0,0:0:0:0:
23,334,39359,1,0,0:0:0:0:
96,239,39681,1,0,0:0:0:0:
24,150,40004,6,0,P|58:135|162:143,1,120,2|0,0:0|0:0,0:0:0:0:
192,162,40488,2,0,P|226:177|330:169,1,120,0|0,0:0|0:0,0:0:0:0:
359,146,40972,1,0,0:0:0:0:
424,45,41294,1,0,0:0:0:0:
497,140,41617,6,0,B|518:180|518:180|504:276,1,120,2|0,0:0|0:0,0:0:0:0:
487,310,42101,2,0,P|435:292|354:304,1,120,0|0,0:0|0:0,0:0:0:0:
318,326,42585,1,0,0:0:0:0:
203,362,42907,1,0,0:0:0:0:
112,282,43230,6,0,L|125:150,1,120,0|0,0:0|0:0,0:0:0:0:
91,111,43714,2,0,P|131:123|227:106,1,120,0|0,0:0|0:0,0:0:0:0:
258,81,44198,1,0,0:0:0:0:
353,8,44520,1,0,0:0:0:0:
453,73,44843,6,0,P|475:123|461:199,1,120,12|2,0:0|0:0,0:0:0:0:
444,242,45327,2,0,L|324:241,1,120,2|2,0:0|0:0,0:0:0:0:
269,264,45810,1,2,0:0:0:0:
174,189,46133,1,2,0:0:0:0:
72,253,46456,6,0,P|56:212|75:128,1,120,8|2,0:0|0:0,0:0:0:0:
104,90,46939,1,2,0:0:0:0:
204,23,47262,1,2,0:0:0:0:
204,23,47423,2,0,L|288:27,1,60,2|0,0:0|0:0,0:0:0:0:
302,72,47746,2,0,L|361:69,1,60,2|2,0:0|0:0,0:0:0:0:
416,43,48069,6,0,P|448:110|431:167,1,120,8|2,0:0|0:0,0:0:0:0:
383,173,48552,2,0,P|351:240|368:297,1,120,2|2,0:0|0:0,0:0:0:0:
389,334,49036,1,2,0:0:0:0:
275,372,49359,1,2,0:0:0:0:
195,282,49681,6,0,B|154:254|154:254|71:254,1,120,8|2,0:0|0:0,0:0:0:0:
42,297,50165,1,2,0:0:0:0:
15,179,50488,1,2,0:0:0:0:
15,179,50649,1,2,0:0:0:0:
51,64,50972,2,0,L|134:69,1,60,0|8,0:0|0:0,0:0:0:0:
166,45,51294,6,0,P|136:92|141:168,1,120,8|2,0:0|0:0,0:0:0:0:
173,201,51778,1,2,0:0:0:0:
281,252,52101,1,2,0:0:0:0:
281,252,52262,1,2,0:0:0:0:
233,362,52585,1,2,0:0:0:0:
123,313,52907,6,0,P|68:307|-9:329,2,120,8|2|0,0:0|0:0|0:0,0:0:0:0:
232,361,53875,1,2,0:0:0:0:
281,252,54198,1,0,0:0:0:0:
396,282,54520,6,0,B|428:246|428:246|432:157,1,120,8|2,0:0|0:0,0:0:0:0:
425,114,55004,2,0,P|375:104|299:127,1,120,2|2,0:0|0:0,0:0:0:0:
269,166,55488,1,2,0:0:0:0:
183,82,55810,1,2,0:0:0:0:
73,131,56133,6,0,P|37:186|47:253,1,120,8|2,0:0|0:0,0:0:0:0:
68,291,56617,1,2,0:0:0:0:
181,252,56939,1,2,0:0:0:0:
181,252,57101,2,0,L|256:259,1,60,2|0,0:0|0:0,0:0:0:0:
276,305,57423,2,0,L|335:299,1,60,2|8,0:0|0:0,0:0:0:0:
395,297,57746,6,0,B|402:246|402:246|385:155,1,120,12|2,0:0|0:0,0:0:0:0:
406,120,58230,2,0,P|333:141|275:120,1,120,2|2,0:0|0:0,0:0:0:0:
239,100,58714,1,2,0:0:0:0:
148,21,59036,1,2,0:0:0:0:
66,109,59359,6,0,P|46:182|64:234,1,120,8|2,0:0|0:0,0:0:0:0:
103,261,59843,2,0,L|233:253,1,120,2|2,0:0|0:0,0:0:0:0:
277,278,60327,2,0,B|310:280|310:280|357:271,1,60,2|0,0:0|0:0,0:0:0:0:
360,219,60649,2,0,B|393:217|393:217|440:226,1,60,2|8,0:0|0:0,0:0:0:0:
478,233,60972,6,0,P|495:149|469:101,1,120,8|2,0:0|0:0,0:0:0:0:
456,65,61456,2,0,L|326:79,1,120,2|2,0:0|0:0,0:0:0:0:
285,45,61939,1,2,0:0:0:0:
162,69,62262,1,2,0:0:0:0:
53,17,62585,6,0,L|37:153,1,120,8|2,0:0|0:0,0:0:0:0:
40,196,63069,2,0,B|127:153|121:226|237:190,1,180,2|2,0:0|0:0,0:0:0:0:
317,258,63875,1,2,0:0:0:0:
410,182,64198,6,0,B|436:224|436:224|434:298,1,120,8|2,0:0|0:0,0:0:0:0:
433,354,64681,2,0,P|386:365|314:338,1,120,2|2,0:0|0:0,0:0:0:0:
259,339,65165,1,2,0:0:0:0:
139,346,65488,1,2,0:0:0:0:
67,250,65810,6,0,L|91:180,1,60,8|0,0:0|0:0,0:0:0:0:
146,189,66133,2,0,L|122:119,1,60,2|2,0:0|0:0,0:0:0:0:
103,76,66456,1,0,0:0:0:0:
208,18,66778,1,2,0:0:0:0:
265,122,67101,1,2,0:0:0:0:
313,12,67423,6,0,L|451:22,1,120,8|2,0:0|0:0,0:0:0:0:
491,34,67907,2,0,P|507:93|482:159,1,120,0|2,0:0|0:0,0:0:0:0:
459,199,68391,1,2,0:0:0:0:
499,311,68714,1,2,0:0:0:0:
391,364,69036,6,0,P|322:363|260:323,1,120,8|2,0:0|0:0,0:0:0:0:
248,287,69520,1,2,0:0:0:0:
165,199,69843,1,2,0:0:0:0:
165,199,70004,2,0,P|129:260|135:327,1,120,2|2,0:0|0:0,0:0:0:0:
248,287,70649,6,0,L|317:285,1,60,14|0,0:0|0:0,0:0:0:0:
332,230,70972,2,0,L|391:231,1,60,0|10,0:0|0:0,0:0:0:0:
420,284,71294,2,0,L|479:285,1,60,0|0,0:0|0:0,0:0:0:0:
502,229,71617,2,0,P|507:170|474:106,1,120,10|10,0:0|0:0,0:0:0:0:
431,84,72101,5,0,0:0:0:0:
431,84,72262,1,10,0:0:0:0:
313,110,72585,1,0,0:0:0:0:
313,110,72746,1,10,0:0:0:0:
207,53,73069,1,0,0:0:0:0:
207,53,73230,1,10,0:0:0:0:
93,90,73552,1,10,0:0:0:0:
192,156,73875,6,0,L|186:227,1,60,10|0,0:0|0:0,0:0:0:0:
128,230,74198,2,0,L|134:301,1,60,0|10,0:0|0:0,0:0:0:0:
189,310,74520,2,0,L|183:381,1,60,0|0,0:0|0:0,0:0:0:0:
122,384,74843,2,0,B|72:381|72:381|2:352,1,120,10|10,0:0|0:0,0:0:0:0:
0,294,75327,5,0,0:0:0:0:
0,294,75488,1,10,0:0:0:0:
53,187,75810,1,0,0:0:0:0:
53,187,75971,1,10,0:0:0:0:
10,74,76294,1,0,0:0:0:0:
10,74,76455,1,10,0:0:0:0:
110,7,76778,1,10,0:0:0:0:
110,7,76939,1,0,0:0:0:0:
223,49,77262,6,0,L|295:48,1,60,0|0,0:0|0:0,0:0:0:0:
320,1,77585,2,0,L|379:1,1,60,10|0,0:0|0:0,0:0:0:0:
426,39,77907,1,0,0:0:0:0:
426,39,78069,2,0,P|440:96|418:158,1,120,10|10,0:0|0:0,0:0:0:0:
388,203,78552,5,0,0:0:0:0:
388,203,78714,1,10,0:0:0:0:
279,153,79036,1,0,0:0:0:0:
279,153,79198,1,10,0:0:0:0:
174,210,79520,1,0,0:0:0:0:
174,210,79682,1,10,0:0:0:0:
67,156,80004,1,10,0:0:0:0:
25,268,80327,6,0,L|104:264,1,60,10|0,0:0|0:0,0:0:0:0:
119,313,80649,2,0,L|198:309,1,60,0|10,0:0|0:0,0:0:0:0:
214,358,80972,2,0,L|293:354,1,60,0|0,0:0|0:0,0:0:0:0:
333,349,81294,2,0,B|358:300|358:300|346:217,1,120,10|10,0:0|0:0,0:0:0:0:
341,175,81778,5,0,0:0:0:0:
341,175,81939,1,10,0:0:0:0:
267,80,82262,1,0,0:0:0:0:
267,80,82423,1,10,0:0:0:0:
167,146,82746,1,0,0:0:0:0:
167,146,82907,1,10,0:0:0:0:
95,49,83230,1,10,0:0:0:0:
27,166,83587,6,0,B|-12:266|32:359|32:359|75:267|157:277,1,360,2|0,0:0|0:0,0:0:0:0:
256,211,84877,1,0,0:0:0:0:
354,277,85199,2,0,B|437:267|480:359|480:359|524:266|484:164,1,360,0|0,0:0|0:0,0:0:0:0:
368,137,86490,1,0,0:0:0:0:
271,41,86845,6,0,P|237:23|86:50,1,180
66,86,87473,1,0,0:0:0:0:
142,178,87787,1,0,0:0:0:0:
63,260,88101,2,0,L|67:327,1,60,0|0,0:0|0:0,0:0:0:0:
72,379,88415,2,0,P|125:337|191:341,1,120,0|0,0:0|0:0,0:0:0:0:
289,334,89043,6,0,L|352:340,1,60,0|0,0:0|0:0,0:0:0:0:
406,325,89371,2,0,L|465:319,2,60,0|0|0,0:0|0:0|0:0,0:0:0:0:
383,266,89864,1,0,0:0:0:0:
383,266,90029,6,0,B|391:205|391:205|496:167|473:67|473:67|404:116|364:86,1,360,2|0,0:0|0:0,0:0:0:0:
256,137,91315,1,0,0:0:0:0:
147,86,91637,2,0,B|108:116|39:67|39:67|16:167|121:205|121:205|128:266,1,360,0|0,0:0|0:0,0:0:0:0:
221,342,92927,2,0,L|296:338,1,60,0|0,0:0|0:0,0:0:0:0:
340,339,93249,6,0,P|349:274|317:217,1,120,0|0,0:0|0:0,0:0:0:0:
268,120,93895,1,0,0:0:0:0:
149,156,94217,2,0,L|21:150,2,120,0|0|0,0:0|0:0|0:0,0:0:0:0:
268,120,95185,1,0,0:0:0:0:
236,4,95507,1,0,0:0:0:0:
125,50,95830,1,0,0:0:0:0:
364,53,96475,5,2,0:0:0:0:
473,102,96798,2,0,P|485:52|465:-13,2,120,0|0|0,0:0|0:0|0:0,0:0:0:0:
378,176,97766,1,0,0:0:0:0:
449,271,98088,6,0,B|326:320|331:226|203:278,1,240,0|0,0:0|0:0,0:0:0:0:
103,315,99056,1,0,0:0:0:0:
13,235,99378,1,0,0:0:0:0:
72,130,99701,6,0,P|81:70|69:7,2,120,0|0|0,0:0|0:0|0:0,0:0:0:0:
13,235,100669,2,0,L|11:304,2,60,0|0|0,0:0|0:0|0:0,0:0:0:0:
72,130,101314,2,0,B|130:117|130:117|200:126,1,120,0|0,0:0|0:0,0:0:0:0:
308,142,101959,2,0,B|339:146|339:146|389:136,1,60,0|0,0:0|0:0,0:0:0:0:
424,122,102282,2,0,L|414:253,1,120,0|0,0:0|0:0,0:0:0:0:
410,361,102927,6,0,L|272:348,1,120,2|0,0:0|0:0,0:0:0:0:
252,302,103411,2,0,L|132:313,1,120,0|0,0:0|0:0,0:0:0:0:
76,334,103895,1,0,0:0:0:0:
4,238,104217,1,0,0:0:0:0:
79,143,104540,6,0,B|128:132|128:132|176:144|176:144|256:96|336:144|336:144|380:132|380:132|448:144,1,360,0|0,0:0|0:0,0:0:0:0:
502,231,105830,2,0,L|494:312,1,60,0|0,0:0|0:0,0:0:0:0:
485,350,106153,2,0,B|442:357|386:332|386:332|360:345|360:345|320:308|245:324,1,240,0|0,0:0|0:0,0:0:0:0:
141,352,107120,1,0,0:0:0:0:
31,138,107766,6,0,B|112:116|112:116|214:138,2,180,0|0|0,0:0|0:0|0:0,0:0:0:0:
12,256,109056,1,0,0:0:0:0:
118,321,109378,6,0,L|195:315,1,60,2|2,0:0|0:0,0:0:0:0:
237,310,109687,2,0,L|314:304,1,60,2|2,0:0|0:0,0:0:0:0:
354,298,109996,5,12,0:0:0:0:
354,298,110478,2,0,P|374:245|356:164,1,120,0|8,0:0|0:0,0:0:0:0:
345,126,110962,1,8,0:0:0:0:
237,178,111285,1,8,0:0:0:0:
141,106,111607,1,8,0:0:0:0:
45,179,111930,5,12,0:0:0:0:
45,179,112414,2,0,P|31:233|55:296,1,120,0|8,0:0|0:0,0:0:0:0:
85,342,112898,1,8,0:0:0:0:
186,277,113220,1,8,0:0:0:0:
287,341,113543,1,8,0:0:0:0:
376,261,113865,5,12,0:0:0:0:
376,261,114349,2,0,P|434:248|503:262,1,120,0|8,0:0|0:0,0:0:0:0:
510,315,114833,1,8,0:0:0:0:
403,374,115156,1,8,0:0:0:0:
287,341,115478,1,8,0:0:0:0:
376,261,115801,5,12,0:0:0:0:
418,148,116124,1,8,0:0:0:0:
363,44,116446,1,8,0:0:0:0:
255,98,116769,5,12,0:0:0:0:
146,46,117091,1,8,0:0:0:0:
105,158,117414,1,8,0:0:0:0:
155,268,117736,1,10,0:0:0:0:
267,310,118059,5,12,0:0:0:0:
267,310,118542,2,0,P|281:243|257:172,1,120,0|8,0:0|0:0,0:0:0:0:
246,138,119026,1,10,0:0:0:0:
301,31,119349,1,8,0:0:0:0:
419,50,119671,1,8,0:0:0:0:
448,166,119994,5,12,0:0:0:0:
448,166,120478,2,0,B|465:214|465:214|455:291,1,120,0|8,0:0|0:0,0:0:0:0:
443,341,120962,1,10,0:0:0:0:
340,278,121284,1,8,0:0:0:0:
242,348,121607,1,8,0:0:0:0:
152,268,121929,5,12,0:0:0:0:
152,268,122413,2,0,P|176:187|161:138,1,120,0|8,0:0|0:0,0:0:0:0:
136,103,122897,1,10,0:0:0:0:
16,110,123220,1,8,0:0:0:0:
26,229,123542,1,8,0:0:0:0:
43,347,123865,6,0,P|103:343|113:339,1,60,12|8,0:0|0:0,0:0:0:0:
146,302,124188,2,0,P|206:306|216:310,1,60,8|8,0:0|0:0,0:0:0:0:
248,347,124510,2,0,P|308:343|318:339,1,60,8|8,0:0|0:0,0:0:0:0:
360,314,124833,5,12,0:0:0:0:
360,314,125639,2,0,L|368:377,2,60,0|0|0,0:0|0:0|0:0,0:0:0:0:
352,250,126150,5,4,0:0:0:0:
256,192,126311,12,0,130020,0:0:0:0:
56,76,141633,6,0,P|143:65|193:75,1,120,2|0,0:0|0:0,0:0:0:0:
214,114,142116,2,0,P|273:119|332:107,1,120,0|0,0:0|0:0,0:0:0:0:
386,81,142600,1,0,0:0:0:0:
463,172,142923,1,0,0:0:0:0:
415,281,143245,6,0,B|380:298|380:298|288:290,1,120,0|0,0:0|0:0,0:0:0:0:
239,286,143729,2,0,L|112:276,1,120,0|0,0:0|0:0,0:0:0:0:
79,231,144213,1,0,0:0:0:0:
20,126,144536,1,0,0:0:0:0:
95,33,144858,6,0,P|217:34|221:37,1,120,0|0,0:0|0:0,0:0:0:0:
249,72,145342,2,0,P|371:71|375:68,1,120,0|0,0:0|0:0,0:0:0:0:
411,41,145826,1,0,0:0:0:0:
444,156,146149,1,0,0:0:0:0:
327,184,146471,6,0,P|266:242|254:297,1,120,0|0,0:0|0:0,0:0:0:0:
252,334,146955,2,0,L|384:342,1,120,0|0,0:0|0:0,0:0:0:0:
431,349,147439,1,0,0:0:0:0:
491,245,147762,1,0,0:0:0:0:
491,125,148084,6,0,B|459:102|459:102|360:104,1,120,2|0,0:0|0:0,0:0:0:0:
318,108,148568,2,0,B|286:131|286:131|187:129,1,120,0|0,0:0|0:0,0:0:0:0:
169,81,149052,1,0,0:0:0:0:
72,151,149374,1,0,0:0:0:0:
107,268,149697,6,0,P|155:318|229:321,1,120,0|0,0:0|0:0,0:0:0:0:
235,276,150181,2,0,L|372:273,1,120,0|0,0:0|0:0,0:0:0:0:
408,301,150665,1,0,0:0:0:0:
465,195,150987,1,0,0:0:0:0:
380,110,151310,6,0,L|230:113,1,120,0|0,0:0|0:0,0:0:0:0:
230,59,151794,2,0,L|110:56,1,120,0|0,0:0|0:0,0:0:0:0:
63,94,152278,1,0,0:0:0:0:
100,207,152600,1,0,0:0:0:0:
142,319,152923,6,0,P|212:279|263:279,1,120,0|0,0:0|0:0,0:0:0:0:
310,277,153407,2,0,P|368:285|417:318,1,120,0|0,0:0|0:0,0:0:0:0:
399,376,153891,1,0,0:0:0:0:
279,378,154213,1,0,0:0:0:0:
163,382,154523,6,0,L|8:380,1,120,14|2,0:0|0:0,0:0:0:0:
15,326,155006,2,0,P|6:263|49:191,1,120,2|2,0:0|0:0,0:0:0:0:
75,176,155490,1,2,0:0:0:0:
184,226,155813,1,2,0:0:0:0:
292,175,156135,6,0,L|421:176,1,120,8|2,0:0|0:0,0:0:0:0:
463,207,156619,1,2,0:0:0:0:
394,305,156942,1,2,0:0:0:0:
394,305,157103,2,0,L|287:303,1,60,2|0,0:0|0:0,0:0:0:0:
286,340,157426,2,0,L|226:341,1,60,2|8,0:0|0:0,0:0:0:0:
174,311,157748,6,0,P|156:227|180:168,1,120,8|2,0:0|0:0,0:0:0:0:
216,165,158232,2,0,P|234:81|210:22,1,120,2|2,0:0|0:0,0:0:0:0:
176,15,158716,1,2,0:0:0:0:
58,41,159039,1,2,0:0:0:0:
25,156,159361,6,0,L|36:291,1,120,8|2,0:0|0:0,0:0:0:0:
35,335,159845,2,0,P|113:307|174:321,1,120,2|2,0:0|0:0,0:0:0:0:
196,346,160329,1,2,0:0:0:0:
294,277,160652,2,0,L|367:278,1,60,2|8,0:0|0:0,0:0:0:0:
400,315,160974,6,0,P|388:239|447:170,1,120,8|2,0:0|0:0,0:0:0:0:
452,164,161458,2,0,P|464:88|405:19,1,120,2|2,0:0|0:0,0:0:0:0:
390,28,161942,1,2,0:0:0:0:
279,74,162264,1,2,0:0:0:0:
167,30,162587,6,0,L|137:103,1,60,8|0,0:0|0:0,0:0:0:0:
160,143,162910,2,0,L|190:216,1,60,2|2,0:0|0:0,0:0:0:0:
161,254,163232,1,0,0:0:0:0:
243,341,163555,1,2,0:0:0:0:
362,335,163877,1,2,0:0:0:0:
446,249,164200,6,0,B|460:186|460:186|426:95,1,120,8|2,0:0|0:0,0:0:0:0:
418,77,164684,2,0,L|285:76,1,120,2|2,0:0|0:0,0:0:0:0:
254,33,165168,1,2,0:0:0:0:
163,111,165490,1,2,0:0:0:0:
66,39,165813,6,0,P|46:101|78:202,1,120,10|2,0:0|0:0,0:0:0:0:
104,184,166297,1,2,0:0:0:0:
59,295,166619,1,2,0:0:0:0:
59,295,166781,1,2,0:0:0:0:
157,362,167103,1,2,0:0:0:0:
268,316,167426,6,0,B|317:310|317:310|334:317|334:317|417:311,1,120,12|2,0:0|0:0,0:0:0:0:
445,304,167910,2,0,B|455:229|455:229|428:161,1,120,2|2,0:0|0:0,0:0:0:0:
416,132,168393,1,2,0:0:0:0:
298,155,168716,1,2,0:0:0:0:
186,110,169039,6,0,P|111:111|37:142,1,120,8|2,0:0|0:0,0:0:0:0:
37,176,169523,2,0,L|55:301,1,120,2|2,0:0|0:0,0:0:0:0:
94,339,170006,1,2,0:0:0:0:
180,256,170329,2,0,B|212:249|212:249|271:254,1,60,2|8,0:0|0:0,0:0:0:0:
287,286,170652,6,0,P|362:285|436:254,1,120,8|2,0:0|0:0,0:0:0:0:
431,218,171135,2,0,L|441:82,1,120,2|2,0:0|0:0,0:0:0:0:
408,47,171619,1,2,0:0:0:0:
305,109,171942,1,2,0:0:0:0:
237,9,172264,6,0,P|180:71|175:129,1,120,10|2,0:0|0:0,0:0:0:0:
171,164,172748,2,0,L|172:308,1,120,2|2,0:0|0:0,0:0:0:0:
196,338,173232,1,2,0:0:0:0:
293,267,173555,2,0,L|389:263,1,60,2|8,0:0|0:0,0:0:0:0:
388,312,173877,6,0,L|380:147,1,120,8|2,0:0|0:0,0:0:0:0:
426,151,174361,2,0,P|424:83|397:22,1,120,2|2,0:0|0:0,0:0:0:0:
346,21,174845,1,2,0:0:0:0:
260,97,175168,1,2,0:0:0:0:
146,59,175490,6,0,L|84:122,1,60,8|0,0:0|0:0,0:0:0:0:
143,147,175813,2,0,L|205:210,1,60,2|2,0:0|0:0,0:0:0:0:
159,243,176135,1,0,0:0:0:0:
123,357,176458,2,0,P|195:357|245:324,1,120,2|2,0:0|0:0,0:0:0:0:
159,243,177103,6,0,L|-4:237,1,120,8|2,0:0|0:0,0:0:0:0:
10,185,177587,2,0,P|7:111|54:45,1,120,2|2,0:0|0:0,0:0:0:0:
82,48,178071,1,2,0:0:0:0:
191,96,178393,1,2,0:0:0:0:
284,20,178716,6,0,L|410:17,1,120,8|2,0:0|0:0,0:0:0:0:
454,49,179200,1,2,0:0:0:0:
384,146,179522,1,2,0:0:0:0:
384,146,179684,1,2,0:0:0:0:
447,247,180006,1,2,0:0:0:0:
373,342,180329,6,0,L|296:340,1,60,14|0,0:0|0:0,0:0:0:0:
253,338,180651,2,0,L|176:336,1,60,0|10,0:0|0:0,0:0:0:0:
132,335,180974,2,0,L|55:333,1,60,0|0,0:0|0:0,0:0:0:0:
31,289,181296,2,0,P|32:203|61:155,1,120,10|10,0:0|0:0,0:0:0:0:
85,128,181780,5,0,0:0:0:0:
85,128,181941,1,10,0:0:0:0:
165,217,182264,1,0,0:0:0:0:
165,217,182425,1,10,0:0:0:0:
248,130,182748,1,0,0:0:0:0:
248,130,182909,1,10,0:0:0:0:
331,216,183232,1,10,0:0:0:0:
416,132,183554,6,0,L|433:206,1,60,10|0,0:0|0:0,0:0:0:0:
484,215,183877,2,0,L|467:289,1,60,0|10,0:0|0:0,0:0:0:0:
410,273,184199,2,0,L|427:347,1,60,0|0,0:0|0:0,0:0:0:0:
382,375,184522,2,0,B|322:385|322:385|219:365,1,120,10|10,0:0|0:0,0:0:0:0:
205,358,185006,5,0,0:0:0:0:
205,358,185167,1,10,0:0:0:0:
276,261,185490,1,0,0:0:0:0:
276,261,185651,1,10,0:0:0:0:
180,187,185974,1,0,0:0:0:0:
180,187,186135,1,10,0:0:0:0:
264,101,186458,1,10,0:0:0:0:
264,101,186619,1,0,0:0:0:0:
176,19,186941,6,0,L|86:27,1,60,0|0,0:0|0:0,0:0:0:0:
68,60,187264,2,0,L|8:54,2,60,10|0|0,0:0|0:0|0:0,0:0:0:0:
96,112,187748,2,0,P|75:177|97:247,1,120,10|10,0:0|0:0,0:0:0:0:
116,277,188232,5,0,0:0:0:0:
116,277,188393,1,10,0:0:0:0:
210,350,188716,1,0,0:0:0:0:
210,350,188877,1,10,0:0:0:0:
329,354,189199,1,0,0:0:0:0:
329,354,189360,1,10,0:0:0:0:
420,276,189683,1,10,0:0:0:0:
306,235,190006,6,0,L|298:170,1,60,10|0,0:0|0:0,0:0:0:0:
357,161,190329,2,0,L|365:96,1,60,0|10,0:0|0:0,0:0:0:0:
304,98,190651,2,0,L|296:33,1,60,0|0,0:0|0:0,0:0:0:0:
246,5,190974,2,0,P|171:16|111:66,1,120,10|10,0:0|0:0,0:0:0:0:
112,95,191458,5,0,0:0:0:0:
112,95,191619,1,10,0:0:0:0:
201,174,191941,1,0,0:0:0:0:
201,174,192102,1,10,0:0:0:0:
91,222,192425,1,0,0:0:0:0:
91,222,192586,1,10,0:0:0:0:
24,322,192909,1,0,0:0:0:0:
142,342,193232,6,0,B|205:301|259:322|259:322|318:372|382:328|404:289|404:289|366:313|322:296,1,360,2|0,0:0|0:0,0:0:0:0:
253,219,194522,1,0,0:0:0:0:
136,191,194845,2,0,P|66:70|201:110,1,360,0|0,0:0|0:0,0:0:0:0:
253,219,196135,1,0,0:0:0:0:
339,135,196458,6,0,P|410:128|468:145,1,120,0|0,0:0|0:0,0:0:0:0:
483,256,197103,1,0,0:0:0:0:
399,341,197425,1,0,0:0:0:0:
283,307,197748,2,0,L|214:306,1,60,0|0,0:0|0:0,0:0:0:0:
163,315,198070,2,0,L|159:177,1,120,0|0,0:0|0:0,0:0:0:0:
155,74,198716,6,0,L|70:86,1,60,0|0,0:0|0:0,0:0:0:0:
66,137,199038,2,0,L|6:128,2,60,0|0|0,0:0|0:0|0:0,0:0:0:0:
40,193,199522,1,0,0:0:0:0:
40,193,199683,6,0,B|125:244|61:348|61:348|125:244|235:286,1,360,2|0,0:0|0:0,0:0:0:0:
329,325,200974,1,0,0:0:0:0:
425,254,201296,2,0,P|467:163|318:212,1,360,0|0,0:0|0:0,0:0:0:0:
329,325,202587,2,0,L|253:322,1,60,0|0,0:0|0:0,0:0:0:0:
212,342,202909,6,0,P|148:368|74:347,2,120,0|0|0,0:0|0:0|0:0,0:0:0:0:
235,224,203877,2,0,L|227:93,1,120,0|0,0:0|0:0,0:0:0:0:
139,22,204522,1,0,0:0:0:0:
54,106,204845,1,0,0:0:0:0:
140,189,205167,1,0,0:0:0:0:
227,104,205490,1,0,0:0:0:0:
380,288,206135,5,2,0:0:0:0:
470,209,206458,2,0,P|479:139|457:86,2,120,0|0|0,0:0|0:0|0:0,0:0:0:0:
380,288,207425,1,0,0:0:0:0:
306,192,207748,6,0,B|176:142|213:248|52:192,1,240,0|0,0:0|0:0,0:0:0:0:
14,95,208716,1,0,0:0:0:0:
113,28,209038,1,0,0:0:0:0:
228,60,209361,6,0,P|312:51|366:21,2,120,0|0|0,0:0|0:0|0:0,0:0:0:0:
113,28,210328,2,0,B|86:18|86:18|37:16,2,60,0|0|0,0:0|0:0|0:0,0:0:0:0:
170,134,210974,2,0,B|183:192|183:192|164:270,1,120,0|0,0:0|0:0,0:0:0:0:
136,366,211619,2,0,L|221:347,1,60,0|0,0:0|0:0,0:0:0:0:
252,339,211941,2,0,B|310:326|310:326|388:345,1,120,0|0,0:0|0:0,0:0:0:0:
466,269,212587,6,0,P|490:188|474:132,1,120,2|0,0:0|0:0,0:0:0:0:
463,98,213070,1,0,0:0:0:0:
361,33,213393,1,0,0:0:0:0:
361,33,213554,2,0,P|302:42|235:25,1,120,0|0,0:0|0:0,0:0:0:0:
124,19,214199,6,0,B|114:91|114:91|133:198,2,180,0|0|0,0:0|0:0|0:0,0:0:0:0:
243,29,215490,2,0,L|234:97,1,60,0|0,0:0|0:0,0:0:0:0:
264,140,215812,6,0,B|339:142|411:96|411:96|339:142|380:306,1,360,0|0,0:0|0:0,0:0:0:0:
290,371,217103,1,0,0:0:0:0:
178,327,217425,6,0,B|215:258|181:211|181:211|146:161|173:82,2,240,0|0|0,0:0|0:0|0:0,0:0:0:0:
126,358,218877,1,0,0:0:0:0:
405,116,233554,6,0,P|328:97|268:113,1,120,2|0,0:0|0:0,0:0:0:0:
233,128,234038,2,0,P|156:147|96:131,1,120,0|0,0:0|0:0,0:0:0:0:
65,109,234522,1,0,0:0:0:0:
17,219,234845,1,0,0:0:0:0:
83,318,235167,6,0,L|221:313,1,120,2|0,0:0|0:0,0:0:0:0:
263,310,235651,2,0,L|382:305,1,120,0|0,0:0|0:0,0:0:0:0:
443,301,236135,1,0,0:0:0:0:
362,212,236458,1,0,0:0:0:0:
271,131,236780,6,0,B|251:68|251:68|277:-5,1,120,2|0,0:0|0:0,0:0:0:0:
328,24,237264,2,0,L|459:31,1,120,0|0,0:0|0:0,0:0:0:0:
482,79,237748,1,0,0:0:0:0:
478,198,238070,1,0,0:0:0:0:
360,213,238393,6,0,P|290:240|217:231,1,120,0|0,0:0|0:0,0:0:0:0:
188,221,238877,2,0,L|26:224,1,120,0|0,0:0|0:0,0:0:0:0:
18,257,239361,1,0,0:0:0:0:
49,372,239683,1,0,0:0:0:0:
166,348,240006,6,0,B|226:335|226:335|329:352,1,120,2|0,0:0|0:0,0:0:0:0:
342,356,240490,2,0,L|489:376,1,120,0|0,0:0|0:0,0:0:0:0:
505,331,240974,1,0,0:0:0:0:
500,211,241296,1,0,0:0:0:0:
501,90,241619,6,0,B|430:61|430:61|340:68,1,120,2|0,0:0|0:0,0:0:0:0:
326,71,242103,2,0,L|186:85,1,120,0|0,0:0|0:0,0:0:0:0:
146,91,242587,1,0,0:0:0:0:
45,25,242909,1,0,0:0:0:0:
33,144,243232,6,0,P|20:231|40:282,1,120,2|0,0:0|0:0,0:0:0:0:
85,278,243716,2,0,L|204:266,1,120,0|0,0:0|0:0,0:0:0:0:
264,261,244199,1,0,0:0:0:0:
382,241,244522,1,0,0:0:0:0:
482,174,244845,6,0,P|507:253|483:316,1,120,0|0,0:0|0:0,0:0:0:0:
489,346,245328,2,0,L|369:334,1,120,0|0,0:0|0:0,0:0:0:0:
319,367,245812,1,0,0:0:0:0:
264,261,246135,1,0,0:0:0:0:
