osu file format v14

[General]
AudioFilename: audio.mp3
AudioLeadIn: 0
PreviewTime: 180166
Countdown: 0
SampleSet: Soft
StackLeniency: 0.2
Mode: 0
LetterboxInBreaks: 0
WidescreenStoryboard: 1

[Editor]
Bookmarks: 22284,31739,44803,54477,57706,67383,70609,86450,96435,101272,102885,133851,194805,196418,199643,206095,218998,238353,245993
DistanceSpacing: 1.6
BeatDivisor: 4
GridSize: 32
TimelineZoom: 1.6

[Metadata]
Title:EXEC_LINCA/.
TitleUnicode:EXEC_LINCA/.
Artist:Shimotsuki Haruka
ArtistUnicode:霜月はるか
Creator:Mir
Version:Possession
Source:アルトネリコ ~世界の終わりで詩い続ける少女~
Tags:Shurelia Gust NIS America Ar Tonelico Sekai no Owari de Utai Tsuzukeru Shoujo The Girl Who Continues to Sing at the End of the World Melody of Elemia Aurica Nestmile オリカ ネストミール Visual Novel JRPG best ps2 hymn
BeatmapID:1452800
BeatmapSetID:686464

[Difficulty]
HPDrainRate:6
CircleSize:4.5
OverallDifficulty:8.5
ApproachRate:9
SliderMultiplier:1.4
SliderTickRate:1

[Events]
//Background and Video events
0,0,"aurica nestmile.png",0,0
//Break Periods
2,25563,31179
2,130220,141033
//Storyboard Layer 0 (Background)
//Storyboard Layer 1 (Fail)
//Storyboard Layer 2 (Pass)
//Storyboard Layer 3 (Foreground)
//Storyboard Sound Samples

[TimingPoints]
571,441.176470588235,4,2,1,10,1,0
1012,416.666666666667,4,2,1,10,1,0
1428,402.684563758389,4,2,1,10,1,0
1830,422.535211267606,4,2,1,13,1,0
2252,474.308300395257,4,2,1,16,1,0
2252,-133.333333333333,4,2,1,16,0,0
3201,530.973451327434,4,2,1,10,1,0
3466,368.098159509202,4,2,1,17,1,0
4202,422.535211267606,4,2,1,10,1,0
4624,400,4,2,1,10,1,0
4624,-133.333333333333,4,2,1,10,0,0
5424,422.535211267606,4,2,99,27,1,0
6269,404.040404040404,4,2,1,10,1,0
7077,400,4,2,1,10,1,0
7877,-133.333333333333,4,2,1,17,0,0
9077,-100,4,2,1,15,0,0
10277,387.096774193548,4,2,1,13,1,0
10277,-133.333333333333,4,2,1,13,0,0
11824,412.371134020619,4,2,99,27,1,0
12236,-100,4,2,1,10,0,0
12648,402.684563758389,4,2,1,18,1,0
13453,396.039603960396,4,2,1,20,1,0
14641,413.793103448276,4,2,1,10,1,0
15054,415.22491349481,4,2,1,16,1,0
15884,370.37037037037,4,2,1,10,1,0
15884,-133.333333333333,4,2,1,10,0,0
16624,408.719346049046,4,2,99,27,1,0
17850,-100,4,2,1,10,0,0
18258,404.040404040404,4,2,1,14,1,0
18258,-133.333333333333,4,2,1,14,0,0
19875,400,4,2,1,12,1,0
19875,-133.333333333333,4,2,1,12,0,0
20675,506.329113924051,4,2,1,10,1,0
20675,-153.846153846153,4,2,1,10,0,0
21688,348.837209302326,4,2,1,8,1,0
22036,384.615384615385,4,2,1,10,1,0
22466,384.615384615385,4,2,1,10,1,0
22594,431.654676258993,4,2,1,10,1,0
22737,483.870967741935,4,2,1,10,1,0
22898,705.882352941176,4,2,1,10,1,0
23133,769.230769230769,4,2,1,10,1,0
23389,952.380952380952,4,2,1,10,1,0
23706,413.793103448276,4,2,1,10,1,0
25363,300,4,2,1,10,1,0
25963,315.789473684211,4,2,1,10,1,0
26594,298.507462686567,4,2,1,10,1,0
30176,301.507537688442,4,2,1,10,1,0
31779,322.58064516129,5,2,1,20,1,0
31940,322.58064516129,5,2,3,26,1,0
33552,-100,5,2,3,18,0,0
33714,-100,5,2,3,26,0,0
35165,-100,5,2,3,10,0,0
35327,-100,5,2,3,26,0,0
36778,-100,5,2,3,5,0,0
36939,-100,5,2,3,26,0,0
38391,-100,5,2,3,29,0,0
40004,-100,5,2,3,20,0,0
40165,-100,5,2,3,29,0,0
41617,-100,5,2,3,13,0,0
41778,-100,5,2,3,29,0,0
44843,-100,5,2,1,37,0,0
70649,-83.3333333333333,5,2,2,48,0,1
72504,-83.3333333333333,5,2,2,5,0,1
72585,-83.3333333333333,5,2,2,48,0,1
72988,-83.3333333333333,5,2,2,5,0,1
73069,-83.3333333333333,5,2,2,48,0,1
75730,-83.3333333333333,5,2,2,5,0,1
75811,-83.3333333333333,5,2,2,48,0,1
76214,-83.3333333333333,5,2,2,5,0,1
76295,-83.3333333333333,5,2,2,48,0,1
76698,-83.3333333333333,5,2,2,5,0,1
76779,-83.3333333333333,5,2,2,48,0,1
78956,-83.3333333333333,5,2,2,5,0,1
79037,-83.3333333333333,5,2,2,48,0,1
79439,-83.3333333333333,5,2,2,5,0,1
79520,-83.3333333333333,5,2,2,48,0,1
82181,-83.3333333333333,5,2,2,5,0,1
82262,-83.3333333333333,5,2,2,48,0,1
82665,-83.3333333333333,5,2,2,5,0,1
82746,-83.3333333333333,5,2,2,48,0,1
83587,322.58064516129,5,2,5,36,1,0
83587,-200,5,2,5,36,0,0
86845,314.13612565445,5,2,1,32,1,0
86845,-200,5,2,1,32,0,0
87473,-133.333333333333,5,2,1,26,0,0
89043,328.767123287671,5,2,1,20,1,0
90029,321.71581769437,5,2,5,36,1,0
90029,-200,5,2,5,36,0,0
91637,322.58064516129,5,2,5,32,1,0
91637,-200,5,2,5,32,0,0
103411,-200,5,2,5,32,0,0
109378,309.278350515464,5,2,2,15,1,0
109995,322.58064516129,3,2,2,47,1,1
110317,-83.3333333333333,3,2,2,47,0,1
116769,322.58064516129,4,2,2,47,1,1
116769,-83.3333333333333,4,2,2,47,0,1
117978,-100,4,2,1,20,0,0
118059,322.58064516129,3,2,2,50,1,1
118059,-50,3,2,2,50,0,1
118381,-83.3333333333333,3,2,2,47,0,1
119026,-66.6666666666667,3,2,2,47,0,1
119348,-83.3333333333333,3,2,2,47,0,1
119994,-66.6666666666667,3,2,2,47,0,1
120316,-83.3333333333333,3,2,2,47,0,1
120962,-66.6666666666667,3,2,2,47,0,1
121284,-83.3333333333333,3,2,2,47,0,1
121929,-66.6666666666667,3,2,2,47,0,1
122251,-83.3333333333333,3,2,2,47,0,1
122897,-66.6666666666667,3,2,2,47,0,1
123219,-83.3333333333333,3,2,2,47,0,1
123865,-66.6666666666667,3,2,2,47,0,1
124833,322.58064516129,4,2,2,50,1,0
124833,-200,4,2,2,50,0,0
125639,340.909090909091,4,2,1,52,1,0
126150,322.58064516129,3,2,2,55,1,0
126150,-133.333333333333,3,2,2,55,0,0
129053,-133.333333333333,3,2,2,23,0,0
141633,322.58064516129,5,2,3,29,1,0
154523,322.58064516129,5,2,1,38,1,0
180329,322.58064516129,5,2,2,48,1,1
180329,-83.3333333333333,5,2,2,48,0,1
182183,-83.3333333333333,5,2,2,5,0,1
182264,-83.3333333333333,5,2,2,48,0,1
182667,-83.3333333333333,5,2,2,5,0,1
182748,-83.3333333333333,5,2,2,48,0,1
185409,-83.3333333333333,5,2,2,5,0,1
185490,-83.3333333333333,5,2,2,48,0,1
185893,-83.3333333333333,5,2,2,5,0,1
185974,-83.3333333333333,5,2,2,48,0,1
186377,-83.3333333333333,5,2,2,5,0,1
186458,-83.3333333333333,5,2,2,48,0,1
188635,-83.3333333333333,5,2,2,5,0,1
188716,-83.3333333333333,5,2,2,48,0,1
189119,-83.3333333333333,5,2,2,5,0,1
189200,-83.3333333333333,5,2,2,48,0,1
191861,-83.3333333333333,5,2,2,5,0,1
191942,-83.3333333333333,5,2,2,48,0,1
192345,-83.3333333333333,5,2,2,5,0,1
192426,-83.3333333333333,5,2,2,48,0,1
192829,-83.3333333333333,5,2,2,5,0,1
192910,-83.3333333333333,5,2,2,48,0,1
193232,-200,5,2,5,36,0,0
206135,-200,5,2,5,34,0,0
218232,-200,5,2,98,53,0,0
218393,-200,5,2,5,54,0,0
220490,-100,5,2,3,27,0,0
222264,-100,5,2,3,17,0,0
222425,-100,5,2,3,27,0,0
223877,-100,5,2,3,12,0,0
224038,-100,5,2,3,27,0,0
225490,-100,5,2,3,7,0,0
225651,-100,5,2,3,27,0,0
228716,-100,5,2,3,17,0,0
228877,-100,5,2,3,27,0,0
230328,-100,5,2,3,12,0,0
230490,-100,5,2,3,27,0,0
231941,-100,5,2,3,7,0,0
232103,-100,5,2,3,27,0,0
235167,-100,5,2,3,17,0,0
235328,-100,5,2,3,27,0,0
236780,-100,5,2,3,12,0,0
236941,-100,5,2,3,27,0,0
238393,-100,5,2,3,12,0,0
238554,-100,5,2,3,27,0,0
241619,-100,5,2,3,17,0,0
241780,-100,5,2,3,27,0,0
243232,-100,5,2,3,12,0,0
243393,-100,5,2,3,27,0,0
246458,-25,5,2,1,20,0,0
246539,-1000,5,2,1,20,0,0

[Colours]
Combo1 : 232,206,183
Combo2 : 215,215,215
Combo3 : 255,185,185
Combo4 : 255,174,247

[HitObjects]
77,126,571,6,0,P|134:96|216:121,1,140
274,179,1428,2,0,P|340:195|402:165,1,140
347,86,2252,6,0,P|321:151|330:292,1,210.000008010865
328,288,3466,2,0,L|399:291,1,70,0|0,0:0|0:0,0:0:0:0:
283,218,3834,2,0,P|256:250|279:352,1,140,0|0,0:0|0:0,0:0:0:0:
420,198,4624,6,0,P|359:205|255:91,1,210.000008010865,0|2,0:0|0:0,0:0:0:0:
258,110,6269,6,0,L|103:113,2,140,0|0|0,0:0|0:0|0:0,0:0:0:0:
324,57,7477,1,0,0:0:0:0:
448,139,7877,6,0,P|466:223|448:348,1,210.000008010865
368,339,9077,2,0,L|387:264,1,70,0|0,0:0|0:0,0:0:0:0:
265,312,9477,2,0,P|335:315|391:255,1,140,0|0,0:0|0:0,0:0:0:0:
261,221,10277,6,0,P|201:251|204:383,2,210.000008010865
261,221,12236,5,0,0:0:0:0:
166,77,12648,1,0,0:0:0:0:
355,137,13050,1,0,0:0:0:0:
72,64,13453,6,0,L|81:229,2,140,0|0|0,0:0|0:0|0:0,0:0:0:0:
72,64,14641,1,0,0:0:0:0:
128,133,14847,1,0,0:0:0:0:
213,128,15054,2,0,P|246:120|302:30,1,140,0|0,0:0|0:0,0:0:0:0:
447,90,15884,6,0,L|425:315,1,210.000008010865,0|2,0:0|0:0,0:0:0:0:
426,299,17850,1,0,0:0:0:0:
354,244,18258,6,0,P|296:234|236:246,1,105.000004005432,0|0,0:0|0:0,0:0:0:0:
153,321,19066,2,0,L|155:201,1,105.000004005432,0|0,0:0|0:0,0:0:0:0:
52,109,19875,6,0,P|109:134|183:65,1,157.500006008148,0|0,0:0|0:0,0:0:0:0:
179,82,20675,6,0,P|205:54|308:48,1,136.499993751526,0|0,0:0|0:0,0:0:0:0:
298,43,21688,5,0,0:0:0:0:
256,192,21775,12,0,25363,0:0:0:0:
140,108,31779,6,0,L|145:185,1,70,0|2,0:0|0:0,0:0:0:0:
225,55,32101,2,0,L|230:132,1,70,0|0,0:0|0:0,0:0:0:0:
317,96,32423,2,0,L|322:173,1,70,0|0,0:0|0:0,0:0:0:0:
425,153,32746,1,0,0:0:0:0:
441,122,32907,1,0,0:0:0:0:
438,86,33069,1,0,0:0:0:0:
372,22,33230,5,0,0:0:0:0:
438,86,33391,1,0,0:0:0:0:
423,174,33552,6,0,L|428:251,1,70,2|0,0:0|0:0,0:0:0:0:
343,249,33875,2,0,L|348:326,1,70,0|0,0:0|0:0,0:0:0:0:
255,217,34198,2,0,L|260:294,1,70,0|0,0:0|0:0,0:0:0:0:
169,331,34520,1,0,0:0:0:0:
148,302,34681,1,0,0:0:0:0:
127,273,34843,1,0,0:0:0:0:
151,190,35004,5,0,0:0:0:0:
127,273,35165,1,2,0:0:0:0:
36,274,35327,6,0,L|25:201,1,70,0|0,0:0|0:0,0:0:0:0:
116,342,35649,2,0,L|127:269,1,70,0|0,0:0|0:0,0:0:0:0:
220,315,35972,2,0,L|209:242,1,70,0|0,0:0|0:0,0:0:0:0:
287,173,36294,1,0,0:0:0:0:
322,170,36456,1,0,0:0:0:0:
356,166,36617,1,0,0:0:0:0:
428,228,36778,5,2,0:0:0:0:
356,166,36939,1,0,0:0:0:0:
387,80,37101,6,0,L|393:6,1,70,0|0,0:0|0:0,0:0:0:0:
295,94,37423,2,0,L|289:20,1,70,0|0,0:0|0:0,0:0:0:0:
196,92,37746,2,0,L|202:18,1,70,0|0,0:0|0:0,0:0:0:0:
130,151,38069,1,0,0:0:0:0:
196,92,38230,1,0,0:0:0:0:
199,216,38391,6,0,P|158:207|48:229,1,140,2|0,0:0|0:0,0:0:0:0:
32,308,38875,2,0,L|25:382,2,70,0|0|0,0:0|0:0|0:0,0:0:0:0:
116,320,39359,2,0,L|191:326,1,70,0|0,0:0|0:0,0:0:0:0:
270,333,39681,2,0,L|345:339,1,70,0|0,0:0|0:0,0:0:0:0:
391,222,40004,6,0,P|342:271|349:358,1,140,2|0,0:0|0:0,0:0:0:0:
466,365,40488,2,0,P|440:322|410:303,2,70,0|0|0,0:0|0:0|0:0,0:0:0:0:
485,247,40972,2,0,L|493:157,1,70,0|0,0:0|0:0,0:0:0:0:
416,134,41294,2,0,L|408:44,1,70,0|0,0:0|0:0,0:0:0:0:
251,153,41617,6,0,P|196:157|110:93,1,140,2|0,0:0|0:0,0:0:0:0:
31,73,42101,2,0,L|26:3,2,70,0|0|0,0:0|0:0|0:0,0:0:0:0:
51,165,42585,2,0,P|46:209|31:242,1,70,0|0,0:0|0:0,0:0:0:0:
113,297,42907,2,0,P|118:341|133:374,1,70,0|0,0:0|0:0,0:0:0:0:
211,310,43230,6,0,L|265:313,2,46.6666666666667,0|0|0,0:0|0:0|0:0,0:0:0:0:
198,227,43552,2,0,L|144:230,2,46.6666666666667,0|0|0,0:0|0:0|0:0,0:0:0:0:
246,162,43875,2,0,L|300:165,2,46.6666666666667,0|0|0,0:0|0:0|0:0,0:0:0:0:
191,101,44198,1,0,0:0:0:0:
191,101,44305,2,0,P|185:71|188:30,1,46.6666666666667,0|0,0:0|0:0,0:0:0:0:
294,9,44520,1,0,0:0:0:0:
294,9,44627,2,0,P|300:39|297:80,1,46.6666666666667,0|0,0:0|0:0,0:0:0:0:
41,142,44843,6,0,P|104:151|163:216,1,140,12|2,0:0|0:0,0:0:0:0:
77,306,45327,2,0,L|71:235,1,70,2|0,0:0|0:0,0:0:0:0:
38,383,45649,1,2,0:0:0:0:
38,383,45810,2,0,P|93:387|120:382,1,70,2|0,0:0|0:0,0:0:0:0:
236,319,46133,2,0,P|201:321|166:317,1,70,2|0,0:0|0:0,0:0:0:0:
322,133,46456,6,0,L|317:287,1,140,8|2,0:0|0:0,0:0:0:0:
366,53,46939,2,0,P|333:43|278:53,1,70,2|0,0:0|0:0,0:0:0:0:
170,123,47262,1,2,0:0:0:0:
170,123,47423,2,0,P|204:125|238:115,1,70,2|0,0:0|0:0,0:0:0:0:
193,39,47746,1,2,0:0:0:0:
108,63,47907,1,2,0:0:0:0:
171,228,48069,6,0,P|194:290|159:363,1,140,8|2,0:0|0:0,0:0:0:0:
32,296,48552,2,0,P|88:289|119:294,1,70,2|0,0:0|0:0,0:0:0:0:
236,361,48875,1,2,0:0:0:0:
236,361,49036,2,0,P|201:362|166:355,1,70,2|0,0:0|0:0,0:0:0:0:
287,289,49359,2,0,P|321:282|356:283,1,70,2|0,0:0|0:0,0:0:0:0:
458,370,49681,6,0,L|443:200,1,140,8|2,0:0|0:0,0:0:0:0:
461,110,50165,2,0,P|439:138|393:162,1,70,2|0,0:0|0:0,0:0:0:0:
322,162,50488,1,2,0:0:0:0:
322,162,50649,1,2,0:0:0:0:
362,52,50810,1,0,0:0:0:0:
362,52,50891,1,0,0:0:0:0:
362,52,50972,1,0,0:0:0:0:
461,110,51133,1,8,0:0:0:0:
251,80,51294,6,0,B|205:76|205:76|174:89|174:89|99:84,1,140,8|2,0:0|0:0,0:0:0:0:
28,42,51778,2,0,P|23:94|37:126,1,70,2|0,0:0|0:0,0:0:0:0:
95,235,52101,1,2,0:0:0:0:
95,235,52262,2,0,P|102:200|95:166,1,70,2|0,0:0|0:0,0:0:0:0:
14,277,52585,2,0,P|7:311|14:345,1,70,2|0,0:0|0:0,0:0:0:0:
141,338,52907,5,8,0:0:0:0:
124,332,52988,1,0,0:0:0:0:
107,326,53069,1,0,0:0:0:0:
183,260,53230,2,0,P|223:260|257:243,1,70,2|2,0:0|0:0,0:0:0:0:
385,190,53552,2,0,P|352:177|317:178,1,70,0|2,0:0|0:0,0:0:0:0:
343,339,53875,2,0,L|342:254,1,70,2|0,0:0|0:0,0:0:0:0:
357,278,54117,1,0,0:0:0:0:
373,283,54198,1,0,0:0:0:0:
258,346,54359,1,8,0:0:0:0:
385,190,54520,6,0,P|394:113|366:42,1,140,8|2,0:0|0:0,0:0:0:0:
238,108,55004,2,0,P|307:108|325:104,1,70,2|0,0:0|0:0,0:0:0:0:
141,31,55327,1,2,0:0:0:0:
141,31,55488,2,0,L|144:117,1,70,2|0,0:0|0:0,0:0:0:0:
235,177,55810,2,0,L|237:107,1,70,2|0,0:0|0:0,0:0:0:0:
114,223,56133,5,8,0:0:0:0:
214,271,56294,1,0,0:0:0:0:
110,263,56456,5,2,0:0:0:0:
208,281,56617,1,2,0:0:0:0:
113,300,56778,5,0,0:0:0:0:
203,293,56939,1,2,0:0:0:0:
123,332,57101,5,2,0:0:0:0:
199,304,57262,1,0,0:0:0:0:
203,293,57343,1,0,0:0:0:0:
208,281,57423,1,2,0:0:0:0:
117,222,57585,1,8,0:0:0:0:
285,340,57746,6,0,P|352:341|416:282,1,140,12|2,0:0|0:0,0:0:0:0:
364,167,58230,2,0,P|345:200|349:248,1,70,2|0,0:0|0:0,0:0:0:0:
407,297,58552,1,2,0:0:0:0:
397,88,58714,2,0,P|344:85|316:92,1,70,2|0,0:0|0:0,0:0:0:0:
189,211,59036,2,0,P|223:215|258:211,1,70,2|0,0:0|0:0,0:0:0:0:
397,88,59359,6,0,P|340:86|255:153,1,140,8|2,0:0|0:0,0:0:0:0:
189,211,59843,2,0,P|223:215|258:211,1,70,2|0,0:0|0:0,0:0:0:0:
258,211,60165,1,2,0:0:0:0:
131,278,60327,1,2,0:0:0:0:
148,132,60488,1,0,0:0:0:0:
148,132,60569,1,0,0:0:0:0:
148,132,60649,1,2,0:0:0:0:
181,210,60810,1,8,0:0:0:0:
79,61,60972,6,0,P|134:39|222:81,1,140,8|2,0:0|0:0,0:0:0:0:
295,129,61456,2,0,P|354:135|396:123,1,70,2|0,0:0|0:0,0:0:0:0:
420,60,61778,1,2,0:0:0:0:
423,198,61939,2,0,L|425:271,1,70,2|0,0:0|0:0,0:0:0:0:
343,378,62262,2,0,L|344:308,1,70,2|0,0:0|0:0,0:0:0:0:
120,295,62585,6,0,P|203:298|271:245,1,140,8|2,0:0|0:0,0:0:0:0:
306,200,63069,1,2,0:0:0:0:
166,158,63230,1,0,0:0:0:0:
250,270,63391,1,2,0:0:0:0:
251,119,63552,1,2,0:0:0:0:
100,203,63714,1,0,0:0:0:0:
100,203,63794,1,0,0:0:0:0:
100,203,63875,2,0,P|63:201|22:180,1,70,2|8,0:0|0:0,0:0:0:0:
251,119,64198,6,0,L|409:126,1,140,8|2,0:0|0:0,0:0:0:0:
422,272,64681,2,0,P|414:236|419:187,1,70,2|0,0:0|0:0,0:0:0:0:
473,143,65004,1,2,0:0:0:0:
327,230,65165,1,2,0:0:0:0:
443,42,65407,1,0,0:0:0:0:
443,42,65488,2,0,L|485:44,2,35,2|0|0,0:0|0:0|0:0,0:0:0:0:
280,82,65810,5,8,0:0:0:0:
296,88,65891,1,0,0:0:0:0:
311,95,65972,1,0,0:0:0:0:
208,35,66133,2,0,P|196:76|203:115,1,70,2|2,0:0|0:0,0:0:0:0:
248,235,66456,2,0,L|255:155,1,70,0|2,0:0|0:0,0:0:0:0:
11,104,66778,2,0,B|44:116|44:116|104:107,1,70,2|0,0:0|0:0,0:0:0:0:
208,35,67020,1,0,0:0:0:0:
208,35,67101,2,0,B|173:29|173:29|140:41,1,70,2|8,0:0|0:0,0:0:0:0:
87,250,67423,6,0,L|77:96,1,140,8|2,0:0|0:0,0:0:0:0:
40,325,67907,2,0,P|92:335|121:328,1,70,0|0,0:0|0:0,0:0:0:0:
87,250,68230,1,2,0:0:0:0:
239,281,68391,2,0,P|204:283|170:273,1,70,2|0,0:0|0:0,0:0:0:0:
304,344,68714,2,0,P|338:346|372:336,1,70,2|0,0:0|0:0,0:0:0:0:
455,146,69036,5,8,0:0:0:0:
355,194,69197,1,0,0:0:0:0:
459,186,69359,5,2,0:0:0:0:
361,204,69520,1,2,0:0:0:0:
456,223,69681,5,0,0:0:0:0:
366,216,69842,1,2,0:0:0:0:
446,255,70004,5,2,0:0:0:0:
370,227,70165,1,0,0:0:0:0:
366,216,70246,1,0,0:0:0:0:
361,204,70326,1,2,0:0:0:0:
452,145,70488,1,8,0:0:0:0:
269,140,70649,5,14,0:0:0:0:
269,140,70810,1,0,0:0:0:0:
361,204,70972,1,0,0:0:0:0:
169,168,71133,1,10,0:0:0:0:
363,103,71294,1,0,0:0:0:0:
245,246,71456,1,0,0:0:0:0:
62,150,71617,6,0,P|61:94|78:47,1,83.9999974365235,10|0,0:0|0:0,0:0:0:0:
85,54,71859,1,0,0:0:0:0:
104,45,71939,1,10,0:0:0:0:
169,168,72101,1,0,0:0:0:0:
0,288,72262,6,0,P|50:251|140:263,1,125.999996154785,10|0,0:0|0:0,0:0:0:0:
150,267,72585,1,0,0:0:0:0:
347,358,72746,2,0,P|297:321|207:333,1,125.999996154785,10|0,0:0|0:0,0:0:0:0:
197,339,73069,1,0,0:0:0:0:
320,205,73230,6,0,P|370:168|422:167,1,83.9999974365235,10|0,0:0|0:0,0:0:0:0:
411,166,73472,1,0,0:0:0:0:
430,173,73552,2,0,L|427:267,1,83.9999974365235,10|0,0:0|0:0,0:0:0:0:
239,179,73875,5,10,0:0:0:0:
239,179,74036,1,0,0:0:0:0:
160,257,74198,1,0,0:0:0:0:
167,99,74359,1,10,0:0:0:0:
62,244,74520,1,0,0:0:0:0:
93,47,74681,1,0,0:0:0:0:
327,12,74843,6,0,P|384:19|422:52,1,83.9999974365235,10|0,0:0|0:0,0:0:0:0:
417,51,75085,1,0,0:0:0:0:
424,71,75165,1,10,0:0:0:0:
181,121,75327,1,0,0:0:0:0:
326,292,75488,6,0,P|261:306|185:267,1,125.999996154785,10|0,0:0|0:0,0:0:0:0:
177,256,75810,1,0,0:0:0:0:
271,168,75972,2,0,P|331:153|390:173,1,125.999996154785,10|0,0:0|0:0,0:0:0:0:
418,203,76294,1,0,0:0:0:0:
160,222,76456,6,0,P|145:161|165:102,1,125.999996154785,10|0,0:0|0:0,0:0:0:0:
193,72,76778,1,10,0:0:0:0:
62,185,76939,1,0,0:0:0:0:
275,29,77101,5,10,0:0:0:0:
275,29,77262,1,0,0:0:0:0:
95,15,77423,1,0,0:0:0:0:
338,85,77585,1,10,0:0:0:0:
83,94,77746,1,0,0:0:0:0:
356,7,77907,1,0,0:0:0:0:
456,180,78069,6,0,P|467:240|452:299,1,83.9999974365235,10|0,0:0|0:0,0:0:0:0:
457,282,78310,1,0,0:0:0:0:
450,302,78391,1,10,0:0:0:0:
354,328,78552,1,0,0:0:0:0:
211,172,78714,6,0,P|276:177|323:217,1,125.999996154785,10|0,0:0|0:0,0:0:0:0:
337,253,79036,1,0,0:0:0:0:
243,316,79198,2,0,P|194:354|132:358,1,125.999996154785,10|0,0:0|0:0,0:0:0:0:
92,343,79520,1,0,0:0:0:0:
105,181,79681,6,0,P|130:228|130:272,1,83.9999974365235,10|0,0:0|0:0,0:0:0:0:
111,260,79923,1,0,0:0:0:0:
89,261,80004,2,0,L|-7:263,1,83.9999974365235,10|0,0:0|0:0,0:0:0:0:
114,131,80327,5,10,0:0:0:0:
114,131,80488,1,0,0:0:0:0:
197,64,80649,1,0,0:0:0:0:
181,233,80810,1,10,0:0:0:0:
277,19,80972,1,0,0:0:0:0:
249,286,81133,1,0,0:0:0:0:
461,356,81294,6,0,P|469:301|456:255,1,83.9999974365235,10|0,0:0|0:0,0:0:0:0:
458,253,81536,1,0,0:0:0:0:
453,232,81617,1,10,0:0:0:0:
364,304,81778,1,0,0:0:0:0:
298,137,81939,6,0,P|235:159|163:139,1,125.999996154785,10|0,0:0|0:0,0:0:0:0:
139,130,82262,1,0,0:0:0:0:
337,10,82423,2,0,P|400:-12|472:8,1,125.999996154785,10|0,0:0|0:0,0:0:0:0:
495,18,82746,1,0,0:0:0:0:
311,218,82907,6,0,P|296:164|304:115,1,83.9999974365235,10|0,0:0|0:0,0:0:0:0:
440,108,83149,1,0,0:0:0:0:
468,139,83230,2,0,P|468:180|454:220,1,83.9999974365235,10|0,0:0|0:0,0:0:0:0:
301,326,83587,6,0,B|211:273|194:368|84:323,1,210,2|0,0:0|0:0,0:0:0:0:
98,328,84877,2,0,L|96:279,1,35,0|0,0:0|0:0,0:0:0:0:
73,101,85199,2,0,P|109:94|176:232,1,210,0|0,0:0|0:0,0:0:0:0:
184,218,86490,2,0,P|167:202|151:182,1,35
290,210,86845,6,0,L|407:214,1,105,0|0,0:0|0:0,0:0:0:0:
459,162,87473,2,0,P|459:125|449:98,1,52.5000020027161,0|0,0:0|0:0,0:0:0:0:
331,28,87787,5,0,0:0:0:0:
318,51,87944,1,0,0:0:0:0:
314,77,88101,1,0,0:0:0:0:
318,102,88258,1,0,0:0:0:0:
397,255,88415,5,0,0:0:0:0:
401,225,88572,1,0,0:0:0:0:
397,193,88729,1,0,0:0:0:0:
381,166,88886,1,0,0:0:0:0:
302,263,89043,5,0,0:0:0:0:
292,281,89207,1,0,0:0:0:0:
289,302,89371,1,0,0:0:0:0:
292,322,89536,1,0,0:0:0:0:
385,310,89700,5,0,0:0:0:0:
387,303,89864,1,0,0:0:0:0:
386,296,90029,6,0,P|288:273|170:298,1,210,2|0,0:0|0:0,0:0:0:0:
101,311,91155,2,0,L|101:356,2,35,0|0|0,0:0|0:0|0:0,0:0:0:0:
126,223,91637,2,0,P|127:174|-7:110,1,210,0|0,0:0|0:0,0:0:0:0:
40,191,92927,1,0,0:0:0:0:
40,191,93088,1,0,0:0:0:0:
181,125,93249,6,0,P|234:125|257:133,1,70,0|0,0:0|0:0,0:0:0:0:
316,192,93733,1,0,0:0:0:0:
316,192,93895,1,0,0:0:0:0:
256,192,94056,12,0,96153,0:0:0:0:
121,210,96475,5,2,0:0:0:0:
121,210,96798,1,0,0:0:0:0:
159,73,97120,2,0,P|169:103|179:148,2,70,0|0|0,0:0|0:0|0:0,0:0:0:0:
121,210,98088,6,0,P|181:185|256:219,1,140,0|0,0:0|0:0,0:0:0:0:
264,299,99056,1,0,0:0:0:0:
184,275,99378,1,0,0:0:0:0:
333,238,99701,6,0,L|410:242,2,70,0|0|0,0:0|0:0|0:0,0:0:0:0:
318,157,100669,1,0,0:0:0:0:
311,150,100830,1,0,0:0:0:0:
318,144,100991,1,0,0:0:0:0:
324,150,101153,1,0,0:0:0:0:
242,189,101314,6,0,P|232:145|242:110,1,70,0|0,0:0|0:0,0:0:0:0:
267,40,101798,1,0,0:0:0:0:
267,40,101959,2,0,L|221:41,1,35,0|0,0:0|0:0,0:0:0:0:
156,86,102282,2,0,P|128:87|79:67,1,70,0|0,0:0|0:0,0:0:0:0:
103,257,102927,6,0,P|111:211|105:184,1,70,2|0,0:0|0:0,0:0:0:0:
16,331,103411,2,0,P|8:285|14:258,1,70,0|0,0:0|0:0,0:0:0:0:
97,367,103895,1,0,0:0:0:0:
167,320,104217,1,0,0:0:0:0:
237,369,104540,6,0,P|287:381|339:377,2,105,0|0|0,0:0|0:0|0:0,0:0:0:0:
217,285,105830,1,0,0:0:0:0:
301,268,105991,1,0,0:0:0:0:
214,269,106153,6,0,L|135:266,2,70,0|0|0,0:0|0:0|0:0,0:0:0:0:
257,185,107120,2,0,P|261:149|235:84,1,105,0|0,0:0|0:0,0:0:0:0:
213,91,107766,6,0,P|248:101|290:98,1,70,0|0,0:0|0:0,0:0:0:0:
350,58,108249,1,0,0:0:0:0:
350,59,108572,1,0,0:0:0:0:
354,141,108733,1,0,0:0:0:0:
277,21,108895,1,0,0:0:0:0:
423,95,109056,1,0,0:0:0:0:
281,100,109217,5,0,0:0:0:0:
281,100,109378,1,2,0:0:0:0:
277,100,109532,1,2,0:0:0:0:
272,100,109687,1,2,0:0:0:0:
268,100,109841,1,2,0:0:0:0:
151,313,109995,5,12,0:0:0:0:
151,313,110317,1,0,0:0:0:0:
226,354,110478,2,0,P|270:359|329:337,1,83.9999974365235
262,278,110801,1,8,0:0:0:0:
151,179,110962,6,0,L|128:96,1,83.9999974365235,8|0,0:0|0:0,0:0:0:0:
262,278,111285,2,0,L|285:195,1,83.9999974365235,8|0,0:0|0:0,0:0:0:0:
123,351,111607,2,0,L|100:268,1,83.9999974365235,8|0,0:0|0:0,0:0:0:0:
439,119,111930,5,12,0:0:0:0:
439,119,112253,1,0,0:0:0:0:
372,174,112414,2,0,P|354:117|375:63,1,83.9999974365235,0|0,0:0|0:0,0:0:0:0:
489,46,112736,1,8,0:0:0:0:
227,254,112898,6,0,L|235:150,1,83.9999974365235,8|0,0:0|0:0,0:0:0:0:
140,320,113220,2,0,L|148:216,1,83.9999974365235,8|0,0:0|0:0,0:0:0:0:
49,377,113543,2,0,L|57:273,1,83.9999974365235,8|0,0:0|0:0,0:0:0:0:
391,291,113865,5,12,0:0:0:0:
391,291,114188,1,0,0:0:0:0:
393,124,114349,2,0,P|375:164|387:236,1,83.9999974365235,0|0,0:0|0:0,0:0:0:0:
391,291,114672,1,8,0:0:0:0:
278,90,114833,6,0,L|289:190,1,83.9999974365235,8|0,0:0|0:0,0:0:0:0:
178,31,115156,2,0,L|189:131,1,83.9999974365235,8|0,0:0|0:0,0:0:0:0:
77,0,115478,2,0,L|88:100,1,83.9999974365235,8|0,0:0|0:0,0:0:0:0:
479,183,115801,6,0,P|431:181|383:157,1,83.9999974365235,12|0,0:0|0:0,0:0:0:0:
33,183,116124,2,0,P|81:181|129:157,1,83.9999974365235,8|0,0:0|0:0,0:0:0:0:
398,167,116446,6,0,P|357:142|327:97,1,83.9999974365235,8|8,0:0|0:0,0:0:0:0:
113,167,116769,2,0,P|153:142|183:97,1,83.9999974365235,12|0,0:0|0:0,0:0:0:0:
335,114,117091,6,0,P|312:71|309:17,1,83.9999974365235,8|0,0:0|0:0,0:0:0:0:
175,113,117414,2,0,P|197:70|200:16,1,83.9999974365235,8|0,0:0|0:0,0:0:0:0:
257,135,117736,1,10,0:0:0:0:
257,135,117898,1,0,0:0:0:0:
37,345,118059,6,0,B|69:356|100:342|100:342|107:347|107:347|134:334|206:344,1,140,12|0,0:0|0:0,0:0:0:0:
325,206,118381,1,0,0:0:0:0:
257,135,118542,2,0,P|232:176|234:248,1,83.9999974365235,0|0,0:0|0:0,0:0:0:0:
374,281,118865,1,8,0:0:0:0:
61,59,119026,6,0,L|76:176,1,105.000004005432,10|0,0:0|0:0,0:0:0:0:
41,246,119349,2,0,P|107:246|138:222,1,83.9999974365235,8|0,0:0|0:0,0:0:0:0:
257,135,119671,2,0,P|191:135|160:159,1,83.9999974365235,8|0,0:0|0:0,0:0:0:0:
426,329,119994,5,12,0:0:0:0:
426,329,120317,1,0,0:0:0:0:
471,251,120478,2,0,P|418:241|361:262,1,83.9999974365235,0|0,0:0|0:0,0:0:0:0:
311,361,120800,1,8,0:0:0:0:
187,29,120962,6,0,P|172:81|215:150,1,105.000004005432,10|0,0:0|0:0,0:0:0:0:
108,148,121284,2,0,P|130:187|196:203,1,83.9999974365235,8|0,0:0|0:0,0:0:0:0:
123,280,121607,2,0,P|166:292|224:256,1,83.9999974365235,8|0,0:0|0:0,0:0:0:0:
488,32,121929,5,12,0:0:0:0:
488,32,122252,1,0,0:0:0:0:
463,112,122413,2,0,P|411:109|361:82,1,83.9999974365235,0|0,0:0|0:0,0:0:0:0:
313,47,122736,1,8,0:0:0:0:
86,308,122897,6,0,L|94:187,1,105.000004005432,10|0,0:0|0:0,0:0:0:0:
186,345,123220,2,0,L|194:224,1,83.9999974365235,8|0,0:0|0:0,0:0:0:0:
284,384,123542,2,0,L|292:263,1,83.9999974365235,8|0,0:0|0:0,0:0:0:0:
230,17,123865,5,12,0:0:0:0:
440,263,124026,1,8,0:0:0:0:
440,263,124107,1,8,0:0:0:0:
440,263,124188,1,8,0:0:0:0:
90,212,124349,1,8,0:0:0:0:
373,25,124510,1,8,0:0:0:0:
373,25,124591,1,8,0:0:0:0:
373,25,124671,1,8,0:0:0:0:
72,226,124833,5,12,0:0:0:0:
72,226,125639,5,0,0:0:0:0:
72,144,125809,1,0,0:0:0:0:
211,44,125979,1,0,0:0:0:0:
466,274,126150,6,0,B|312:310|239:187|239:187|123:68|287:-31|371:119|239:187|239:187|116:174|26:269|100:360|188:357|213:292,1,945.00003604889,4|0,0:0|0:0,0:0:0:0:
203,309,130020,1,0,0:0:0:0:
46,32,141633,6,0,P|25:102|59:176,1,140,2|0,0:0|0:0,0:0:0:0:
191,143,142116,2,0,P|126:132|107:138,2,70,0|0|0,0:0|0:0|0:0,0:0:0:0:
144,218,142600,2,0,L|140:303,1,70,0|0,0:0|0:0,0:0:0:0:
233,375,142923,2,0,L|229:305,1,70,0|0,0:0|0:0,0:0:0:0:
269,187,143245,6,0,P|361:199|416:158,1,140,0|0,0:0|0:0,0:0:0:0:
325,43,143729,2,0,L|328:124,2,70,0|0|0,0:0|0:0|0:0,0:0:0:0:
228,82,144213,2,0,P|173:85|151:75,1,70,0|0,0:0|0:0,0:0:0:0:
81,31,144536,2,0,P|26:28|4:38,1,70,0|0,0:0|0:0,0:0:0:0:
39,253,144858,6,0,L|51:90,1,140,0|0,0:0|0:0,0:0:0:0:
142,201,145342,2,0,L|136:270,2,70,0|0|0,0:0|0:0|0:0,0:0:0:0:
236,233,145826,2,0,P|293:232|322:214,1,70,0|0,0:0|0:0,0:0:0:0:
439,173,146149,2,0,P|405:163|371:167,1,70,0|0,0:0|0:0,0:0:0:0:
339,336,146471,6,0,B|281:338|281:338|251:323|251:323|183:322,1,140,0|0,0:0|0:0,0:0:0:0:
128,269,146955,2,0,P|113:321|120:355,2,70,0|0|0,0:0|0:0|0:0,0:0:0:0:
176,189,147439,2,0,L|181:99,1,70,0|0,0:0|0:0,0:0:0:0:
97,54,147762,2,0,L|100:123,1,70,0|0,0:0|0:0,0:0:0:0:
257,173,148084,6,0,P|318:177|388:113,1,140,2|0,0:0|0:0,0:0:0:0:
437,70,148568,2,0,L|440:0,2,70,0|0|0,0:0|0:0|0:0,0:0:0:0:
379,131,149052,2,0,L|382:200,1,70,0|0,0:0|0:0,0:0:0:0:
465,225,149374,2,0,L|461:294,1,70
361,353,149697,6,0,B|294:330|302:380|207:354,1,140,0|0,0:0|0:0,0:0:0:0:
141,343,150181,2,0,P|87:341|56:346,2,70,0|0|0,0:0|0:0|0:0,0:0:0:0:
199,275,150665,2,0,P|205:235|187:193,1,70,0|0,0:0|0:0,0:0:0:0:
118,149,150987,2,0,P|111:109|129:67,1,70,0|0,0:0|0:0,0:0:0:0:
338,130,151310,6,0,P|299:142|194:107,1,140,0|0,0:0|0:0,0:0:0:0:
186,32,151794,2,0,P|144:4|95:-1,2,70,0|0|0,0:0|0:0|0:0,0:0:0:0:
118,149,152278,2,0,P|111:109|129:67,1,70,0|0,0:0|0:0,0:0:0:0:
196,207,152600,2,0,P|204:240|198:274,1,70,0|0,0:0|0:0,0:0:0:0:
145,346,152923,6,0,L|93:352,2,46.6666666666667,0|0|0,0:0|0:0|0:0,0:0:0:0:
198,274,153245,2,0,L|250:280,2,46.6666666666667,0|0|0,0:0|0:0|0:0,0:0:0:0:
113,242,153568,1,0,0:0:0:0:
113,242,153676,2,0,P|105:219|103:183,1,46.6666666666667,0|0,0:0|0:0,0:0:0:0:
180,125,153891,1,0,0:0:0:0:
180,125,153999,2,0,P|188:148|190:184,2,46.6666666666667,0|0|0,0:0|0:0|0:0,0:0:0:0:
71,86,154374,1,0,0:0:0:0:
225,40,154523,6,0,L|384:40,1,140,14|2,0:0|0:0,0:0:0:0:
450,11,155006,2,0,P|454:43|440:98,1,70,2|0,0:0|0:0,0:0:0:0:
373,196,155329,1,2,0:0:0:0:
373,196,155490,2,0,P|366:161|370:127,1,70,2|0,0:0|0:0,0:0:0:0:
450,227,155813,2,0,P|453:261|447:295,1,70,2|0,0:0|0:0,0:0:0:0:
248,155,156135,6,0,P|310:153|377:203,1,140,8|2,0:0|0:0,0:0:0:0:
279,305,156619,2,0,P|279:268|301:224,1,70,2|0,0:0|0:0,0:0:0:0:
367,293,156942,1,2,0:0:0:0:
367,293,157023,1,0,0:0:0:0:
367,293,157103,1,2,0:0:0:0:
208,270,157264,1,0,0:0:0:0:
208,270,157345,1,0,0:0:0:0:
208,270,157426,1,2,0:0:0:0:
79,323,157587,1,8,0:0:0:0:
110,218,157748,6,0,B|116:155|116:155|92:71,1,140,8|2,0:0|0:0,0:0:0:0:
5,55,158232,2,0,L|26:142,1,70,2|0,0:0|0:0,0:0:0:0:
186,97,158555,1,2,0:0:0:0:
186,97,158716,2,0,L|169:28,1,70,2|0,0:0|0:0,0:0:0:0:
78,13,159039,2,0,L|94:81,1,70,2|0,0:0|0:0,0:0:0:0:
255,146,159361,6,0,P|307:149|399:88,1,140,8|2,0:0|0:0,0:0:0:0:
406,30,159845,1,2,0:0:0:0:
409,194,160006,1,0,0:0:0:0:
297,70,160168,1,2,0:0:0:0:
297,70,160248,1,0,0:0:0:0:
297,70,160329,1,2,0:0:0:0:
471,119,160490,1,0,0:0:0:0:
471,119,160571,1,0,0:0:0:0:
471,119,160652,1,2,0:0:0:0:
406,30,160813,1,8,0:0:0:0:
486,197,160974,6,0,B|498:239|498:239|484:350,1,140,8|2,0:0|0:0,0:0:0:0:
270,285,161458,2,0,P|335:273|411:302,1,140,2|2,0:0|0:0,0:0:0:0:
281,368,161942,2,0,P|224:357|203:337,1,70,2|0,0:0|0:0,0:0:0:0:
114,287,162184,1,0,0:0:0:0:
114,287,162264,2,0,P|171:276|192:256,1,70,2|0,0:0|0:0,0:0:0:0:
139,153,162587,5,8,0:0:0:0:
128,178,162668,1,0,0:0:0:0:
120,201,162748,1,0,0:0:0:0:
224,197,162910,2,0,L|229:108,1,70,2|2,0:0|0:0,0:0:0:0:
135,83,163232,2,0,L|138:152,1,70,0|2,0:0|0:0,0:0:0:0:
128,178,163474,1,0,0:0:0:0:
120,201,163555,1,2,0:0:0:0:
43,47,163716,1,0,0:0:0:0:
43,47,163797,1,0,0:0:0:0:
43,47,163877,1,2,0:0:0:0:
195,29,164039,1,8,0:0:0:0:
28,182,164200,6,0,P|37:234|109:289,1,140,8|2,0:0|0:0,0:0:0:0:
257,207,164684,2,0,P|213:195|110:203,1,140,2|2,0:0|0:0,0:0:0:0:
339,246,165168,2,0,P|346:194|335:160,1,70,2|0,0:0|0:0,0:0:0:0:
272,59,165410,1,0,0:0:0:0:
272,59,165490,2,0,P|267:93|275:127,1,70,2|0,0:0|0:0,0:0:0:0:
471,138,165813,6,0,P|424:137|331:189,1,140,10|2,0:0|0:0,0:0:0:0:
331,261,166297,2,0,P|279:272|236:265,1,70,2|0,0:0|0:0,0:0:0:0:
143,175,166619,1,2,0:0:0:0:
143,175,166700,1,0,0:0:0:0:
143,175,166781,1,2,0:0:0:0:
211,348,166942,1,0,0:0:0:0:
211,348,167023,1,0,0:0:0:0:
211,348,167103,1,2,0:0:0:0:
58,249,167264,1,8,0:0:0:0:
226,29,167426,6,0,P|251:92|202:173,1,140,12|2,0:0|0:0,0:0:0:0:
94,87,167910,2,0,P|129:83|163:90,1,70,2|0,0:0|0:0,0:0:0:0:
220,225,168232,1,2,0:0:0:0:
220,225,168313,1,0,0:0:0:0:
220,225,168393,2,0,L|226:134,1,70,2|0,0:0|0:0,0:0:0:0:
308,79,168635,1,0,0:0:0:0:
308,79,168716,2,0,L|312:148,1,70,2|0,0:0|0:0,0:0:0:0:
380,212,169039,6,0,P|449:214|492:154,1,140,8|2,0:0|0:0,0:0:0:0:
312,148,169523,2,0,P|292:180|293:238,1,70,2|0,0:0|0:0,0:0:0:0:
398,298,169845,1,2,0:0:0:0:
398,298,169926,1,0,0:0:0:0:
398,298,170006,1,2,0:0:0:0:
412,140,170168,1,0,0:0:0:0:
412,140,170248,1,0,0:0:0:0:
412,140,170329,1,2,0:0:0:0:
259,68,170490,1,8,0:0:0:0:
185,185,170652,6,0,P|122:186|38:141,1,140,8|2,0:0|0:0,0:0:0:0:
91,16,171135,2,0,P|104:51|90:106,1,70,2|0,0:0|0:0,0:0:0:0:
10,222,171458,1,2,0:0:0:0:
10,222,171539,1,0,0:0:0:0:
10,222,171619,1,2,0:0:0:0:
192,193,171781,1,0,0:0:0:0:
192,193,171861,1,0,0:0:0:0:
192,193,171942,1,2,0:0:0:0:
105,270,172103,1,0,0:0:0:0:
192,193,172264,6,0,P|248:187|353:189,1,140,10|2,0:0|0:0,0:0:0:0:
440,256,172748,2,0,P|402:254|327:162,1,140,2|2,0:0|0:0,0:0:0:0:
330,162,173152,1,0,0:0:0:0:
329,137,173232,1,2,0:0:0:0:
462,100,173393,1,0,0:0:0:0:
462,100,173474,1,0,0:0:0:0:
462,100,173555,1,2,0:0:0:0:
440,256,173716,1,8,0:0:0:0:
281,54,173877,6,0,P|198:41|122:56,1,140,8|2,0:0|0:0,0:0:0:0:
37,171,174361,2,0,L|43:252,1,70,2|0,0:0|0:0,0:0:0:0:
122,297,174684,1,2,0:0:0:0:
194,245,174845,2,0,L|199:175,1,70,2|0,0:0|0:0,0:0:0:0:
122,297,175087,1,0,0:0:0:0:
122,297,175168,2,0,L|128:378,1,70,2|0,0:0|0:0,0:0:0:0:
269,340,175490,5,8,0:0:0:0:
244,338,175571,1,0,0:0:0:0:
219,337,175652,1,0,0:0:0:0:
349,367,175813,2,0,P|348:316|337:286,1,70,2|2,0:0|0:0,0:0:0:0:
271,190,176135,2,0,P|262:223|264:258,1,70,0|2,0:0|0:0,0:0:0:0:
352,161,176377,1,0,0:0:0:0:
352,161,176458,2,0,L|365:81,1,70,2|0,0:0|0:0,0:0:0:0:
266,36,176700,1,0,0:0:0:0:
266,36,176781,2,0,L|279:116,1,70,2|8,0:0|0:0,0:0:0:0:
57,152,177103,6,0,P|109:131|207:142,1,140,8|2,0:0|0:0,0:0:0:0:
120,295,177587,2,0,P|103:259|103:204,1,70,2|0,0:0|0:0,0:0:0:0:
193,248,177910,1,2,0:0:0:0:
193,248,177990,1,0,0:0:0:0:
193,248,178071,1,2,0:0:0:0:
39,305,178232,1,0,0:0:0:0:
39,305,178313,1,0,0:0:0:0:
39,305,178394,1,2,0:0:0:0:
152,370,178555,1,0,0:0:0:0:
293,200,178716,5,8,0:0:0:0:
193,248,178877,1,0,0:0:0:0:
297,240,179039,5,2,0:0:0:0:
199,258,179200,1,2,0:0:0:0:
294,277,179361,5,0,0:0:0:0:
204,270,179522,1,2,0:0:0:0:
284,309,179684,5,2,0:0:0:0:
208,281,179845,1,0,0:0:0:0:
204,270,179926,1,0,0:0:0:0:
199,258,180006,1,2,0:0:0:0:
290,199,180168,1,8,0:0:0:0:
113,302,180329,5,14,0:0:0:0:
113,302,180490,1,0,0:0:0:0:
109,202,180651,1,0,0:0:0:0:
195,345,180812,1,10,0:0:0:0:
175,132,180974,1,0,0:0:0:0:
282,384,181135,1,0,0:0:0:0:
473,367,181296,6,0,P|484:309|471:261,1,83.9999974365235,10|0,0:0|0:0,0:0:0:0:
475,255,181538,1,0,0:0:0:0:
462,228,181619,1,10,0:0:0:0:
340,129,181780,1,0,0:0:0:0:
146,232,181941,6,0,P|89:239|6:189,1,125.999996154785,10|0,0:0|0:0,0:0:0:0:
8,173,182264,1,0,0:0:0:0:
202,70,182425,2,0,P|259:63|342:113,1,125.999996154785,10|0,0:0|0:0,0:0:0:0:
340,129,182748,1,0,0:0:0:0:
271,281,182909,6,0,P|251:208|259:166,1,83.9999974365235,10|0,0:0|0:0,0:0:0:0:
419,183,183151,1,0,0:0:0:0:
435,207,183232,2,0,P|431:248|415:287,1,83.9999974365235,10|0,0:0|0:0,0:0:0:0:
186,360,183554,5,10,0:0:0:0:
186,360,183716,1,0,0:0:0:0:
134,295,183877,1,0,0:0:0:0:
277,316,184038,1,10,0:0:0:0:
99,217,184199,1,0,0:0:0:0:
335,250,184361,1,0,0:0:0:0:
509,82,184522,6,0,P|480:45|412:29,1,83.9999974365235,10|0,0:0|0:0,0:0:0:0:
417,32,184764,1,0,0:0:0:0:
387,37,184845,1,10,0:0:0:0:
246,128,185006,1,0,0:0:0:0:
64,47,185167,6,0,B|33:102|63:201,1,125.999996154785,10|0,0:0|0:0,0:0:0:0:
76,206,185490,1,0,0:0:0:0:
258,287,185651,2,0,B|289:232|259:133,1,125.999996154785,10|0,0:0|0:0,0:0:0:0:
246,128,185974,1,0,0:0:0:0:
22,299,186135,6,0,P|65:306|172:263,1,125.999996154785,10|0,0:0|0:0,0:0:0:0:
161,246,186458,1,10,0:0:0:0:
76,206,186619,1,0,0:0:0:0:
267,336,186780,5,10,0:0:0:0:
267,336,186941,1,0,0:0:0:0:
329,272,187103,1,0,0:0:0:0:
188,287,187264,1,10,0:0:0:0:
393,205,187425,1,0,0:0:0:0:
122,232,187587,1,0,0:0:0:0:
16,25,187748,6,0,P|102:14|135:20,1,83.9999974365235,10|0,0:0|0:0,0:0:0:0:
126,23,187990,1,0,0:0:0:0:
153,33,188070,1,10,0:0:0:0:
219,148,188232,1,0,0:0:0:0:
428,64,188393,6,0,P|371:52|276:57,1,125.999996154785,10|0,0:0|0:0,0:0:0:0:
262,62,188716,1,0,0:0:0:0:
53,146,188877,2,0,P|110:158|205:153,1,125.999996154785,10|0,0:0|0:0,0:0:0:0:
219,148,189200,1,0,0:0:0:0:
42,62,189361,6,0,L|56:168,1,83.9999974365235,10|0,0:0|0:0,0:0:0:0:
141,257,189603,1,0,0:0:0:0:
166,240,189683,2,0,L|176:156,1,83.9999974365235,10|0,0:0|0:0,0:0:0:0:
335,93,190006,5,10,0:0:0:0:
335,93,190167,1,0,0:0:0:0:
235,62,190329,1,0,0:0:0:0:
429,59,190490,1,10,0:0:0:0:
175,156,190651,1,0,0:0:0:0:
502,136,190812,1,0,0:0:0:0:
506,358,190974,6,0,P|439:364|397:348,1,83.9999974365235,10|0,0:0|0:0,0:0:0:0:
398,343,191216,1,0,0:0:0:0:
378,321,191296,1,10,0:0:0:0:
329,171,191458,1,0,0:0:0:0:
119,309,191619,6,0,P|98:254|117:162,1,125.999996154785,10|0,0:0|0:0,0:0:0:0:
122,150,191941,1,0,0:0:0:0:
314,50,192103,2,0,P|335:105|316:197,1,125.999996154785,10|0,0:0|0:0,0:0:0:0:
311,209,192425,1,0,0:0:0:0:
66,74,192587,6,0,P|117:64|205:84,1,125.999996154785,10|0,0:0|0:0,0:0:0:0:
221,101,192909,2,0,L|226:185,1,83.9999974365235,0|0,0:0|0:0,0:0:0:0:
194,313,193232,6,0,P|114:226|226:185,1,280,2|0,0:0|0:0,0:0:0:0:
271,264,194683,1,0,0:0:0:0:
317,346,194845,2,0,P|371:343|505:171,1,280,0|0,0:0|0:0,0:0:0:0:
472,105,196296,1,0,0:0:0:0:
472,105,196458,6,0,L|427:110,1,35,0|0,0:0|0:0,0:0:0:0:
352,72,196780,2,0,L|317:68,1,35,0|0,0:0|0:0,0:0:0:0:
99,98,197103,2,0,L|133:94,1,35,0|0,0:0|0:0,0:0:0:0:
204,44,197425,5,0,0:0:0:0:
217,67,197587,1,0,0:0:0:0:
221,93,197748,1,0,0:0:0:0:
217,118,197909,1,0,0:0:0:0:
138,271,198070,5,0,0:0:0:0:
134,241,198232,1,0,0:0:0:0:
138,209,198393,1,0,0:0:0:0:
154,182,198554,1,0,0:0:0:0:
233,279,198716,5,0,0:0:0:0:
243,297,198877,1,0,0:0:0:0:
246,318,199038,1,0,0:0:0:0:
243,338,199199,1,0,0:0:0:0:
150,326,199361,5,0,0:0:0:0:
148,319,199522,1,0,0:0:0:0:
150,311,199683,6,0,B|259:343|250:263|366:313,1,210,2|0,0:0|0:0,0:0:0:0:
430,343,200812,2,0,L|431:385,2,35,0|0|0,0:0|0:0|0:0,0:0:0:0:
461,266,201296,2,0,P|475:227|447:52,1,210,0|0,0:0|0:0,0:0:0:0:
374,33,202587,2,0,P|370:51|372:69,1,35,0|0,0:0|0:0,0:0:0:0:
359,145,202909,6,0,P|318:149|274:144,1,70,0|0,0:0|0:0,0:0:0:0:
205,116,203393,1,0,0:0:0:0:
205,116,203554,2,0,L|203:76,1,35
202,3,203877,1,0,0:0:0:0:
256,192,204038,12,0,205812,0:0:0:0:
256,192,206135,5,2,0:0:0:0:
256,192,206458,1,0,0:0:0:0:
179,139,206780,2,0,P|187:105|198:72,2,70,0|0|0,0:0|0:0|0:0,0:0:0:0:
172,218,207748,6,0,L|25:228,1,140
50,309,208716,1,0,0:0:0:0:
59,148,209038,1,0,0:0:0:0:
172,218,209361,6,0,L|241:214,2,70,0|0|0,0:0|0:0|0:0,0:0:0:0:
76,112,210329,1,0,0:0:0:0:
83,105,210490,1,0,0:0:0:0:
76,99,210651,1,0,0:0:0:0:
70,105,210813,1,0,0:0:0:0:
152,141,210974,6,0,P|162:97|152:62,1,70,0|0,0:0|0:0,0:0:0:0:
92,20,211458,1,0,0:0:0:0:
92,20,211619,2,0,L|46:21,1,35,0|0,0:0|0:0,0:0:0:0:
234,46,211942,2,0,P|262:47|311:27,1,70,0|0,0:0|0:0,0:0:0:0:
401,42,212587,6,0,L|394:127,1,70,2|0,0:0|0:0,0:0:0:0:
320,195,213070,2,0,L|314:125,1,70,0|0,0:0|0:0,0:0:0:0:
399,232,213555,1,0,0:0:0:0:
329,276,213877,1,0,0:0:0:0:
251,247,214200,6,0,P|201:235|149:239,2,105
350,299,215490,1,0,0:0:0:0:
277,265,215651,1,0,0:0:0:0:
373,284,215813,6,0,L|452:281,2,70,0|0|0,0:0|0:0|0:0,0:0:0:0:
255,186,216780,2,0,P|251:150|277:85,1,105,0|0,0:0|0:0,0:0:0:0:
299,92,217426,6,0,P|264:102|222:99,1,70,0|0,0:0|0:0,0:0:0:0:
157,47,217909,2,0,P|122:37|80:40,1,70,0|4,0:0|0:0,0:0:0:0:
31,93,218393,5,0,0:0:0:0:
97,147,218554,1,0,0:0:0:0:
20,176,218716,1,0,0:0:0:0:
31,93,218877,1,0,0:0:0:0:
453,254,220490,6,0,L|448:177,1,70,0|2,0:0|0:0,0:0:0:0:
367,308,220812,2,0,L|362:231,1,70,0|0,0:0|0:0,0:0:0:0:
277,260,221134,2,0,L|272:183,1,70,0|0,0:0|0:0,0:0:0:0:
180,191,221459,1,0,0:0:0:0:
164,222,221619,1,0,0:0:0:0:
167,258,221780,1,0,0:0:0:0:
233,322,221941,5,0,0:0:0:0:
167,258,222104,1,0,0:0:0:0:
182,170,222265,6,0,L|177:93,1,70,2|0,0:0|0:0,0:0:0:0:
262,95,222588,2,0,L|257:18,1,70,0|0,0:0|0:0,0:0:0:0:
350,127,222909,2,0,L|345:50,1,70,0|0,0:0|0:0,0:0:0:0:
461,200,223231,1,0,0:0:0:0:
440,229,223392,1,0,0:0:0:0:
419,258,223554,1,0,0:0:0:0:
443,341,223715,5,0,0:0:0:0:
419,258,223876,1,2,0:0:0:0:
328,257,224038,6,0,L|317:330,1,70,0|0,0:0|0:0,0:0:0:0:
408,189,224360,2,0,L|419:262,1,70,0|0,0:0|0:0,0:0:0:0:
512,216,224683,2,0,L|501:289,1,70,0|0,0:0|0:0,0:0:0:0:
349,265,225005,1,0,0:0:0:0:
384,262,225167,1,0,0:0:0:0:
418,258,225328,1,0,0:0:0:0:
438,350,225489,5,2,0:0:0:0:
418,258,225650,1,0,0:0:0:0:
449,172,225812,6,0,L|455:98,1,70,0|0,0:0|0:0,0:0:0:0:
357,186,226134,2,0,L|351:112,1,70,0|0,0:0|0:0,0:0:0:0:
258,184,226457,2,0,L|264:110,1,70,0|0,0:0|0:0,0:0:0:0:
192,243,226780,1,0,0:0:0:0:
34,181,226941,6,0,L|39:258,1,70,0|2,0:0|0:0,0:0:0:0:
114,216,227263,2,0,L|119:293,1,70,0|0,0:0|0:0,0:0:0:0:
192,243,227587,2,0,L|197:320,1,70,0|0,0:0|0:0,0:0:0:0:
296,294,227908,1,0,0:0:0:0:
312,263,228069,1,0,0:0:0:0:
309,227,228231,1,0,0:0:0:0:
243,163,228392,5,0,0:0:0:0:
309,227,228553,1,0,0:0:0:0:
410,220,228716,6,0,L|415:143,1,70,2|0,0:0|0:0,0:0:0:0:
333,122,229037,2,0,L|338:45,1,70,0|0,0:0|0:0,0:0:0:0:
243,163,229360,2,0,L|248:86,1,70,0|0,0:0|0:0,0:0:0:0:
166,34,229682,1,0,0:0:0:0:
145,63,229845,1,0,0:0:0:0:
124,92,230005,1,0,0:0:0:0:
148,175,230166,5,0,0:0:0:0:
124,92,230327,1,2,0:0:0:0:
45,46,230489,6,0,L|34:119,1,70,0|0,0:0|0:0,0:0:0:0:
70,190,230812,2,0,L|59:263,1,70,0|0,0:0|0:0,0:0:0:0:
133,296,231134,2,0,L|122:369,1,70,0|0,0:0|0:0,0:0:0:0:
325,214,231458,1,0,0:0:0:0:
290,217,231618,1,0,0:0:0:0:
256,221,231779,1,0,0:0:0:0:
184,159,231940,5,2,0:0:0:0:
256,221,232103,1,0,0:0:0:0:
307,131,232263,6,0,L|312:61,1,70,0|0,0:0|0:0,0:0:0:0:
396,139,232587,2,0,L|401:69,1,70,0|0,0:0|0:0,0:0:0:0:
486,151,232908,2,0,L|491:81,1,70,0|0,0:0|0:0,0:0:0:0:
396,139,233232,1,0,0:0:0:0:
344,206,233393,1,0,0:0:0:0:
414,244,233554,6,0,B|358:247|358:247|335:238|335:238|265:241,1,140,2|0,0:0|0:0,0:0:0:0:
196,248,234038,2,0,L|189:322,2,70,0|0|0,0:0|0:0|0:0,0:0:0:0:
119,234,234522,2,0,L|49:228,1,70,0|0,0:0|0:0,0:0:0:0:
189,317,234844,2,0,L|264:323,1,70,0|0,0:0|0:0,0:0:0:0:
230,173,235167,6,0,B|239:102|239:102|208:26,1,140,2|0,0:0|0:0,0:0:0:0:
130,44,235651,2,0,L|38:47,2,70,0|0|0,0:0|0:0|0:0,0:0:0:0:
318,51,236135,2,0,B|328:87|328:87|326:141,1,70,0|0,0:0|0:0,0:0:0:0:
303,262,236458,2,0,B|301:229|301:229|311:193,1,70,0|0,0:0|0:0,0:0:0:0:
466,114,236780,6,0,L|316:120,1,140,2|0,0:0|0:0,0:0:0:0:
227,118,237264,2,0,L|222:48,2,70,0|0|0,0:0|0:0|0:0,0:0:0:0:
161,168,237748,2,0,P|166:212|181:245,1,70,0|0,0:0|0:0,0:0:0:0:
256,274,238070,2,0,P|251:318|236:351,1,70,0|0,0:0|0:0,0:0:0:0:
39,222,238393,6,0,P|94:214|193:246,1,140,0|0,0:0|0:0,0:0:0:0:
256,274,238877,2,0,P|304:282|341:280,2,70,0|0|0,0:0|0:0|0:0,0:0:0:0:
215,164,239361,2,0,L|209:81,1,70
300,23,239683,2,0,L|294:92,1,70
74,96,240006,6,0,P|129:81|234:107,1,140,2|0,0:0|0:0,0:0:0:0:
329,167,240490,2,0,L|405:163,2,70,0|0|0,0:0|0:0|0:0,0:0:0:0:
241,208,240974,2,0,B|229:242|229:242|238:294,1,70,0|0,0:0|0:0,0:0:0:0:
331,363,241296,2,0,B|336:329|336:329|325:295,1,70,0|0,0:0|0:0,0:0:0:0:
166,348,241619,6,0,P|114:343|34:268,1,140,2|0,0:0|0:0,0:0:0:0:
103,179,242103,2,0,P|123:226|122:255,2,70
14,119,242587,2,0,L|7:36,1,70,0|0,0:0|0:0,0:0:0:0:
113,19,242909,2,0,L|107:88,1,70,0|0,0:0|0:0,0:0:0:0:
236,141,243232,6,0,P|299:141|371:97,1,140,2|0,0:0|0:0,0:0:0:0:
443,81,243716,2,0,L|437:11,2,70,0|0|0,0:0|0:0|0:0,0:0:0:0:
422,162,244199,2,0,L|416:231,1,70,0|0,0:0|0:0,0:0:0:0:
480,285,244522,2,0,L|485:354,1,70,0|0,0:0|0:0,0:0:0:0:
324,309,244845,6,0,L|162:303,1,140,0|0,0:0|0:0,0:0:0:0:
93,261,245328,2,0,P|83:312|90:349,2,70,0|0|0,0:0|0:0|0:0,0:0:0:0:
144,190,245812,2,0,L|158:114,1,70,0|0,0:0|0:0,0:0:0:0:
76,110,246135,2,0,L|62:34,1,70,0|0,0:0|0:0,0:0:0:0:
