osu file format v14

[General]
AudioFilename: chanson.mp3
AudioLeadIn: 0
PreviewTime: 6082
Countdown: 0
SampleSet: Soft
StackLeniency: 0.3
Mode: 0
LetterboxInBreaks: 0
WidescreenStoryboard: 1

[Editor]
Bookmarks: 18510,56225,61367,95653,133367,138510,172796,200225,224653,224725,224796,224867,224939,225010,225082,225153,225225,225296,225367,225439,225510,225582,225653,225725,225796,225867,225939,226010,226082,226153,226225,226296,226367,226439,226510,226582,226653,226725,226796,226867,226939,227010,227082,227153,227225,227296,227367,227439,227510,227582,227653,227725,227796,227867,227939,228010,228082,228153,228225,228296,228367,228439,228510,228582,228653,228725,228796,228867,228939,229010,229082,229153,229225,229296,229367,229439,229510,229582,229653,229725,229796,229867,229939,230010,230082,230153,230225,230296,230367,230439,230510,230582,230653,230725,230796,230867,230939,231010,231082,234510,272225
DistanceSpacing: 1.9
BeatDivisor: 8
GridSize: 32
TimelineZoom: 2.719999

[Metadata]
Title:Chant de Verite
TitleUnicode:Chant de Vérité
Artist:Shimotsuki Haruka
ArtistUnicode:霜月はるか
Creator:ScubDomino
Version:kodama's Another
Source:グリモア~私立グリモワール魔法学園~
Tags:結び音リボン〜Daichi no Oto〜 Musubine Ribbon シャン ドゥ ベリテ 伊藤翼 Ito Tsubasa Tsubasacurry 仰木日向 Ogi Hinata ogihinata Applibot NIZIGEN★STUDIO grimoire mahou gakuen School of Wizards private grimoir magic academy opening theme full version waltz pop video game japanese french kodama ChezzNF Chezz 8382196 natsume shiki jungkyuyoung anime girl 8972308 fushimi rio Eggache0 imoutosan 1205412
BeatmapID:2630084
BeatmapSetID:1204933

[Difficulty]
HPDrainRate:6
CircleSize:4
OverallDifficulty:8
ApproachRate:9.2
SliderMultiplier:1.59999990463257
SliderTickRate:1

[Events]
//Background and Video events
0,0,"iftuoma.jpg",0,0
//Break Periods
2,224425,231082
//Storyboard Layer 0 (Background)
//Storyboard Layer 1 (Fail)
//Storyboard Layer 2 (Pass)
//Storyboard Layer 3 (Foreground)
//Storyboard Layer 4 (Overlay)
//Storyboard Sound Samples

[TimingPoints]
1110,476.190476190476,3,2,999,40,1,0
1229,357.142857142857,3,2,999,40,1,0
1407,267.857142857143,3,2,999,40,1,0
1407,-200,3,2,999,40,0,0
1942,285.714285714286,3,2,999,40,1,0
2225,285.714285714286,3,2,999,40,1,0
2225,-200,3,2,999,40,0,0
3939,-285.714285714286,3,2,999,40,0,0
6225,-100,3,2,999,40,0,0
6246,-100,3,2,999,40,0,0
6296,-100,3,2,999,50,0,0
6317,-100,3,2,999,50,0,0
6367,-100,3,2,999,60,0,0
6389,-100,3,2,999,60,0,0
6439,-100,3,2,999,70,0,0
6460,-100,3,2,999,70,0,0
6510,-71.4285714285714,3,2,999,80,0,0
7082,-125,3,2,999,80,0,0
9939,-90.9090909090909,3,2,999,80,0,0
10796,-125,3,2,999,80,0,0
11653,-90.9090909090909,3,2,999,80,0,0
12225,-125,3,2,999,80,0,0
13367,-76.9230769230769,3,2,999,80,0,0
13796,-125,3,2,999,80,0,0
14225,-90.9090909090909,3,2,999,80,0,0
15082,-125,3,2,999,80,0,0
15939,-200,3,2,999,80,0,0
16796,-357.142857142857,3,2,999,80,0,0
18175,-357.142857142857,3,2,999,80,0,0
18225,-357.142857142857,3,2,999,70,0,0
18460,-357.142857142857,3,2,999,70,0,0
18510,-357.142857142857,3,2,999,60,0,0
25367,-285.714285714286,3,2,999,60,0,0
31939,-200,3,2,999,60,0,0
32175,-200,3,2,999,60,0,0
32225,-100,3,2,999,70,0,0
32796,-153.846153846154,3,2,999,70,0,0
38510,-100,3,2,999,70,0,0
38796,-153.846153846154,3,2,999,70,0,0
39082,-125,3,2,999,70,0,0
39510,-153.846153846154,3,2,999,70,0,0
41939,-100,3,2,999,70,0,0
42225,-400,3,2,999,70,0,0
42510,-153.846153846154,3,2,999,70,0,0
44796,-100,3,2,999,70,0,0
46367,-153.846153846154,3,2,999,70,0,0
52225,-100,3,2,999,70,0,0
52796,-153.846153846154,3,2,999,70,0,0
55367,-38.4615384615385,3,2,999,70,0,0
56225,-86.9565217391304,3,2,999,70,0,0
56653,-133.333333333333,3,2,999,70,0,0
57082,-71.4285714285714,3,2,999,70,0,0
57653,-133.333333333333,3,2,999,70,0,0
57939,-74.0740740740741,3,2,999,70,0,0
58796,-76.9230769230769,3,2,999,70,0,0
59367,-133.333333333333,3,2,999,70,0,0
60796,-161.290322580645,3,2,999,70,0,0
60867,-161.290322580645,3,2,999,5,0,0
60939,-161.290322580645,3,2,999,70,0,0
61010,-161.290322580645,3,2,999,5,0,0
61082,-161.290322580645,3,2,999,70,0,0
61153,-161.290322580645,3,2,999,5,0,0
61225,-161.290322580645,3,2,999,70,0,0
61296,-161.290322580645,3,2,999,5,0,0
61367,-76.9230769230769,3,2,999,80,0,1
61939,-105.263157894737,3,2,999,80,0,1
68225,-86.9565217391304,3,2,999,80,0,0
69082,-105.263157894737,3,2,999,80,0,0
73367,-76.9230769230769,3,2,999,80,0,0
74225,-105.263157894737,3,2,999,80,0,1
74260,-105.263157894737,3,2,999,80,0,0
74510,-125,3,2,999,80,0,1
74939,-125,3,2,999,80,0,0
75082,-76.9230769230769,3,2,999,80,0,1
75653,-105.263157894737,3,2,999,80,0,1
75939,-76.9230769230769,3,2,999,80,0,1
76225,-105.263157894737,3,2,999,80,0,1
81082,-76.9230769230769,3,2,999,80,0,1
81939,-76.9230769230769,3,2,999,80,0,0
82510,-117.647058823529,3,2,999,80,0,0
83653,-86.9565217391304,3,2,999,80,0,0
84225,-117.647058823529,3,2,999,80,0,0
85367,-86.9565217391304,3,2,999,80,0,0
86510,-117.647058823529,3,2,999,80,0,0
87082,-86.9565217391304,3,2,999,80,0,0
87510,-117.647058823529,3,2,999,80,0,0
88796,-86.9565217391304,3,2,999,80,0,1
88867,-86.9565217391304,3,2,999,80,0,0
89225,-105.263157894737,3,2,999,80,0,0
89653,-86.9565217391304,3,2,999,80,0,1
89725,-86.9565217391304,3,2,999,80,0,0
89939,-105.263157894737,3,2,999,80,0,0
90225,-400,3,2,999,80,0,0
90510,-71.4285714285714,3,2,999,80,0,1
90582,-71.4285714285714,3,2,999,80,0,0
90939,-105.263157894737,3,2,999,80,0,0
92225,-133.333333333333,3,2,999,80,0,1
95317,-133.333333333333,3,2,999,80,0,1
95367,-133.333333333333,3,2,999,70,0,1
95653,-125,3,2,999,70,0,0
97103,-125,3,2,999,70,0,0
97153,-125,3,2,999,60,0,0
97175,-125,3,2,999,60,0,0
97225,-125,3,2,999,70,0,0
97246,-125,3,2,999,70,0,0
97296,-125,3,2,999,60,0,0
97317,-125,3,2,999,60,0,0
97367,-166.666666666667,3,2,999,70,0,0
98225,-125,3,2,999,70,0,0
99082,-166.666666666667,3,2,999,70,0,0
102225,-125,3,2,999,70,0,0
102246,-125,3,2,999,70,0,0
102296,-125,3,2,999,60,0,0
102318,-125,3,2,999,60,0,0
102368,-125,3,2,999,70,0,0
102510,-166.666666666667,3,2,999,70,0,0
103725,-125,3,2,999,70,0,0
104225,-166.666666666667,3,2,999,70,0,0
105367,-125,3,2,999,70,0,0
105939,-166.666666666667,3,2,999,70,0,0
107389,-166.666666666667,3,2,999,70,0,0
107439,-166.666666666667,3,2,999,60,0,0
107460,-166.666666666667,3,2,999,60,0,0
107510,-166.666666666667,3,2,999,70,0,0
107532,-166.666666666667,3,2,999,70,0,0
107582,-166.666666666667,3,2,999,60,0,0
107603,-166.666666666667,3,2,999,60,0,0
107653,-166.666666666667,3,2,999,70,0,0
109367,-100,3,2,999,70,0,0
109939,-153.846153846154,3,2,999,70,0,0
115653,-125,3,2,999,70,0,0
115796,-66.6666666666667,3,2,999,70,0,0
115939,-400,3,2,999,70,0,0
116225,-74.0740740740741,3,2,999,70,0,0
116653,-153.846153846154,3,2,999,70,0,0
117082,-100,3,2,999,70,0,0
117653,-153.846153846154,3,2,999,70,0,0
119082,-100,3,2,999,70,0,0
119653,-153.846153846154,3,2,999,70,0,0
122225,-100,3,2,999,70,0,0
123510,-153.846153846154,3,2,999,70,0,0
123939,-100,3,2,999,70,0,0
124225,-153.846153846154,3,2,999,70,0,0
129367,-100,3,2,999,70,0,0
130796,-153.846153846154,3,2,999,70,0,0
132510,-66.6666666666667,3,2,999,70,0,0
133367,-86.9565217391304,3,2,999,70,0,0
133796,-133.333333333333,3,2,999,70,0,0
134225,-71.4285714285714,3,2,999,70,0,0
134510,-285.714285714286,3,2,999,70,0,0
134796,-100,3,2,999,70,0,0
135082,-76.9230769230769,3,2,999,70,0,0
135510,-100,3,2,999,70,0,0
135939,-76.9230769230769,3,2,999,70,0,0
136796,-74.0740740740741,3,2,999,70,0,0
137939,-161.290322580645,3,2,999,70,0,0
138010,-161.290322580645,3,2,999,5,0,0
138082,-161.290322580645,3,2,999,70,0,0
138153,-161.290322580645,3,2,999,5,0,0
138225,-71.4285714285714,3,2,999,70,0,0
138510,-76.9230769230769,3,2,999,80,0,1
139082,-105.263157894737,3,2,999,80,0,1
144082,-86.9565217391304,3,2,999,80,0,1
144510,-105.263157894737,3,2,999,80,0,1
144796,-76.9230769230769,3,2,999,80,0,1
145367,-86.9565217391304,3,2,999,80,0,0
146225,-105.263157894737,3,2,999,80,0,0
148796,-86.9565217391304,3,2,999,80,0,0
149653,-105.263157894737,3,2,999,80,0,0
150510,-76.9230769230769,3,2,999,80,0,0
151367,-76.9230769230769,3,2,999,80,0,1
151403,-76.9230769230769,3,2,999,80,0,0
151653,-125,3,2,999,80,0,1
152082,-125,3,2,999,80,0,0
152225,-76.9230769230769,3,2,999,80,0,1
152796,-105.263157894737,3,2,999,80,0,1
155653,-86.9565217391304,3,2,999,80,0,1
156082,-105.263157894737,3,2,999,80,0,1
158225,-76.9230769230769,3,2,999,80,0,1
159082,-76.9230769230769,3,2,999,80,0,0
159653,-117.647058823529,3,2,999,80,0,0
159939,-86.9565217391304,3,2,999,80,0,0
160510,-117.647058823529,3,2,999,80,0,0
160796,-86.9565217391304,3,2,999,80,0,0
161653,-117.647058823529,3,2,999,80,0,0
162510,-86.9565217391304,3,2,999,80,0,0
163653,-117.647058823529,3,2,999,80,0,0
164796,-83.3333333333333,3,2,999,80,0,0
164939,-64.5161290322581,3,2,999,80,0,0
165367,-117.647058823529,3,2,999,80,0,0
165939,-86.9565217391304,3,2,999,80,0,1
166010,-86.9565217391304,3,2,999,80,0,0
166367,-105.263157894737,3,2,999,80,0,0
166796,-86.9565217391304,3,2,999,80,0,1
166867,-86.9565217391304,3,2,999,80,0,0
167082,-105.263157894737,3,2,999,80,0,0
167367,-400,3,2,999,80,0,0
167653,-71.4285714285714,3,2,999,80,0,1
167725,-71.4285714285714,3,2,999,80,0,0
168225,-105.263157894737,3,2,999,80,0,0
169367,-133.333333333333,3,2,999,80,0,1
171082,-100,3,2,999,80,0,1
171367,-80,3,2,999,80,0,1
171653,-66.6666666666667,3,2,999,80,0,1
171939,-133.333333333333,3,2,999,80,0,1
172225,-66.2251655629139,3,2,999,80,0,1
172746,-66.2251655629139,3,2,999,80,0,1
172796,-71.4285714285714,3,2,999,70,0,0
175082,-133.333333333333,3,2,999,70,0,0
179367,-400,3,2,999,70,0,0
179653,-71.4285714285714,3,2,999,70,0,0
179939,-133.333333333333,3,2,999,70,0,0
182653,-95.2380952380952,3,2,999,70,0,0
182796,-400,3,2,999,70,0,0
183082,-76.9230769230769,3,2,999,70,0,0
183510,-117.647058823529,3,2,999,70,0,0
184796,-76.9230769230769,3,2,999,70,0,0
185367,-117.647058823529,3,2,999,70,0,0
186510,-86.9565217391304,3,2,999,70,0,0
186939,-117.647058823529,3,2,999,70,0,0
187367,-86.9565217391304,3,2,999,70,0,0
187653,-117.647058823529,3,2,999,70,0,0
189367,-400,3,2,999,70,0,0
189653,-117.647058823529,3,2,999,70,0,0
192510,-76.9230769230769,3,2,999,70,0,0
193653,-117.647058823529,3,2,999,70,0,0
194225,-86.9565217391304,3,2,999,70,0,0
195082,-117.647058823529,3,2,999,70,0,0
195510,-100,3,2,999,70,0,0
195939,-86.9565217391304,3,2,999,70,0,0
196225,-400,3,2,999,70,0,0
196510,-86.9565217391304,3,2,999,70,0,0
196796,-111.111111111111,3,2,999,70,0,0
197653,-86.9565217391304,3,2,999,70,0,0
198082,-111.111111111111,3,2,999,70,0,0
198460,-111.111111111111,3,2,999,70,0,0
198510,-111.111111111111,3,2,999,75,0,0
199082,-400,3,2,999,75,0,0
199367,-200,3,2,999,75,0,0
199653,-100,3,2,999,75,0,0
199939,-63.2911392405063,3,2,999,75,0,0
200175,-63.2911392405063,3,2,999,75,0,0
200225,-66.6666666666667,3,2,999,80,0,1
201082,-105.263157894737,3,2,999,80,0,1
201367,-285.714285714286,3,2,999,80,0,1
201653,-68.9655172413793,3,2,999,80,0,1
201939,-105.263157894737,3,2,999,80,0,1
202796,-86.9565217391304,3,2,999,80,0,1
203082,-133.333333333333,3,2,999,80,0,1
203367,-285.714285714286,3,2,999,80,0,1
203653,-95.2380952380952,3,2,999,80,0,1
204510,-86.9565217391304,3,2,999,80,0,1
204796,-158.730158730159,3,2,999,80,0,1
205367,-103.092783505155,3,2,999,80,0,1
206225,-66.6666666666667,3,2,999,80,0,1
207082,-74.0740740740741,3,2,999,80,0,1
207510,-95.2380952380952,3,2,999,80,0,1
207939,-105.263157894737,3,2,999,80,0,1
208225,-285.714285714286,3,2,999,80,0,1
208510,-68.9655172413793,3,2,999,80,0,1
208796,-105.263157894737,3,2,999,80,0,1
209082,-86.9565217391304,3,2,999,80,0,1
209367,-68.9655172413793,3,2,999,80,0,1
209653,-105.263157894737,3,2,999,80,0,1
210510,-74.0740740740741,3,2,999,80,0,1
210939,-95.2380952380952,3,2,999,80,0,1
211367,-105.263157894737,3,2,999,80,0,1
211653,-285.714285714286,3,2,999,80,0,1
211939,-105.263157894737,3,2,999,80,0,1
212225,-74.0740740740741,3,2,999,80,0,1
212653,-95.2380952380952,3,2,999,80,0,1
213082,-105.263157894737,3,2,999,80,0,1
213510,-95.2380952380952,3,2,999,80,0,1
213939,-74.0740740740741,3,2,999,80,0,1
214367,-105.263157894737,3,2,999,80,0,1
214796,-74.0740740740741,3,2,999,80,0,1
215082,-105.263157894737,3,2,999,80,0,1
215367,-95.2380952380952,3,2,999,80,0,1
215653,-68.9655172413793,3,2,999,80,0,1
215939,-95.2380952380952,3,2,999,80,0,1
216225,-105.263157894737,3,2,999,80,0,1
216510,-285.714285714286,3,2,999,80,0,1
216796,-74.0740740740741,3,2,999,80,0,1
218225,-133.333333333333,3,2,999,80,0,0
219082,-208.333333333333,3,2,999,80,0,1
222367,-208.333333333333,3,2,999,50,0,0
223939,-133.333333333333,3,2,999,50,0,0
224175,-133.333333333333,3,2,999,50,0,0
224225,-208.333333333333,3,2,999,60,0,0
232653,-100,3,2,999,60,0,0
232746,-100,3,2,999,60,0,0
232796,-71.4285714285714,3,2,999,70,0,0
233367,-100,3,2,999,70,0,0
233939,-161.290322580645,3,2,999,70,0,0
234010,-161.290322580645,3,2,999,5,0,0
234082,-161.290322580645,3,2,999,70,0,0
234153,-161.290322580645,3,2,999,5,0,0
234225,-161.290322580645,3,2,999,70,0,0
234296,-161.290322580645,3,2,999,5,0,0
234367,-161.290322580645,3,2,999,70,0,0
234439,-161.290322580645,3,2,999,5,0,0
234510,-76.9230769230769,3,2,999,80,0,1
235082,-105.263157894737,3,2,999,80,0,1
235367,-76.9230769230769,3,2,999,80,0,1
235653,-105.263157894737,3,2,999,80,0,1
240939,-86.9565217391304,3,2,999,80,0,1
241082,-74.0740740740741,3,2,999,80,0,1
241225,-64.5161290322581,3,2,999,80,0,1
241367,-86.9565217391304,3,2,999,80,0,0
242225,-105.263157894737,3,2,999,80,0,0
244796,-86.9565217391304,3,2,999,80,0,0
245653,-105.263157894737,3,2,999,80,0,0
246510,-76.9230769230769,3,2,999,80,0,0
247367,-76.9230769230769,3,2,999,80,0,1
247403,-76.9230769230769,3,2,999,80,0,0
247653,-125,3,2,999,80,0,1
248082,-125,3,2,999,80,0,0
248225,-76.9230769230769,3,2,999,80,0,1
248796,-105.263157894737,3,2,999,80,0,1
249082,-76.9230769230769,3,2,999,80,0,1
249367,-105.263157894737,3,2,999,80,0,1
251653,-86.9565217391304,3,2,999,80,0,1
252082,-105.263157894737,3,2,999,80,0,1
253367,-86.9565217391304,3,2,999,80,0,1
254225,-76.9230769230769,3,2,999,80,0,1
255082,-86.9565217391304,3,2,999,80,0,0
255653,-117.647058823529,3,2,999,80,0,0
256796,-86.9565217391304,3,2,999,80,0,0
257367,-117.647058823529,3,2,999,80,0,0
258510,-86.9565217391304,3,2,999,80,0,0
259367,-117.647058823529,3,2,999,80,0,0
260225,-86.9565217391304,3,2,999,80,0,0
260653,-117.647058823529,3,2,999,80,0,0
261939,-86.9565217391304,3,2,999,80,0,1
262010,-86.9565217391304,3,2,999,80,0,0
262510,-105.263157894737,3,2,999,80,0,0
262796,-86.9565217391304,3,2,999,80,0,1
262867,-86.9565217391304,3,2,999,80,0,0
263082,-105.263157894737,3,2,999,80,0,0
263367,-400,3,2,999,80,0,0
263653,-71.4285714285714,3,2,999,80,0,1
263725,-71.4285714285714,3,2,999,80,0,0
264082,-105.263157894737,3,2,999,80,0,0
264510,-86.9565217391304,3,2,999,80,0,0
265367,-133.333333333333,3,2,999,80,0,1
268510,-133.333333333333,3,2,999,80,0,0
268746,-133.333333333333,3,2,999,80,0,0
268796,-117.647058823529,3,2,999,70,0,1
272225,-117.647058823529,3,2,999,70,0,0
275603,-117.647058823529,3,2,999,70,0,0
275653,-117.647058823529,3,2,999,5,0,0

[Colours]
Combo1 : 238,163,79
Combo2 : 126,218,133
Combo3 : 166,200,206
Combo4 : 236,214,60

[HitObjects]
446,176,1110,6,0,P|421:180|390:180,1,39.9999976158142,0|0,2:0|0:0,0:0:0:0:
345,237,1407,6,0,P|367:269|381:312,2,79.9999952316285,4|0|0,2:2|0:0|2:0,0:0:0:0:
318,147,2225,1,2,2:3:0:0:
392,39,2510,2,0,P|358:93|323:145,1,119.999992847443,0|0,0:0|2:0,0:0:0:0:
256,211,3082,5,2,2:2:0:0:
161,176,3367,5,2,2:3:0:0:
84,206,3653,5,0,2:0:0:0:
55,193,3939,6,0,P|27:192|0:189,2,55.9999949531557,4|0|0,2:2|0:0|0:0,0:0:0:0:
256,192,4582,12,0,6153,0:0:0:0:
300,285,6225,6,0,P|307:296|313:308,5,26.6666650772095,2|0|0|0|0|0,3:3|0:0|0:0|3:0|0:0|0:0,0:0:0:0:
395,209,6510,6,0,B|423:227|432:255|432:255|373:318|281:263,1,223.999979812623,4|2,1:1|1:3,0:0:0:0:
245,185,6939,1,8,2:3:0:0:
209,384,7082,2,0,P|215:348|214:312,1,63.9999961853028,6|0,3:3|2:0,0:0:0:0:
0,227,7367,6,0,P|53:221|107:218,1,95.9999942779542,2|0,1:2|0:0,0:0:0:0:
125,230,7653,2,0,P|124:194|130:158,1,63.9999961853028,2|0,1:3|3:0,0:0:0:0:
186,49,7939,2,0,P|210:22|240:2,1,63.9999961853028,2|0,1:2|0:0,0:0:0:0:
464,0,8225,6,0,P|375:28|340:114,1,191.999988555908,4|8,1:2|2:3,0:0:0:0:
433,231,8796,1,6,3:3:0:0:
433,231,9082,6,0,P|430:197|427:151,1,63.9999961853028,10|8,1:2|1:3,0:0:0:0:
422,157,9296,1,0,0:0:0:0:
415,147,9367,1,2,1:3:0:0:
336,217,9510,1,0,3:0:0:0:
364,384,9653,2,0,P|366:352|368:320,1,63.9999961853028,2|4,1:2|1:3,0:0:0:0:
512,370,9939,6,0,P|412:359|313:348,1,175.999994880676,2|2,1:1|1:3,0:0:0:0:
260,377,10367,1,8,2:3:0:0:
256,192,10510,1,6,3:3:0:0:
256,192,10796,6,0,P|276:133|236:68,2,127.999992370606,2|2|2,1:2|1:3|1:2,0:0:0:0:
179,219,11510,1,0,0:0:0:0:
0,227,11653,6,0,P|100:216|199:205,1,175.999994880676,4|8,1:2|1:3,0:0:0:0:
241,273,12082,1,2,1:1:0:0:
393,232,12225,2,0,P|440:226|488:221,1,95.9999942779542,4|0,1:3|0:0,0:0:0:0:
512,242,12510,5,8,1:1:0:0:
447,88,12796,5,2,1:2:0:0:
229,13,13082,6,0,L|135:27,1,95.9999942779542,2|0,1:3|0:0,0:0:0:0:
0,0,13367,6,0,P|99:29|95:133,1,207.999978080751,4|0,1:1|1:0,0:0:0:0:
38,201,13796,2,0,P|18:261|0:323,1,127.999992370606,0|0,3:0|1:0,0:0:0:0:
234,107,14225,6,0,B|191:97|191:97|214:134,1,87.9999974403381,8|0,3:2|2:0,0:0:0:0:
293,163,14510,1,0,1:0:0:0:
282,239,14653,1,0,2:0:0:0:
219,290,14796,1,8,2:2:0:0:
230,366,14939,1,0,2:0:0:0:
256,384,15082,6,0,B|192:208|320:208|256:41,1,351.999979019165,2|0,1:1|0:0,0:0:0:0:
165,72,15939,6,0,B|97:84|83:17|83:17|141:-21|180:24,1,219.999986886978,4|0,1:2|0:0,0:0:0:0:
196,137,16796,6,0,B|183:164|149:152|149:152|148:118|182:115,1,111.999994691467,8|4,1:1|1:3,0:0:0:0:
263,51,17653,5,12,1:2:0:0:
433,97,17939,5,8,1:3:0:0:
498,34,18225,5,4,3:3:0:0:
512,0,18510,6,0,P|508:22|505:44,2,44.7999978765869,4|2|2,2:2|2:2|2:3,0:0:0:0:
425,92,19367,2,0,P|465:111|492:147,1,89.5999957531739,0|2,2:0|2:3,0:0:0:0:
497,221,20225,6,0,L|504:176,1,44.7999978765869,0|2,2:0|2:2,0:0:0:0:
410,188,20653,1,0,0:0:0:0:
381,198,20796,1,2,2:3:0:0:
288,287,21082,5,0,2:0:0:0:
191,231,21367,1,2,2:2:0:0:
168,143,21653,1,2,2:3:0:0:
144,123,21796,1,0,0:0:0:0:
112,117,21939,6,0,P|116:139|119:162,2,44.7999978765869,0|2|2,2:0|2:2|2:3,0:0:0:0:
92,246,22796,2,0,P|73:258|55:272,2,44.7999978765869,0|2|2,2:0|2:2|2:3,0:0:0:0:
0,169,23653,6,0,L|21:176,1,22.3999989382935,0|0,2:0|0:0,0:0:0:0:
99,256,23939,1,2,2:2:0:0:
104,285,24225,1,2,2:3:0:0:
52,384,24510,5,0,2:0:0:0:
216,254,24796,1,2,2:2:0:0:
356,301,25082,2,0,L|349:322,1,22.3999989382935,2|0,2:3|0:0,0:0:0:0:
370,345,25367,6,0,P|362:291|357:232,1,111.999989906311,4|2,2:2|2:3,0:0:0:0:
444,282,26082,1,0,0:0:0:0:
452,200,26225,2,0,P|453:172|457:144,2,55.9999949531557,0|2|2,2:0|2:2|2:3,0:0:0:0:
450,134,27082,5,0,2:0:0:0:
512,20,27367,2,0,P|475:45|430:50,1,83.9999924297336,2|0,2:2|0:0,0:0:0:0:
343,7,27939,2,0,L|287:0,1,55.9999949531557,0|2,2:0|2:2,0:0:0:0:
364,148,28510,2,0,P|358:127|351:107,1,41.9999962148668,2|0,2:3|0:0,0:0:0:0:
328,137,28796,6,0,L|204:151,1,111.999989906311,0|2,2:0|2:3,0:0:0:0:
0,176,29653,1,0,2:0:0:0:
112,104,29939,1,2,2:2:0:0:
102,23,30225,1,2,2:3:0:0:
82,0,30510,5,0,2:0:0:0:
104,221,30796,1,2,2:2:0:0:
231,313,31082,1,2,2:3:0:0:
260,320,31367,5,0,2:0:0:0:
272,317,31510,1,0,0:0:0:0:
330,260,31653,1,0,3:0:0:0:
419,240,31796,1,8,3:2:0:0:
511,356,31939,2,0,P|498:342|483:329,1,39.9999976158142,4|0,3:3|0:0,0:0:0:0:
430,384,32225,6,0,B|464:222|464:222|453:187|416:155,1,239.999985694885,8|8,1:1|3:3,0:0:0:0:
342,70,32796,2,0,P|356:27|379:-7,1,77.9999917802815
453,55,33082,6,0,L|343:78,1,103.999989040375,10|2,3:2|2:3,0:0:0:0:
59,198,33653,2,0,L|135:213,1,77.9999917802815,2|0,1:2|0:0,0:0:0:0:
151,241,33939,6,0,P|188:207|239:202,1,103.999989040375,2|0,1:2|2:0,0:0:0:0:
359,263,34367,2,0,P|332:251|304:232,1,51.9999945201877,10|0,3:3|0:0,0:0:0:0:
195,27,34653,5,0,1:0:0:0:
153,133,34796,2,0,P|132:100|99:80,1,77.9999917802815,10|0,3:2|0:0,0:0:0:0:
73,97,35082,2,0,L|21:107,1,51.9999945201877,2|0,2:3|0:0,0:0:0:0:
133,281,35367,2,0,L|144:230,1,51.9999945201877,10|8,1:2|2:3,0:0:0:0:
114,371,35653,6,0,P|164:359|215:348,1,103.999989040375,4|0,1:2|2:0,0:0:0:0:
326,384,36082,1,10,3:3:0:0:
443,273,36225,2,0,P|474:295|512:304,1,77.9999917802815
437,260,36510,6,0,P|412:269|386:272,1,51.9999945201877,10|0,3:2|0:0,0:0:0:0:
460,182,36796,2,0,P|470:131|480:80,1,103.999989040375,2|2,2:3|1:2,0:0:0:0:
497,0,37225,1,8,3:3:0:0:
380,137,37367,6,0,P|344:122|305:122,1,77.9999917802815,8|0,1:1|0:0,0:0:0:0:
276,134,37653,2,0,P|260:112|241:94,2,51.9999945201877,0|10|0,2:0|3:3|0:0,0:0:0:0:
301,44,38082,1,0,1:0:0:0:
246,248,38225,1,10,3:2:0:0:
246,248,38510,6,0,L|234:286,1,39.9999976158142,4|0,2:3|0:0,0:0:0:0:
205,384,38653,1,8,3:2:0:0:
267,276,38796,6,0,L|213:259,1,51.9999945201877,2|0,1:2|0:0,0:0:0:0:
0,271,39082,6,0,P|84:271|106:238,1,127.999992370606,2|0,1:1|2:0,0:0:0:0:
80,113,39510,2,0,P|88:137|97:161,1,51.9999945201877,8|0,3:3|0:0,0:0:0:0:
172,194,39796,1,0,1:0:0:0:
354,170,39939,6,0,P|403:153|453:139,2,103.999989040375,10|2|10,3:2|1:3|1:2,0:0:0:0:
182,187,40653,1,0,0:0:0:0:
193,0,40796,6,0,P|205:50|215:101,1,103.999989040375,2|0,1:2|2:0,0:0:0:0:
321,256,41225,2,0,P|314:281|309:306,1,51.9999945201877,10|8,3:3|3:3,0:0:0:0:
368,384,41510,1,0,1:0:0:0:
226,353,41653,6,0,P|207:318|204:280,1,77.9999917802815,10|0,3:3|0:0,0:0:0:0:
229,260,41939,6,0,L|345:288,1,119.999992847443,10|0,1:2|0:0,0:0:0:0:
464,293,42225,6,0,P|448:300|440:311,1,29.9999982118607,2|0,1:2|0:0,0:0:0:0:
432,318,42510,6,0,P|431:270|403:215,1,103.999989040375,6|0,1:2|2:0,0:0:0:0:
488,122,42939,2,0,P|489:70|512:24,1,103.999989040375,10|0,3:3|1:0,0:0:0:0:
333,201,43367,6,0,L|257:182,1,77.9999917802815,10|0,3:2|0:0,0:0:0:0:
234,160,43653,2,0,P|223:136|206:116,1,51.9999945201877,2|0,2:3|0:0,0:0:0:0:
141,53,43939,2,0,P|119:37|95:28,1,51.9999945201877,2|0,1:2|0:0,0:0:0:0:
0,7,44225,6,0,P|12:62|24:123,1,103.999989040375,2|0,1:2|2:0,0:0:0:0:
81,181,44653,1,10,3:3:0:0:
37,342,44796,6,0,P|78:300|137:298,1,119.999992847443,0|0,1:0|0:0,0:0:0:0:
157,321,45082,5,10,3:2:0:0:
365,384,45367,5,10,2:3:0:0:
479,303,45653,5,4,1:3:0:0:
511,217,45939,6,0,P|478:266|384:264,1,159.999990463257,4|0,1:2|1:0,0:0:0:0:
292,331,46367,2,0,P|282:279|270:229,1,103.999989040375,2|0,3:2|1:0,0:0:0:0:
225,75,46796,6,0,P|188:60|146:64,1,77.9999917802815,10|0,3:2|0:0,0:0:0:0:
132,88,47082,2,0,P|106:85|80:82,1,51.9999945201877,2|0,1:3|0:0,0:0:0:0:
10,165,47367,2,0,P|20:189|31:213,1,51.9999945201877,0|0,1:0|0:0,0:0:0:0:
138,232,47653,6,0,P|174:195|213:161,1,103.999989040375,2|0,1:2|1:0,0:0:0:0:
330,176,48082,2,0,L|432:198,1,103.999989040375,2|0,3:2|1:0,0:0:0:0:
512,217,48510,5,10,3:2:0:0:
454,277,48653,1,0,0:0:0:0:
495,108,48796,2,0,L|482:25,1,77.9999917802815,2|0,1:3|0:0,0:0:0:0:
477,0,49082,2,0,P|453:24|423:39,1,51.9999945201877,2|0,3:2|0:0,0:0:0:0:
256,65,49367,5,4,1:2:0:0:
256,65,49653,2,0,P|220:44|166:40,1,77.9999917802815,2|0,1:2|0:0,0:0:0:0:
159,57,49939,1,0,2:0:0:0:
75,22,50082,1,0,1:0:0:0:
0,140,50225,6,0,P|36:119|90:115,1,77.9999917802815,10|0,3:2|0:0,0:0:0:0:
92,136,50510,2,0,L|75:238,1,103.999989040375,2|0,1:3|1:0,0:0:0:0:
18,302,50939,1,8,3:3:0:0:
155,268,51082,6,0,P|159:242|157:216,1,51.9999945201877,2|0,1:2|0:0,0:0:0:0:
102,350,51367,1,0,1:0:0:0:
239,384,51510,1,2,3:2:0:0:
242,246,51796,5,0,1:0:0:0:
380,217,51939,2,0,L|476:242,1,77.9999917802815,10|0,3:2|0:0,0:0:0:0:
512,339,52225,2,0,P|460:291|466:237,1,119.999992847443,2|0,1:3|0:0,0:0:0:0:
497,139,52510,1,2,3:2:0:0:
505,111,52653,1,0,3:0:0:0:
470,0,52796,6,0,P|483:49|497:100,1,103.999989040375,4|0,1:2|3:0,0:0:0:0:
389,38,53225,2,0,P|401:88|415:138,1,103.999989040375,2|0,1:2|1:0,0:0:0:0:
211,27,53653,6,0,P|222:65|232:103,1,77.9999917802815,10|0,3:2|0:0,0:0:0:0:
257,122,53939,2,0,P|219:154|153:139,1,103.999989040375,2|10,1:3|3:2,0:0:0:0:
91,100,54367,1,0,3:0:0:0:
0,231,54510,6,0,P|35:216|56:184,1,77.9999917802815,6|0,1:2|0:0,0:0:0:0:
84,110,54796,1,0,1:0:0:0:
145,278,54939,2,0,L|198:247,1,51.9999945201877,8|4,3:2|3:3,0:0:0:0:
428,110,55225,5,0,1:0:0:0:
367,278,55367,2,0,L|314:247,1,51.9999945201877,12|0,1:2|0:0,0:0:0:0:
243,384,55939,5,8,3:2:0:0:
269,339,56082,5,8,3:2:0:0:
256,179,56225,6,0,B|283:79|223:104|256:0,1,183.999992542267,4|0,1:1|3:0,0:0:0:0:
183,241,56653,2,0,P|135:275|76:271,1,119.999997425079,10|0,3:2|1:0,0:0:0:0:
77,271,57082,6,0,P|101:197|182:150,1,167.999984859467,12|0,3:2|0:0,0:0:0:0:
263,189,57367,1,0,1:0:0:0:
350,52,57510,1,8,3:3:0:0:
439,90,57653,2,0,L|434:152,1,59.9999987125397,10|0,1:2|3:0,0:0:0:0:
332,267,57939,6,0,L|357:257,8,26.9999984936714,2|0|0|0|0|0|0|0|8,1:1|0:0|0:0|0:0|0:0|0:0|0:0|0:0|3:2,0:0:0:0:
512,287,58367,2,0,L|491:270,6,26.9999984936714,2|0|0|0|0|0|0,1:3|0:0|0:0|0:0|0:0|0:0|0:0,0:0:0:0:
484,301,58653,1,0,1:0:0:0:
428,227,58796,6,0,B|284:268|284:268|258:291|255:317,1,207.999978080751,10|2,3:2|1:3,0:0:0:0:
301,384,59225,1,8,3:2:0:0:
154,344,59367,2,0,P|114:326|79:298,1,89.9999980688095,10|0,1:3|1:0,0:0:0:0:
52,314,59653,5,8,1:1:0:0:
0,195,59796,1,8,2:2:0:0:
54,28,60082,5,10,3:2:0:0:
106,147,60225,2,0,P|128:124|166:95,1,59.9999987125397,8|8,3:2|3:3,0:0:0:0:
250,58,60510,5,8,1:3:0:0:
346,77,60653,1,0,3:0:0:0:
408,126,60796,6,0,L|432:122,1,24.7999975379182,4|0,1:3|0:0,0:0:0:0:
462,132,60939,6,0,L|474:110,1,24.7999975379182,4|0,1:3|0:0,0:0:0:0:
503,96,61082,6,0,L|499:72,1,24.7999975379182,8|0,3:2|0:0,0:0:0:0:
512,43,61225,6,0,L|491:30,1,24.7999975379182,8|0,1:3|0:0,0:0:0:0:
480,0,61367,6,0,P|469:103|461:207,1,207.999978080751,4|0,1:1|2:0,0:0:0:0:
505,302,61796,1,2,1:3:0:0:
343,261,61939,2,0,P|290:260|244:298,1,113.999990160942,10|0,2:3|0:0,0:0:0:0:
259,384,62225,6,0,P|256:346|252:308,1,75.9999934406283,8|0,3:2|2:0,0:0:0:0:
181,200,62510,2,0,P|183:162|187:124,1,75.9999934406283,2|0,1:2|2:0,0:0:0:0:
331,75,62796,2,0,P|328:37|324:0,1,75.9999934406283,8|0,3:2|2:0,0:0:0:0:
268,184,63082,6,0,P|206:144|133:158,1,151.999986881257,0|0,1:0|2:0,0:0:0:0:
0,306,63510,2,0,P|62:265|135:279,1,151.999986881257,2|0,1:3|1:0,0:0:0:0:
259,384,63939,6,0,P|315:378|372:374,1,113.999990160942,8|0,3:2|0:0,0:0:0:0:
403,364,64225,2,0,P|417:329|420:291,1,75.9999934406283,2|8,1:3|3:3,0:0:0:0:
340,145,64510,2,0,P|346:201|350:258,1,113.999990160942,0|0,1:0|0:0,0:0:0:0:
344,275,64796,6,0,B|329:237|346:204|346:204|361:172|344:127,1,151.999986881257,8|0,1:1|2:0,0:0:0:0:
512,248,65225,2,0,P|489:217|457:196,1,75.9999934406283,2|0,1:3|2:0,0:0:0:0:
427,281,65510,1,0,1:0:0:0:
263,169,65653,6,0,L|93:151,1,151.999986881257,8|2,3:2|1:2,0:0:0:0:
26,205,66082,1,0,0:0:0:0:
0,53,66225,2,0,P|1:91|16:126,1,75.9999934406283,0|0,1:0|0:0,0:0:0:0:
27,290,66510,6,0,L|18:214,2,75.9999934406283,2|0|0,1:1|0:0|2:0,0:0:0:0:
147,235,66939,2,0,P|220:229|262:169,1,151.999986881257,2|0,1:3|1:0,0:0:0:0:
177,0,67367,6,0,L|190:113,1,113.999990160942,8|0,3:2|0:0,0:0:0:0:
197,123,67653,2,0,P|215:83|255:54,1,75.9999934406283,2|0,1:3|3:0,0:0:0:0:
362,79,67939,1,8,2:2:0:0:
388,66,68081,1,8,3:3:0:0:
511,82,68225,6,0,P|430:60|409:143,1,183.999992542267,4|8,1:2|2:3,0:0:0:0:
477,181,68653,1,2,1:3:0:0:
504,258,68796,1,8,2:3:0:0:
480,336,68939,1,0,1:0:0:0:
352,384,69082,6,0,P|332:327|340:272,1,113.999990160942,8|0,3:2|0:0,0:0:0:0:
332,265,69367,2,0,P|287:299|231:308,1,113.999990160942,8|0,2:3|0:0,0:0:0:0:
147,334,69653,2,0,L|161:244,1,75.9999934406283,2|0,1:2|2:0,0:0:0:0:
238,62,69939,6,0,B|253:155|253:155|239:186|197:218,1,151.999986881257,2|0,1:3|2:0,0:0:0:0:
3,301,70367,2,0,P|38:286|76:284,1,75.9999934406283,2|8,1:2|3:3,0:0:0:0:
137,341,70653,1,0,1:0:0:0:
169,126,70796,6,0,P|225:131|282:136,1,113.999990160942,8|0,3:2|0:0,0:0:0:0:
304,160,71082,2,0,P|339:175|377:177,1,75.9999934406283,2|0,1:3|2:0,0:0:0:0:
490,225,71367,1,0,1:0:0:0:
407,104,71510,1,8,3:3:0:0:
471,298,71653,6,0,B|462:244|452:201|452:201|462:176|470:151,2,151.999986881257,2|0|0,1:1|2:0|2:0,0:0:0:0:
41,233,72510,2,0,B|50:179|60:136|60:136|50:111|42:86,2,151.999986881257,8|2|0,3:2|1:2|1:0,0:0:0:0:
89,152,73225,1,0,0:0:0:0:
256,182,73367,6,0,P|255:104|255:26,1,155.999983560563,8|0,1:1|0:0,0:0:0:0:
238,0,73653,5,8,3:3:0:0:
361,73,73796,5,4,1:3:0:0:
368,174,73939,5,8,2:3:0:0:
358,225,74082,5,4,1:3:0:0:
274,384,74225,5,8,3:2:0:0:
224,116,74510,6,0,L|285:96,2,63.9999961853028,2|0|0,2:1|0:0|0:0,0:0:0:0:
217,126,74867,1,0,0:0:0:0:
210,136,74939,1,8,1:3:0:0:
203,146,75010,1,0,3:0:0:0:
195,155,75082,6,0,B|184:83|113:58|113:58|12:90,1,207.999978080751,4|0,1:1|2:0,0:0:0:0:
103,154,75510,1,2,1:3:0:0:
0,331,75653,2,0,P|55:318|98:282,1,113.999990160942,0|0,2:0|0:0,0:0:0:0:
167,233,75939,6,0,B|118:271|130:334|130:334|196:394,1,155.999983560563,8|0,3:2|0:0,0:0:0:0:
247,384,76225,2,0,P|283:373|330:359,1,75.9999934406283,2|0,1:2|2:0,0:0:0:0:
509,292,76510,2,0,P|472:280|436:270,1,75.9999934406283,8|0,3:2|2:0,0:0:0:0:
329,355,76796,6,0,P|282:289|199:311,1,151.999986881257,0|0,1:0|2:0,0:0:0:0:
402,185,77225,2,0,P|449:119|532:141,1,151.999986881257,2|0,1:3|1:0,0:0:0:0:
297,0,77653,6,0,L|308:139,1,113.999990160942,8|0,3:2|0:0,0:0:0:0:
324,138,77939,1,2,1:3:0:0:
226,56,78082,1,8,3:3:0:0:
114,114,78225,2,0,P|82:93|46:81,1,75.9999934406283,0|0,1:0|0:0,0:0:0:0:
86,185,78510,6,0,L|75:33,1,151.999986881257,8|0,1:1|2:0,0:0:0:0:
0,230,78939,2,0,P|32:251|68:263,2,75.9999934406283,2|0|0,1:3|2:0|1:0,0:0:0:0:
74,384,79367,6,0,P|130:378|187:374,1,113.999990160942,8|0,3:2|0:0,0:0:0:0:
198,382,79653,2,0,P|200:343|192:306,1,75.9999934406283,2|0,1:2|0:0,0:0:0:0:
229,134,79939,2,0,P|195:150|168:176,1,75.9999934406283,0|0,1:0|0:0,0:0:0:0:
288,323,80225,6,0,P|289:266|347:192,1,151.999986881257,4|0,1:2|1:0,0:0:0:0:
415,251,80653,1,8,3:3:0:0:
512,80,80796,2,0,L|494:217,1,113.999990160942,0|0,1:0|0:0,0:0:0:0:
478,299,81082,6,0,B|457:261|467:204|467:204|453:232|425:244,1,155.999983560563,8|0,3:2|0:0,0:0:0:0:
404,107,81367,5,10,1:3:0:0:
333,31,81510,5,4,3:3:0:0:
248,0,81653,5,0,1:0:0:0:
170,6,81796,5,8,3:3:0:0:
140,17,81939,6,0,B|176:92|266:102|266:102|290:92|306:75,1,207.999978080751,2|0,1:1|1:0,0:0:0:0:
255,10,82367,1,8,3:3:0:0:
241,188,82510,2,0,P|222:234|226:285,1,101.999995865822,0|0,1:0|0:0,0:0:0:0:
249,373,82796,6,0,P|255:340|249:307,1,67.9999972438812,10|0,1:2|0:0,0:0:0:0:
165,340,83082,1,0,1:0:0:0:
131,177,83225,2,0,P|66:197|0:216,1,135.999994487762,2|0,2:3|0:0,0:0:0:0:
0,215,83653,6,0,B|26:149|26:149|137:167,1,183.999992542267,10|0,1:1|1:0,0:0:0:0:
148,258,84082,1,2,2:2:0:0:
311,249,84225,2,0,P|359:233|413:220,1,101.999995865822,0|0,1:0|0:0,0:0:0:0:
473,264,84510,2,0,P|449:241|418:227,1,67.9999972438812,10|0,1:2|0:0,0:0:0:0:
391,342,84796,5,0,1:0:0:0:
397,310,84939,1,2,2:3:0:0:
427,138,85082,1,4,1:2:0:0:
436,87,85225,1,0,0:0:0:0:
454,0,85367,6,0,B|450:37|424:65|424:65|362:83|303:42,1,183.999992542267,6|2,1:1|1:2,0:0:0:0:
247,10,85796,1,8,3:3:0:0:
208,82,85939,1,8,1:3:0:0:
137,123,86082,1,4,3:3:0:0:
0,90,86225,6,0,P|66:102|117:148,1,137.9999944067,12|0,1:2|0:0,0:0:0:0:
190,186,86510,2,0,P|223:179|257:174,1,67.9999972438812,2|8,1:3|3:3,0:0:0:0:
95,282,86796,2,0,P|62:276|28:271,1,67.9999972438812,2|0,1:2|1:0,0:0:0:0:
148,384,87082,6,0,P|125:320|139:253,1,137.9999944067,10|0,1:1|0:0,0:0:0:0:
197,196,87367,1,2,1:2:0:0:
290,325,87510,2,0,P|323:332|356:336,2,67.9999972438812,4|2|8,2:2|1:2|3:3,0:0:0:0:
438,349,87939,5,12,1:2:0:0:
438,349,88225,1,2,1:3:0:0:
431,300,88367,1,8,2:2:0:0:
481,231,88510,1,8,1:2:0:0:
416,150,88653,1,8,2:2:0:0:
512,57,88796,6,0,L|489:240,1,183.999992542267,4|0,1:1|1:0,0:0:0:0:
290,227,89225,2,0,L|300:147,1,75.9999934406283,10|4,3:2|3:3,0:0:0:0:
379,187,89510,1,0,1:0:0:0:
283,14,89653,6,0,P|235:61|164:58,1,137.9999944067,12|0,1:2|0:0,0:0:0:0:
151,33,89939,2,0,L|75:43,1,75.9999934406283,0|0,1:0|2:0,0:0:0:0:
0,139,90225,6,0,L|29:135,1,29.9999982118607,8|0,2:2|0:0,0:0:0:0:
19,0,90510,6,0,B|50:24|62:59|62:59|36:206,1,223.999979812623,2|8,1:3|1:3,0:0:0:0:
299,151,90939,2,0,P|264:137|227:143,1,75.9999934406283,8|4,1:2|1:3,0:0:0:0:
330,293,91225,1,0,1:0:0:0:
184,222,91367,5,8,2:2:0:0:
107,265,91510,5,8,2:3:0:0:
64,337,91653,5,4,1:3:0:0:
27,371,91796,5,0,2:0:0:0:
0,384,91939,5,0,1:0:0:0:
0,384,92225,6,0,B|116:308|150:492|345:334|288:199|288:199|348:291|446:269,1,599.999987125397,2|0,1:1|0:0,0:0:0:0:
512,319,93939,5,4,1:2:0:0:
476,355,94225,5,0,1:0:0:0:
365,374,94510,5,4,1:3:0:0:
252,335,94796,5,8,1:3:0:0:
184,222,95082,5,8,1:2:0:0:
0,26,95367,5,8,1:2:0:0:
0,26,95653,6,0,L|21:164,1,127.999992370606,4|0,1:2|2:0,0:0:0:0:
36,180,96010,2,0,L|34:195,6,15.9999990463257,0|0|0|0|0|0|0,0:0|0:0|3:0|0:0|0:0|0:0|3:0,0:0:0:0:
191,232,96510,6,0,L|176:253,8,15.9999990463257,8|0|0|0|0|0|0|0|0,1:2|0:0|2:0|0:0|2:0|0:0|2:0|0:0|2:0,0:0:0:0:
170,94,97082,1,0,3:0:0:0:
184,87,97153,1,0,3:0:0:0:
198,80,97225,1,0,3:0:0:0:
212,73,97296,1,0,3:0:0:0:
226,65,97367,6,0,P|273:61|318:79,1,95.9999913482669,0|0,1:0|2:0,0:0:0:0:
361,150,97796,1,0,3:0:0:0:
443,137,97939,1,0,3:0:0:0:
423,15,98225,6,0,L|420:-11,2,15.9999990463257,8|0|0,1:2|0:0|0:0,0:0:0:0:
354,160,98510,1,0,2:0:0:0:
354,160,98797,1,0,3:0:0:0:
317,235,98939,1,0,3:0:0:0:
279,308,99082,6,0,P|313:275|359:262,1,95.9999913482669,0|0,1:0|2:0,0:0:0:0:
463,310,99510,2,0,L|513:316,1,47.9999956741335,0|0,3:0|2:0,0:0:0:0:
511,316,99939,6,0,L|415:326,1,95.9999913482669,8|0,1:2|3:0,0:0:0:0:
286,318,100367,2,0,P|270:336|251:351,1,47.9999956741335,0|0,0:0|3:0,0:0:0:0:
161,384,100653,1,0,3:0:0:0:
173,221,100796,5,0,1:0:0:0:
242,177,100939,1,0,3:0:0:0:
234,95,101082,2,0,P|230:47|227:0,1,95.9999913482669,0|0,3:0|2:0,0:0:0:0:
296,325,101653,6,0,P|301:277|304:229,1,95.9999913482669,8|0,1:2|2:0,0:0:0:0:
126,299,102225,2,0,L|110:297,6,15.9999990463257,8|0|0|0|0|0|0,3:2|0:0|2:0|0:0|2:0|0:0|0:0,0:0:0:0:
85,317,102510,6,0,P|51:284|5:271,1,95.9999913482669,4|0,1:2|2:0,0:0:0:0:
102,193,102939,2,0,P|103:169|106:145,1,47.9999956741335,0|0,3:0|2:0,0:0:0:0:
114,64,103225,1,0,3:0:0:0:
11,0,103367,6,0,P|4:47|0:95,1,95.9999913482669,8|0,1:2|3:0,0:0:0:0:
11,125,103725,2,0,L|26:123,6,15.9999990463257,0|0|0|0|0|0|0,0:0|0:0|0:0|0:0|0:0|0:0|3:0,0:0:0:0:
107,54,104082,1,0,3:0:0:0:
193,152,104225,6,0,P|236:141|288:130,1,95.9999913482669,0|0,1:0|2:0,0:0:0:0:
343,223,104653,2,0,P|360:206|378:190,1,47.9999956741335,0|0,3:0|2:0,0:0:0:0:
433,117,104939,1,0,3:0:0:0:
350,0,105082,5,8,1:2:0:0:
455,220,105367,2,0,P|456:212|459:204,1,15.9999990463257,0|0,3:0|0:0,0:0:0:0:
491,309,105653,2,0,P|491:301|494:293,2,15.9999990463257,0|0|0,3:0|0:0|0:0,0:0:0:0:
512,356,105939,6,0,P|469:345|417:334,1,95.9999913482669,0|0,1:0|2:0,0:0:0:0:
337,319,106367,1,0,3:0:0:0:
285,384,106510,1,0,3:0:0:0:
93,230,106796,6,0,P|50:241|-2:252,2,95.9999913482669,8|0|0,1:2|3:0|3:0,0:0:0:0:
90,313,107510,1,0,3:0:0:0:
224,250,107653,6,0,P|242:207|235:148,1,95.9999913482669,0|0,1:0|2:0,0:0:0:0:
325,146,108082,2,0,P|314:124|300:105,1,47.9999956741335,0|2,3:0|2:2,0:0:0:0:
256,0,108367,1,0,3:0:0:0:
245,168,108510,5,8,1:2:0:0:
312,246,108653,1,8,3:3:0:0:
394,274,108796,1,4,3:3:0:0:
512,241,109082,6,0,P|491:253|469:263,1,47.9999956741335,0|4,1:0|1:3,0:0:0:0:
429,146,109367,6,0,B|461:162|483:191|483:191|510:273|445:347,1,239.999985694885,8|8,1:1|3:3,0:0:0:0:
325,146,109939,2,0,P|344:112|372:85,1,77.9999917802815
379,75,110225,6,0,L|372:8,1,51.9999945201877,10|0,3:2|0:0,0:0:0:0:
165,49,110510,2,0,P|126:49|89:37,1,77.9999917802815,2|0,2:3|0:0,0:0:0:0:
67,14,110796,1,2,1:2:0:0:
0,240,111082,6,0,L|103:229,1,103.999989040375,2|0,1:2|2:0,0:0:0:0:
202,213,111510,2,0,P|224:197|249:187,1,51.9999945201877,10|0,3:3|0:0,0:0:0:0:
256,364,111796,5,0,1:0:0:0:
190,210,111939,2,0,P|179:185|163:163,1,51.9999945201877,10|0,3:2|0:0,0:0:0:0:
272,271,112225,2,0,L|349:279,1,77.9999917802815,2|0,2:3|0:0,0:0:0:0:
379,268,112510,2,0,P|371:243|358:219,1,51.9999945201877,2|8,1:2|3:3,0:0:0:0:
481,384,112796,6,0,P|484:333|513:288,1,103.999989040375,4|0,1:2|2:0,0:0:0:0:
459,213,113225,1,10,3:3:0:0:
503,0,113367,2,0,L|495:77,1,77.9999917802815
509,134,113653,6,0,L|505:83,1,51.9999945201877,10|0,3:2|0:0,0:0:0:0:
320,142,113939,2,0,P|281:108|229:97,1,103.999989040375,2|2,2:3|1:2,0:0:0:0:
92,23,114367,1,8,1:3:0:0:
99,13,114439,1,0,0:0:0:0:
106,3,114510,6,0,P|136:26|155:60,1,77.9999917802815,2|0,1:1|0:0,0:0:0:0:
82,110,114796,1,0,2:0:0:0:
117,258,114939,2,0,P|115:284|111:310,1,51.9999945201877,10|0,3:3|0:0,0:0:0:0:
0,183,115225,5,0,1:0:0:0:
36,332,115368,2,0,P|33:358|30:384,1,51.9999945201877,10|0,3:2|0:0,0:0:0:0:
208,261,115653,6,0,P|211:245|212:229,1,31.9999980926514,4|0,2:3|0:0,0:0:0:0:
300,366,115796,6,0,P|305:338|309:307,1,59.9999987125397
447,298,115939,6,0,P|445:312|442:327,1,29.9999982118607,2|0,1:2|0:0,0:0:0:0:
449,336,116225,6,0,P|427:240|369:237,1,161.999990962029,8|0,1:1|0:0,0:0:0:0:
302,296,116510,1,0,2:0:0:0:
338,136,116653,2,0,P|341:110|346:84,1,51.9999945201877,8|0,3:3|0:0,0:0:0:0:
362,0,116939,1,0,1:0:0:0:
512,208,117082,6,0,B|419:183|419:183|402:213|371:224,1,159.999990463257,10|2,3:2|2:3,0:0:0:0:
211,187,117510,1,0,0:0:0:0:
180,98,117653,2,0,P|156:109|138:127,1,51.9999945201877,2|0,1:2|0:0,0:0:0:0:
129,252,117939,6,0,P|123:200|114:149,1,103.999989040375,2|0,1:2|2:0,0:0:0:0:
106,0,118367,2,0,P|91:21|84:46,1,51.9999945201877,10|8,3:3|3:3,0:0:0:0:
0,127,118653,1,0,1:0:0:0:
26,305,118796,6,0,P|33:344|37:383,1,77.9999917802815,10|0,3:2|0:0,0:0:0:0:
60,311,119082,6,0,P|105:340|189:320,1,119.999992847443,2|0,2:3|0:0,0:0:0:0:
274,285,119367,5,2,1:2:0:0:
349,316,119510,1,0,3:0:0:0:
455,211,119653,6,0,L|352:199,1,103.999989040375,4|0,1:2|2:0,0:0:0:0:
184,225,120082,2,0,P|136:200|68:219,1,103.999989040375,10|0,3:3|1:0,0:0:0:0:
219,32,120510,6,0,L|228:109,1,77.9999917802815,10|0,3:2|0:0,0:0:0:0:
235,119,120796,2,0,P|250:97|270:80,1,51.9999945201877,2|0,2:3|0:0,0:0:0:0:
349,37,121082,2,0,P|372:25|398:21,1,51.9999945201877,2|0,1:2|0:0,0:0:0:0:
512,10,121367,6,0,L|499:113,1,103.999989040375,2|0,1:1|2:0,0:0:0:0:
425,287,121796,1,10,3:3:0:0:
468,356,121939,1,0,1:0:0:0:
468,356,122225,6,0,P|436:306|337:299,1,159.999990463257,10|2,3:2|2:2,0:0:0:0:
190,384,122653,1,8,3:3:0:0:
190,384,122725,1,4,2:3:0:0:
190,384,122796,5,2,1:2:0:0:
116,269,122939,5,4,3:3:0:0:
1,217,123082,6,0,P|33:267|132:274,1,159.999990463257,4|0,1:2|1:0,0:0:0:0:
295,190,123510,2,0,P|320:186|346:180,1,51.9999945201877,2|0,3:2|2:0,0:0:0:0:
428,205,123796,1,0,1:0:0:0:
491,31,123939,6,0,P|438:57|415:111,1,119.999992847443,10|0,3:2|0:0,0:0:0:0:
408,121,124225,2,0,P|388:82|368:57,1,51.9999945201877,2|0,1:3|0:0,0:0:0:0:
271,0,124510,1,0,1:0:0:0:
271,0,124796,6,0,P|220:11|168:19,1,103.999989040375,2|0,1:2|1:0,0:0:0:0:
225,127,125225,2,0,P|174:119|123:108,1,103.999989040375,2|0,3:2|1:0,0:0:0:0:
7,83,125653,5,10,3:2:0:0:
77,37,125796,1,0,0:0:0:0:
34,227,125939,2,0,P|37:183|52:151,1,77.9999917802815,2|0,1:3|0:0,0:0:0:0:
51,253,126225,2,0,P|65:231|84:214,1,51.9999945201877,2|0,3:2|0:0,0:0:0:0:
250,272,126510,5,4,1:2:0:0:
250,272,126796,2,0,P|251:310|243:348,1,77.9999917802815,2|0,1:2|0:0,0:0:0:0:
219,369,127082,1,0,2:0:0:0:
146,301,127225,1,0,1:0:0:0:
329,318,127367,6,0,L|425:328,1,77.9999917802815,10|0,3:2|0:0,0:0:0:0:
435,311,127653,2,0,P|426:259|435:208,1,103.999989040375,2|0,1:3|1:0,0:0:0:0:
512,161,128082,1,0,0:0:0:0:
499,27,128225,6,0,P|490:51|480:75,1,51.9999945201877,2|0,1:2|0:0,0:0:0:0:
424,216,128510,1,0,1:0:0:0:
396,123,128653,1,2,3:2:0:0:
187,180,128939,5,0,1:0:0:0:
159,273,129082,2,0,P|120:270|83:281,1,77.9999917802815,10|0,3:2|0:0,0:0:0:0:
53,351,129367,2,0,P|53:291|18:244,1,119.999992847443,2|0,1:3|0:0,0:0:0:0:
94,161,129653,1,2,3:2:0:0:
103,131,129796,1,0,3:0:0:0:
0,47,129939,6,0,L|24:129,2,79.9999952316285,4|0|0,1:2|3:0|3:0,0:0:0:0:
196,71,130367,2,0,B|259:63|259:63|282:52|282:52|352:43,1,159.999990463257,6|8,1:2|3:2,0:0:0:0:
512,104,130796,6,0,P|473:104|439:123,1,77.9999917802815,2|0,1:2|0:0,0:0:0:0:
433,134,131082,2,0,L|421:186,1,51.9999945201877,2|0,1:3|0:0,0:0:0:0:
266,31,131367,2,0,L|277:83,1,51.9999945201877,10|0,3:2|3:0,0:0:0:0:
424,266,131653,6,0,P|385:265|351:246,1,77.9999917802815,4|0,1:2|0:0,0:0:0:0:
345,237,131939,5,0,1:0:0:0:
232,172,132081,5,8,1:3:0:0:
168,285,132224,5,4,3:3:0:0:
280,350,132367,5,0,1:0:0:0:
254,276,132510,6,0,L|257:247,1,29.9999993562698,8|0,1:2|0:0,0:0:0:0:
243,0,133082,5,8,3:2:0:0:
269,88,133225,5,8,3:2:0:0:
257,246,133367,6,0,B|266:278|266:278|250:383|250:383|280:350,1,183.999992542267,4|0,1:1|3:0,0:0:0:0:
95,173,133796,2,0,P|35:194|-9:263,1,119.999997425079,10|0,3:2|1:0,0:0:0:0:
0,237,134225,6,0,L|183:212,1,167.999984859467,12|0,3:2|0:0,0:0:0:0:
275,265,134510,6,0,P|282:244|284:222,1,41.9999962148668,0|0,1:0|0:0,0:0:0:0:
257,246,134796,6,0,L|375:229,1,119.999992847443,10|0,1:2|0:0,0:0:0:0:
512,206,135082,6,0,P|442:175|413:104,1,155.999983560563,2|0,1:1|0:0,0:0:0:0:
422,76,135367,1,8,3:2:0:0:
325,111,135510,2,0,P|288:96|251:81,1,79.9999952316285,2|0,1:3|0:0,0:0:0:0:
348,24,135796,1,0,1:0:0:0:
502,199,135939,6,0,P|432:229|403:300,1,155.999983560563,10|0,3:2|0:0,0:0:0:0:
412,329,136225,1,2,1:3:0:0:
293,192,136367,6,0,P|189:191|85:190,1,207.999978080751,8|0,3:2|1:0,0:0:0:0:
0,176,136796,6,0,L|10:133,8,26.9999984936714,8|0|0|0|8|0|0|0|0,1:1|0:0|0:0|0:0|2:2|0:0|0:0|0:0|0:0,0:0:0:0:
134,208,137225,2,0,L|139:234,6,26.9999984936714,10|0|0|0|8|0|0,3:2|0:0|0:0|0:0|3:2|0:0|0:0,0:0:0:0:
124,264,137510,1,8,3:3:0:0:
180,371,137653,5,2,1:1:0:0:
285,339,137796,1,0,1:0:0:0:
323,265,137939,6,0,L|343:252,1,24.7999975379182,8|0,1:3|0:0,0:0:0:0:
360,225,138082,6,0,L|383:232,1,24.7999975379182,4|0,1:3|0:0,0:0:0:0:
512,262,138225,6,0,P|460:271|427:331,1,111.999989906311,8|8,3:2|1:3,0:0:0:0:
480,384,138439,1,0,3:0:0:0:
480,384,138510,6,0,P|469:281|461:177,1,207.999978080751,4|0,1:1|2:0,0:0:0:0:
478,73,138939,1,2,1:3:0:0:
381,200,139082,2,0,P|350:159|295:124,1,113.999990160942,0|0,2:0|0:0,0:0:0:0:
223,159,139367,6,0,P|262:153|306:129,1,75.9999934406283,8|0,3:2|2:0,0:0:0:0:
242,0,139653,2,0,P|228:35|224:72,1,75.9999934406283,2|0,1:2|2:0,0:0:0:0:
299,229,139939,1,8,3:2:0:0:
261,305,140082,1,0,2:0:0:0:
323,383,140225,6,0,P|265:337|191:334,1,151.999986881257,0|0,1:0|2:0,0:0:0:0:
20,307,140653,2,0,P|78:260|152:257,1,151.999986881257,2|0,1:3|1:0,0:0:0:0:
369,311,141082,6,0,P|385:256|403:202,1,113.999990160942,8|0,3:2|0:0,0:0:0:0:
413,195,141367,2,0,P|394:161|368:134,1,75.9999934406283,2|8,1:3|3:3,0:0:0:0:
510,0,141653,2,0,P|492:54|475:108,1,113.999990160942,0|0,1:0|0:0,0:0:0:0:
485,139,141939,6,0,P|438:80|368:47,1,151.999986881257,2|2,1:1|2:3,0:0:0:0:
235,88,142367,2,0,P|197:83|159:80,1,75.9999934406283,2|0,1:3|2:0,0:0:0:0:
92,19,142653,1,0,1:0:0:0:
178,203,142796,6,0,P|170:146|165:89,1,113.999990160942,8|0,3:2|0:0,0:0:0:0:
85,132,143082,2,0,P|57:105|23:89,1,75.9999934406283,2|0,1:2|0:0,0:0:0:0:
0,247,143367,2,0,P|37:252|75:255,1,75.9999934406283,0|0,1:0|0:0,0:0:0:0:
167,384,143653,6,0,P|172:346|176:309,2,75.9999934406283,8|0|0,1:1|0:0|2:0,0:0:0:0:
178,203,144082,2,0,B|206:234|209:268|209:268|250:229|312:238,1,183.999992542267,6|0,1:2|1:0,0:0:0:0:
512,305,144510,2,0,P|463:333|406:336,1,113.999990160942,8|0,3:2|0:0,0:0:0:0:
340,291,144796,6,0,P|333:267|320:244,1,51.9999945201877,2|0,1:1|0:0,0:0:0:0:
419,246,144939,1,4,3:3:0:0:
262,145,145082,5,8,2:2:0:0:
190,105,145225,1,8,3:3:0:0:
301,0,145367,6,0,P|343:71|272:115,1,183.999992542267,4|8,1:2|2:3,0:0:0:0:
190,105,145796,1,2,1:3:0:0:
130,49,145939,1,8,2:3:0:0:
55,17,146082,1,0,1:0:0:0:
0,143,146225,6,0,P|44:108|97:89,1,113.999990160942,8|0,3:2|0:0,0:0:0:0:
107,96,146510,2,0,P|112:151|99:207,1,113.999990160942,8|0,2:3|0:0,0:0:0:0:
12,322,146796,2,0,P|8:284|4:247,1,75.9999934406283,2|0,1:2|2:0,0:0:0:0:
210,257,147082,6,0,B|228:255|247:252|247:252|321:259|321:259|341:255|360:254,1,151.999986881257,2|0,1:3|2:0,0:0:0:0:
290,384,147510,2,0,P|286:346|281:308,1,75.9999934406283,2|8,1:2|3:3,0:0:0:0:
317,180,147796,1,0,1:0:0:0:
218,36,147939,6,0,P|232:101|275:114,1,113.999990160942,8|0,3:2|0:0,0:0:0:0:
281,108,148225,2,0,P|313:93|356:89,1,75.9999934406283,2|0,1:3|2:0,0:0:0:0:
512,117,148510,1,0,1:0:0:0:
490,218,148653,1,8,3:3:0:0:
474,13,148796,6,0,B|488:72|499:116|499:116|473:145|427:135,2,183.999992542267,8|0|0,1:1|2:0|2:0,0:0:0:0:
76,270,149653,6,0,B|38:262|17:286|17:286|26:322|38:371,2,151.999986881257,8|2|0,3:2|1:2|1:0,0:0:0:0:
47,185,150367,1,0,0:0:0:0:
256,254,150510,6,0,P|257:176|257:98,1,155.999983560563,2|0,1:1|0:0,0:0:0:0:
274,72,150796,5,8,3:3:0:0:
362,290,150939,1,4,1:3:0:0:
238,0,151225,5,4,1:3:0:0:
150,218,151367,1,8,3:2:0:0:
244,298,151653,6,0,L|263:359,2,63.9999961853028,8|0|0,1:1|0:0|0:0,0:0:0:0:
247,287,152010,1,0,0:0:0:0:
250,276,152082,1,8,1:3:0:0:
253,265,152153,1,0,3:0:0:0:
256,254,152225,6,0,B|302:298|362:290|362:290|388:256|440:245,1,207.999978080751,4|0,1:1|2:0,0:0:0:0:
512,301,152653,1,2,1:3:0:0:
444,121,152796,2,0,L|422:9,1,113.999990160942,0|0,2:0|0:0,0:0:0:0:
415,0,153082,6,0,P|388:34|362:53,1,75.9999934406283,8|0,3:2|2:0,0:0:0:0:
446,235,153367,2,0,P|473:201|499:182,1,75.9999934406283,2|0,1:2|2:0,0:0:0:0:
329,180,153653,2,0,L|254:165,1,75.9999934406283,8|0,3:2|2:0,0:0:0:0:
54,107,153939,6,0,B|81:112|113:95|113:95|120:49|131:6,1,151.999986881257,0|0,1:0|2:0,0:0:0:0:
42,28,154367,1,2,1:3:0:0:
169,182,154510,2,0,L|243:167,1,75.9999934406283,0|0,0:0|1:0,0:0:0:0:
285,369,154796,6,0,P|264:316|277:262,1,113.999990160942,8|0,3:2|0:0,0:0:0:0:
370,377,155082,2,0,L|295:362,1,75.9999934406283,2|8,1:3|3:3,0:0:0:0:
193,384,155367,1,0,1:0:0:0:
96,292,155510,1,0,0:0:0:0:
0,336,155653,6,0,B|70:322|70:322|106:298|106:298|174:285,1,183.999992542267,10|0,1:1|2:0,0:0:0:0:
8,176,156082,2,0,P|25:209|27:246,2,75.9999934406283,2|0|0,1:3|2:0|1:0,0:0:0:0:
141,165,156510,6,0,P|183:126|206:73,1,113.999990160942,8|0,3:2|0:0,0:0:0:0:
210,64,156796,2,0,P|196:28|172:0,1,75.9999934406283,2|0,1:2|0:0,0:0:0:0:
282,183,157082,1,0,1:0:0:0:
336,120,157225,1,0,0:0:0:0:
507,132,157367,6,0,P|431:138|355:143,1,151.999986881257,6|0,1:2|1:0,0:0:0:0:
414,243,157796,1,8,3:3:0:0:
473,23,157939,2,0,P|465:78|496:124,1,113.999990160942,0|0,1:0|0:0,0:0:0:0:
489,216,158225,6,0,B|448:260|462:307|462:307|490:303|512:284,1,155.999983560563,8|0,3:2|0:0,0:0:0:0:
381,318,158510,5,10,1:3:0:0:
296,378,158653,5,4,3:3:0:0:
206,384,158796,5,0,1:0:0:0:
133,356,158939,5,8,3:3:0:0:
109,336,159082,6,0,B|178:315|224:266|224:266|261:281|292:287,1,207.999978080751,2|0,1:1|1:0,0:0:0:0:
374,308,159510,1,8,3:3:0:0:
307,141,159653,2,0,P|257:153|214:179,1,101.999995865822,0|0,1:0|0:0,0:0:0:0:
209,191,159939,6,0,P|193:100|178:10,1,183.999992542267,14|0,1:2|1:0,0:0:0:0:
109,144,160367,1,2,2:3:0:0:
129,242,160510,2,0,P|79:230|36:204,1,101.999995865822,0|0,1:0|0:0,0:0:0:0:
31,192,160796,6,0,P|15:283|0:373,1,183.999992542267,10|0,1:1|1:0,0:0:0:0:
136,252,161225,1,2,2:2:0:0:
199,303,161367,1,0,1:0:0:0:
277,280,161510,1,0,0:0:0:0:
392,335,161653,2,0,P|397:301|403:268,1,67.9999972438812,10|0,1:2|0:0,0:0:0:0:
445,43,161938,5,0,1:0:0:0:
451,75,162081,1,2,2:3:0:0:
467,159,162224,1,4,1:2:0:0:
476,210,162367,1,0,0:0:0:0:
486,322,162510,6,0,B|501:340|512:360|512:360|432:386|381:341,1,183.999992542267,6|2,1:1|1:2,0:0:0:0:
277,280,162939,1,8,3:3:0:0:
214,229,163082,1,8,1:3:0:0:
136,252,163225,1,4,3:3:0:0:
184,383,163367,6,0,P|246:355|294:306,1,137.9999944067,12|0,1:2|0:0,0:0:0:0:
353,248,163653,2,0,L|341:182,1,67.9999972438812,2|8,1:3|3:3,0:0:0:0:
320,66,163939,2,0,L|308:0,1,67.9999972438812,2|0,1:2|1:0,0:0:0:0:
493,189,164225,6,0,P|446:141|384:113,1,135.999994487762,10|2,1:1|1:2,0:0:0:0:
241,140,164653,6,0,P|219:135|197:131,1,33.9999986219406,4|0,2:2|0:0,0:0:0:0:
151,60,164796,6,0,P|125:54|98:50,1,47.9999956741335,2|0,1:2|0:0,0:0:0:0:
69,198,164939,6,0,P|38:192|7:187,1,61.9999967775345,8|0,3:3|3:0,0:0:0:0:
0,177,165082,5,2,2:1:0:0:
126,138,165225,1,8,2:2:0:0:
168,282,165367,2,0,L|252:266,1,67.9999972438812,10|4,3:3|1:3,0:0:0:0:
331,335,165653,5,0,1:0:0:0:
343,221,165796,1,8,3:2:0:0:
219,369,165939,6,0,B|334:346|334:346|370:360|387:385,1,183.999992542267,4|0,1:1|1:0,0:0:0:0:
498,265,166367,2,0,P|504:302|512:339,1,75.9999934406283,10|4,3:2|3:3,0:0:0:0:
354,248,166653,1,0,1:0:0:0:
479,58,166796,6,0,P|468:126|456:194,1,137.9999944067,12|0,1:2|0:0,0:0:0:0:
446,201,167082,2,0,P|418:174|385:155,1,75.9999934406283,0|0,1:0|2:0,0:0:0:0:
216,143,167367,6,0,L|223:173,1,29.9999982118607,8|0,2:2|0:0,0:0:0:0:
250,284,167653,6,0,P|250:217|98:217,1,223.999979812623,2|8,1:3|1:3,0:0:0:0:
52,258,168082,1,8,1:2:0:0:
0,42,168225,2,0,L|17:116,1,75.9999934406283,4|0,1:3|1:0,0:0:0:0:
33,346,168510,5,8,2:2:0:0:
100,99,168796,5,4,1:3:0:0:
306,6,169082,5,0,1:0:0:0:
510,0,169367,6,0,B|377:18|306:135|306:135|234:16|76:32|76:32|100:77|129:88,1,599.999987125397,2|0,1:1|0:0,0:0:0:0:
169,289,171082,6,0,B|202:318|186:353|186:353|161:341|157:318,1,119.999992847443,6|0,1:2|0:0,0:0:0:0:
217,157,171367,6,0,B|228:101|277:97|277:97|279:132|257:150,1,149.999991059303,0|0,1:0|0:0,0:0:0:0:
72,220,171653,6,0,B|9:241|-24:193|-24:193|10:170|42:182,1,179.999996137619,4|0,1:3|0:0,0:0:0:0:
138,166,171939,6,0,L|150:210,3,29.9999993562698,8|0|0|0,1:3|0:0|0:0|0:0,0:0:0:0:
152,204,172225,2,0,B|132:385,1,181.199987125969,4|0,1:3|0:0,0:0:0:0:
24,345,172510,2,0,L|54:339,6,30.1999978543282,0|0|0|0|0|0|0,1:0|0:0|0:0|0:0|0:0|0:0|0:0,0:0:0:0:
157,318,172796,6,0,B|209:316|242:272|242:272|225:313|240:362,1,167.999984859467,4|0,1:2|0:0,0:0:0:0:
314,314,173082,1,0,1:0:0:0:
314,314,173367,1,0,1:0:0:0:
457,168,173653,5,2,1:2:0:0:
457,168,173939,1,2,3:3:0:0:
457,168,174225,1,0,3:0:0:0:
512,364,174510,5,2,1:2:0:0:
512,364,174796,1,0,1:0:0:0:
512,364,175082,2,0,P|482:367|453:378,1,59.9999987125397,0|8,1:0|3:3,0:0:0:0:
300,219,175367,6,0,P|318:263|321:306,1,89.9999980688095,2|0,1:2|0:0,0:0:0:0:
314,314,175653,2,0,P|284:310|255:299,1,59.9999987125397,2|0,3:3|0:0,0:0:0:0:
149,211,175939,1,0,3:0:0:0:
45,279,176082,1,0,0:0:0:0:
14,176,176225,6,0,P|70:195|121:227,2,119.999997425079,4|0|0,1:2|1:0|1:0,0:0:0:0:
102,111,176939,1,8,3:3:0:0:
83,0,177082,6,0,P|80:59|92:118,1,119.999997425079,2|2,1:2|3:3,0:0:0:0:
164,44,177510,1,0,0:0:0:0:
277,84,177653,1,0,3:0:0:0:
512,166,177939,5,2,1:3:0:0:
512,166,178225,2,0,P|506:136|501:106,1,59.9999987125397,2|0,1:2|0:0,0:0:0:0:
372,215,178510,2,0,P|366:185|361:155,1,59.9999987125397,0|0,1:0|0:0,0:0:0:0:
297,83,178796,6,0,P|257:127|200:141,1,119.999997425079,2|2,1:2|1:3,0:0:0:0:
285,210,179225,1,0,3:0:0:0:
263,330,179367,6,0,P|260:345|259:360,1,29.9999982118607,0|0,3:0|0:0,0:0:0:0:
279,384,179653,6,0,P|315:342|368:326,1,111.999989906311,2|0,1:1|0:0,0:0:0:0:
443,191,179939,2,0,P|431:132|420:73,1,119.999997425079,0|0,1:0|1:0,0:0:0:0:
352,0,180367,1,8,3:3:0:0:
218,60,180510,1,2,1:2:0:0:
0,158,180796,6,0,P|44:134|74:93,1,89.9999980688095,2|0,3:3|0:0,0:0:0:0:
75,93,181082,2,0,P|69:63|63:34,1,59.9999987125397,0|0,3:0|1:0,0:0:0:0:
80,264,181367,6,0,P|133:236|189:214,1,119.999997425079,2|0,1:2|1:0,0:0:0:0:
211,67,181796,2,0,P|203:126|202:186,1,119.999997425079,2|8,3:3|3:3,0:0:0:0:
340,265,182225,2,0,P|370:259|399:253,2,59.9999987125397,2|0|2,1:2|0:0|3:3,0:0:0:0:
494,198,182653,6,0,P|473:194|453:190,1,41.9999962148668
417,381,182796,6,0,L|419:351,1,29.9999982118607,0|0,3:0|0:0,0:0:0:0:
437,323,183082,6,0,B|432:275|432:275|421:232|421:232|431:170|431:170|414:116,1,207.999978080751,4|0,1:2|3:0,0:0:0:0:
201,186,183510,2,0,P|269:181|338:174,1,135.999994487762,8|8,1:3|1:3,0:0:0:0:
512,0,183939,6,0,L|501:101,1,101.999995865822,2|0,1:2|0:0,0:0:0:0:
507,111,184225,1,2,1:3:0:0:
425,38,184367,1,0,0:0:0:0:
256,105,184510,2,0,P|205:109|154:114,1,101.999995865822,2|0,1:2|0:0,0:0:0:0:
129,95,184796,6,0,B|110:35|46:25|46:25|9:45,1,155.999983560563,8|0,1:1|0:0,0:0:0:0:
48,121,185082,1,8,3:2:0:0:
15,314,185225,1,8,3:2:0:0:
0,234,185367,2,0,P|33:234|66:250,1,67.9999972438812,2|0,3:2|0:0,0:0:0:0:
232,384,185653,5,8,1:2:0:0:
280,190,185939,5,8,1:3:0:0:
246,30,186225,5,4,1:3:0:0:
256,0,186510,6,0,B|320:24|376:44|376:44|404:34|440:23,1,183.999992542267,4|0,1:1|1:0,0:0:0:0:
512,161,186939,2,0,P|481:143|451:129,1,67.9999972438812,10|0,3:2|0:0,0:0:0:0:
377,98,187225,1,0,1:0:0:0:
366,294,187367,6,0,P|378:230|443:219,1,137.9999944067,12|0,3:2|0:0,0:0:0:0:
435,332,187653,2,0,P|404:317|375:300,1,67.9999972438812,2|0,3:3|0:0,0:0:0:0:
267,384,187939,1,2,1:2:0:0:
221,316,188082,1,0,3:0:0:0:
33,366,188225,6,0,L|134:355,1,101.999995865822,2|0,1:2|0:0,0:0:0:0:
161,372,188510,1,0,1:0:0:0:
178,210,188653,1,10,3:2:0:0:
267,60,188939,5,0,1:0:0:0:
284,222,189082,2,0,P|246:187|199:168,1,101.999995865822,12|0,3:2|0:0,0:0:0:0:
170,180,189367,6,0,P|173:195|178:210,1,29.9999982118607,2|0,1:3|0:0,0:0:0:0:
146,97,189653,6,0,P|139:45|115:0,1,101.999995865822,10|0,1:2|0:0,0:0:0:0:
0,118,189939,6,0,L|135:103,1,135.999994487762,8|0,1:1|0:0,0:0:0:0:
345,158,190367,2,0,P|368:133|397:115,1,67.9999972438812,10|0,3:2|1:0,0:0:0:0:
512,181,190653,1,0,0:0:0:0:
445,22,190796,6,0,B|411:42|396:79|396:79|414:143|425:203,1,203.999991731644,12|0,3:2|0:0,0:0:0:0:
483,269,191367,1,2,1:2:0:0:
447,384,191510,1,8,3:2:0:0:
254,295,191653,6,0,P|322:305|388:317,1,135.999994487762,2|0,1:2|1:0,0:0:0:0:
154,222,192082,2,0,P|163:289|176:356,1,135.999994487762,10|0,3:2|1:0,0:0:0:0:
176,356,192510,6,0,P|116:306|38:311,1,155.999983560563,12|0,3:2|0:0,0:0:0:0:
0,379,192796,5,2,1:3:0:0:
114,66,193082,5,10,1:2:0:0:
437,0,193367,6,0,P|377:50|299:45,1,155.999983560563,2|0,1:1|0:0,0:0:0:0:
228,16,193653,2,0,P|261:24|294:35,1,67.9999972438812,0|10,1:0|3:2,0:0:0:0:
424,194,193939,5,0,0:0:0:0:
478,98,194082,1,0,1:0:0:0:
456,310,194225,2,0,B|458:250|512:214|512:214|418:207|388:127,1,275.9999888134,12|0,3:2|0:0,0:0:0:0:
227,285,194796,5,2,1:2:0:0:
282,177,194939,1,0,3:0:0:0:
264,384,195082,2,0,P|313:338|379:327,1,135.999994487762,2|0,1:2|1:0,0:0:0:0:
379,327,195510,6,0,P|344:306|319:276,1,79.9999952316285,10|0,3:2|1:0,0:0:0:0:
289,167,195796,1,0,2:0:0:0:
10,196,195939,6,0,P|77:204|127:250,1,137.9999944067,12|0,3:2|0:0,0:0:0:0:
206,192,196225,6,0,L|177:186,1,29.9999982118607,2|0,1:3|0:0,0:0:0:0:
0,189,196510,6,0,P|67:180|117:134,1,137.9999944067,10|0,1:2|0:0,0:0:0:0:
162,8,196796,6,0,B|254:27|254:27|280:17|294:0,1,143.9999870224,8|0,1:1|1:0,0:0:0:0:
370,118,197225,2,0,P|402:102|438:98,1,71.9999935112002,10|0,3:2|0:0,0:0:0:0:
490,173,197510,1,0,1:0:0:0:
408,14,197653,6,0,P|403:105|396:197,1,183.999992542267,12|2,3:2|3:3,0:0:0:0:
459,290,198082,2,0,P|426:305|390:309,1,71.9999935112002,0|2,0:0|1:2,0:0:0:0:
483,183,198367,1,0,3:0:0:0:
512,384,198510,5,14,3:2:0:0:
314,251,198653,5,8,3:2:0:0:
236,269,198796,5,0,3:0:0:0:
228,321,198939,5,10,1:3:0:0:
256,336,199082,6,0,L|256:307,1,29.9999982118607,4|0,1:3|0:0,0:0:0:0:
227,176,199367,6,0,P|211:149|186:118,1,59.9999964237214,10|0,1:2|0:0,0:0:0:0:
297,155,199653,6,0,P|309:96|335:38,1,119.999992847443,6|0,1:3|0:0,0:0:0:0:
261,0,199939,6,0,P|252:94|255:189,1,189.599993327866,0|0,1:0|0:0,0:0:0:0:
256,361,200225,6,0,B|174:209|29:270|29:270|34:321|66:344,1,359.999992275238,4|2,1:1|1:3,0:0:0:0:
326,270,200939,1,0,1:0:0:0:
336,384,201082,2,0,P|370:368|407:358,1,75.9999934406283,8|0,3:2|0:0,0:0:0:0:
508,196,201367,6,0,P|487:200|468:208,1,41.9999962148668,2|0,1:3|0:0,0:0:0:0:
460,218,201653,6,0,P|396:160|311:154,1,173.99999493885,0|0,1:0|0:0,0:0:0:0:
488,112,201939,6,0,B|458:69|470:17|470:17|498:26|512:46,1,151.999986881257,0|0,1:0|2:0,0:0:0:0:
385,70,202367,2,0,P|354:50|319:35,1,75.9999934406283,2|0,1:3|0:0,0:0:0:0:
229,223,202653,1,0,1:0:0:0:
124,195,202796,6,0,P|67:156|0:158,1,137.9999944067,8|0,3:2|0:0,0:0:0:0:
178,86,203082,6,0,P|175:41|191:-1,1,89.9999980688095,2|0,1:3|0:0,0:0:0:0:
83,66,203367,6,0,P|72:49|58:33,1,41.9999962148668,8|0,3:2|0:0,0:0:0:0:
94,73,203653,6,0,B|139:73|168:43|168:43|215:32|251:52,1,167.999984859467,2|0,1:1|2:0,0:0:0:0:
361,198,204082,1,2,1:3:0:0:
368,174,204153,1,0,0:0:0:0:
366,149,204224,1,0,2:0:0:0:
282,164,204367,1,0,1:0:0:0:
391,338,204510,6,0,B|419:346|444:333|444:333|473:302|498:269,1,137.9999944067,8|0,3:2|0:0,0:0:0:0:
490,263,204796,6,0,P|466:271|442:279,1,50.3999954578401,2|0,1:3|0:0,0:0:0:0:
512,152,205082,6,0,P|494:133|476:116,1,50.3999954578401,8|0,1:2|0:0,0:0:0:0:
292,157,205367,6,0,P|368:174|443:195,1,155.199994420013,0|0,1:0|2:0,0:0:0:0:
220,270,205796,2,0,P|163:282|106:297,1,116.39999581501,2|0,1:3|0:0,0:0:0:0:
76,304,206082,1,0,1:0:0:0:
256,384,206225,6,0,B|205:319|255:235|255:235|276:273|310:292,1,239.999994850159,8|2,3:2|1:3,0:0:0:0:
213,260,206653,1,0,3:0:0:0:
124,203,206796,1,8,3:2:0:0:
50,116,206939,1,8,1:3:0:0:
0,0,207082,6,0,P|99:41|184:107,1,215.999987949372,12|0,1:1|2:0,0:0:0:0:
371,205,207510,2,0,P|418:162|475:136,1,125.9999886446,2|0,1:3|0:0,0:0:0:0:
507,132,207796,1,0,1:0:0:0:
375,3,207939,6,0,P|365:59|356:115,1,113.999990160942,8|0,3:2|0:0,0:0:0:0:
347,122,208225,6,0,P|339:101|328:84,1,41.9999962148668,2|0,1:3|0:0,0:0:0:0:
372,205,208510,6,0,P|357:290|343:376,1,173.99999493885,0|0,1:0|0:0,0:0:0:0:
333,384,208796,6,0,P|312:352|300:317,1,75.9999934406283,0|0,1:0|0:0,0:0:0:0:
262,132,209082,6,0,P|245:165|204:208,1,91.9999962711334,2|0,3:3|0:0,0:0:0:0:
0,287,209367,6,0,P|37:284|186:373,1,173.99999493885,2|0,3:2|0:0,0:0:0:0:
181,360,209653,6,0,P|135:299|115:226,1,151.999986881257,8|4,1:2|1:3,0:0:0:0:
224,286,210082,1,0,0:0:0:0:
150,104,210225,1,8,1:2:0:0:
139,77,210367,1,8,3:2:0:0:
222,0,210510,6,0,B|201:39|166:62|166:62|99:67|33:31,1,215.999987949372,4|8,1:2|3:2,0:0:0:0:
290,235,210939,2,0,B|305:205|332:188|332:188|382:183|432:210,1,167.999984859467,10|0,1:3|1:0,0:0:0:0:
512,20,211367,2,0,P|476:34|439:41,1,75.9999934406283,8|0,3:2|0:0,0:0:0:0:
316,95,211653,6,0,P|295:91|275:88,1,41.9999962148668,2|0,1:3|0:0,0:0:0:0:
139,77,211939,6,0,B|154:109|161:141|161:141|168:121|182:100,1,113.999990160942,8|0,1:3|0:0,0:0:0:0:
39,34,212225,6,0,B|108:29|167:62|167:62|187:28|223:0,1,215.999987949372,2|0,1:1|0:0,0:0:0:0:
432,210,212653,2,0,B|372:215|333:188|333:188|322:217|291:235,1,167.999984859467,8|0,1:1|0:0,0:0:0:0:
47,287,213082,6,0,P|121:272|196:260,1,151.999986881257,10|2,1:2|1:3,0:0:0:0:
0,376,213510,2,0,P|82:360|165:345,1,167.999984859467,0|0,3:0|0:0,0:0:0:0:
496,321,213939,6,0,B|441:340|411:383|411:383|396:330|356:291,1,215.999987949372,4|0,1:1|0:0,0:0:0:0:
446,206,214367,2,0,P|453:168|460:131,1,75.9999934406283,10|0,1:3|0:0,0:0:0:0:
377,154,214653,1,0,1:0:0:0:
221,0,214796,6,0,P|235:79|251:159,1,161.999990962029,14|0,1:2|0:0,0:0:0:0:
290,235,215082,2,0,P|265:205|234:185,1,75.9999934406283,0|0,1:0|0:0,0:0:0:0:
449,124,215367,2,0,P|467:86|497:57,1,83.9999924297336,10|0,1:2|0:0,0:0:0:0:
251,159,215653,6,0,B|180:147|120:137|120:137|97:149|87:162,1,173.99999493885,2|0,1:1|0:0,0:0:0:0:
63,231,215939,2,0,P|45:193|15:164,1,83.9999924297336,0|10,1:0|3:2,0:0:0:0:
154,371,216225,2,0,P|179:341|210:321,1,75.9999934406283,8|4,1:3|1:3,0:0:0:0:
492,282,216510,6,0,P|483:300|468:315,1,41.9999962148668,10|0,3:2|0:0,0:0:0:0:
478,384,216796,6,0,B|499:365|512:342|512:342|515:311|503:290,1,107.999993974686,10|0,1:3|0:0,0:0:0:0:
283,245,217082,2,0,B|287:272|300:295|300:295|325:313|350:314,1,107.999993974686,6|0,1:3|0:0,0:0:0:0:
502,134,217367,6,0,B|473:123|448:123|448:123|420:136|407:157,1,107.999993974686,8|0,1:1|0:0,0:0:0:0:
419,249,217653,1,8,3:2:0:0:
188,58,217796,2,0,B|163:97|107:123|107:123|57:123|0:101,1,215.999987949372,4|0,1:2|1:0,0:0:0:0:
63,0,218225,5,8,1:2:0:0:
449,124,218510,5,8,1:3:0:0:
188,250,218796,5,4,1:3:0:0:
255,384,219082,6,0,B|289:330|259:266|297:154|93:113|75:299|173:329|262:288|262:288|288:256|460:142|-12:110|290:-69|418:-109|407:43|372:97|317:75|341:42,1,883.199968919678,4|4,1:1|2:2,0:0:0:0:
336,51,223653,6,0,P|345:67|357:82,1,38.3999986486816
414,36,223939,6,0,P|437:54|465:66,1,59.9999987125397
512,0,224225,5,2,2:1:0:0:
140,278,232653,6,0,P|135:297|131:317,1,39.9999976158142,0|0,1:0|1:0,0:0:0:0:
55,384,232796,6,0,B|96:360|116:324|116:324|100:261|87:190,1,223.999979812623,12|0,1:1|0:0,0:0:0:0:
50,110,233225,1,8,2:2:0:0:
199,9,233367,2,0,P|190:48|182:87,1,79.9999952316285,8|0,2:2|1:0,0:0:0:0:
147,288,233653,5,8,2:2:0:0:
224,184,233796,1,8,1:3:0:0:
339,149,233939,6,0,L|332:124,1,24.7999975379182,8|0,1:3|0:0,0:0:0:0:
390,171,234082,6,0,L|401:147,1,24.7999975379182,4|0,1:3|0:0,0:0:0:0:
426,213,234225,6,0,L|415:237,1,24.7999975379182,4|0,1:3|0:0,0:0:0:0:
477,235,234367,6,0,L|483:259,1,24.7999975379182,0|0,1:0|0:0,0:0:0:0:
512,192,234510,6,0,P|408:193|304:192,1,207.999978080751,2|0,1:1|2:0,0:0:0:0:
207,213,234939,1,2,1:3:0:0:
103,114,235082,2,0,P|55:83|0:76,1,113.999990160942,10|0,2:3|0:0,0:0:0:0:
22,155,235367,6,0,L|39:0,1,155.999983560563,12|0,3:2|0:0,0:0:0:0:
113,107,235653,2,0,P|143:129|178:142,1,75.9999934406283,2|0,3:2|2:0,0:0:0:0:
312,7,235939,2,0,P|277:21|248:46,1,75.9999934406283,0|0,1:0|2:0,0:0:0:0:
391,100,236225,6,0,P|332:54|258:52,1,151.999986881257,2|0,1:3|2:0,0:0:0:0:
379,269,236653,2,0,P|437:223|512:221,1,151.999986881257,2|0,1:3|1:0,0:0:0:0:
313,346,237082,6,0,P|301:290|288:235,1,113.999990160942,2|0,3:1|0:0,0:0:0:0:
297,154,237367,2,0,P|304:191|299:229,1,75.9999934406283,2|8,1:2|3:3,0:0:0:0:
63,177,237653,2,0,P|119:190|175:203,1,113.999990160942,0|0,1:0|0:0,0:0:0:0:
184,194,237939,6,0,B|153:146|153:146|62:176,1,151.999986881257,6|0,1:2|2:0,0:0:0:0:
22,384,238367,2,0,P|58:375|99:368,1,75.9999934406283,2|0,1:3|2:0,0:0:0:0:
117,280,238653,1,0,1:0:0:0:
322,338,238796,6,0,P|381:295|447:294,1,113.999990160942,8|0,3:2|0:0,0:0:0:0:
512,279,239082,2,0,P|475:270|437:263,1,75.9999934406283,2|0,1:2|0:0,0:0:0:0:
445,365,239367,1,0,1:0:0:0:
412,187,239510,1,8,3:2:0:0:
509,96,239653,6,0,L|497:17,2,75.9999934406283,4|0|0,1:2|0:0|2:0,0:0:0:0:
404,176,240082,2,0,P|329:161|255:144,1,151.999986881257,2|0,1:3|1:0,0:0:0:0:
333,2,240510,2,0,P|295:43|241:62,1,113.999990160942,8|0,3:2|0:0,0:0:0:0:
231,55,240796,6,0,P|213:47|195:41,1,37.9999967203142,2|0,1:3|0:0,0:0:0:0:
173,125,240939,2,0,P|150:127|127:132,1,45.9999981355667,0|0,3:0|0:0,0:0:0:0:
281,233,241082,6,0,P|305:222|331:214,1,53.9999969873429,10|0,2:3|0:0,0:0:0:0:
335,299,241225,2,0,P|365:302|396:308,1,61.9999967775345,8|0,3:3|0:0,0:0:0:0:
334,384,241367,6,0,B|335:355|316:325|316:325|254:298|200:333,1,183.999992542267,0|8,1:0|2:3,0:0:0:0:
130,378,241796,1,2,1:3:0:0:
48,362,241939,1,8,2:3:0:0:
2,292,242082,1,0,1:0:0:0:
0,102,242225,6,0,P|23:153|21:209,1,113.999990160942,8|0,3:2|0:0,0:0:0:0:
30,217,242510,2,0,P|77:186|133:180,1,113.999990160942,8|0,2:3|0:0,0:0:0:0:
216,251,242796,1,2,1:2:0:0:
311,142,242939,1,0,2:0:0:0:
389,209,243082,6,0,B|453:195|512:180|512:180|486:229,1,151.999986881257,2|0,1:3|2:0,0:0:0:0:
399,377,243510,2,0,P|373:348|348:320,1,75.9999934406283,2|8,1:2|3:3,0:0:0:0:
450,293,243796,1,0,1:0:0:0:
397,113,243939,6,0,P|402:57|413:-22,1,113.999990160942,8|0,3:2|0:0,0:0:0:0:
478,85,244225,2,0,P|443:101|406:105,1,75.9999934406283,2|0,1:3|2:0,0:0:0:0:
266,56,244510,1,0,1:0:0:0:
243,33,244653,1,8,3:3:0:0:
68,63,244796,6,0,B|76:13|19:0|19:0|-21:43|19:84,1,183.999992542267,2|0,1:1|2:0,0:0:0:0:
199,111,245225,2,0,B|247:97|235:39|235:39|179:21|159:75,1,183.999992542267,2|0,1:3|1:0,0:0:0:0:
374,300,245653,6,0,B|357:349|312:362|262:335,1,113.999990160942,8|0,3:2|0:0,0:0:0:0:
275,333,245939,2,0,B|271:281|307:251|364:256,1,113.999990160942,2|0,1:2|0:0,0:0:0:0:
512,341,246225,5,0,1:0:0:0:
418,231,246367,5,0,0:0:0:0:
256,202,246510,6,0,P|255:280|255:358,1,155.999983560563,8|0,1:1|0:0,0:0:0:0:
238,384,246796,5,8,3:3:0:0:
155,251,246939,5,4,1:3:0:0:
144,216,247010,5,8,1:3:0:0:
145,180,247082,5,8,3:3:0:0:
172,101,247225,5,4,1:3:0:0:
274,0,247367,5,8,3:2:0:0:
286,271,247653,6,0,L|224:289,2,63.9999961853028,2|0|0,2:1|0:0|1:0,0:0:0:0:
293,261,248010,1,8,3:3:0:0:
300,251,248082,1,8,1:3:0:0:
307,241,248153,1,0,3:0:0:0:
313,231,248225,6,0,B|404:258|404:258|426:241|461:227|461:227|520:233,1,207.999978080751,4|0,1:1|2:0,0:0:0:0:
391,159,248653,1,2,1:3:0:0:
420,379,248796,2,0,L|405:265,1,113.999990160942,0|0,2:0|0:0,0:0:0:0:
398,169,249082,6,0,B|422:105|422:105|412:88|404:63|404:63|411:21,1,155.999983560563,8|0,3:2|0:0,0:0:0:0:
316,108,249367,2,0,P|279:100|242:88,1,75.9999934406283,2|0,1:2|2:0,0:0:0:0:
0,95,249653,2,0,P|56:81|110:65,1,113.999990160942,8|0,3:2|0:0,0:0:0:0:
141,75,249939,6,0,P|145:40|138:-22,2,75.9999934406283,0|0|0,1:0|0:0|1:0,0:0:0:0:
5,257,250367,6,0,P|58:202|112:149,1,151.999986881257,2|0,3:3|1:0,0:0:0:0:
135,366,250796,6,0,P|155:293|173:218,1,151.999986881257,8|2,3:2|1:3,0:0:0:0:
305,377,251225,6,0,P|288:322|274:267,1,113.999990160942,8|0,3:3|0:0,0:0:0:0:
267,257,251510,1,8,3:2:0:0:
494,384,251653,6,0,B|532:344|492:301|492:301|435:314|443:364,1,183.999992542267,8|0,1:1|2:0,0:0:0:0:
378,177,252082,2,0,P|383:215|376:252,2,75.9999934406283,2|0|0,1:3|2:0|1:0,0:0:0:0:
484,16,252510,6,0,L|469:129,1,113.999990160942,8|0,3:2|0:0,0:0:0:0:
454,209,252796,2,0,P|418:197|389:174,1,75.9999934406283,2|0,1:2|0:0,0:0:0:0:
239,79,253082,1,0,1:0:0:0:
174,129,253225,1,8,3:2:0:0:
74,27,253367,6,0,B|104:65|143:87|143:87|189:85|233:68,1,183.999992542267,4|0,1:2|1:0,0:0:0:0:
341,0,253796,5,2,3:1:0:0:
314,126,253939,5,0,1:0:0:0:
218,226,254082,5,0,2:0:0:0:
50,247,254225,6,0,B|50:216|79:183|79:183|40:207|-1:207,1,155.999983560563,8|0,3:1|0:0,0:0:0:0:
120,333,254510,5,10,1:3:0:0:
210,377,254653,5,4,3:3:0:0:
300,384,254796,5,0,1:0:0:0:
371,349,254939,6,0,P|355:330|335:313,1,51.9999945201877,8|0,3:3|0:0,0:0:0:0:
392,325,255082,6,0,B|385:293|356:273|356:273|295:289|220:308,1,183.999992542267,4|0,1:2|1:0,0:0:0:0:
127,343,255510,1,12,3:3:0:0:
78,183,255653,2,0,P|100:137|136:101,1,101.999995865822,0|0,1:0|0:0,0:0:0:0:
68,189,255939,6,0,P|43:167|13:152,1,67.9999972438812,10|0,1:2|0:0,0:0:0:0:
157,247,256225,1,0,1:0:0:0:
336,155,256367,2,0,P|399:173|492:194,1,135.999994487762,2|0,2:3|0:0,0:0:0:0:
467,189,256796,6,0,P|407:179|448:71,1,183.999992542267,2|0,1:1|1:0,0:0:0:0:
368,3,257225,1,2,2:2:0:0:
234,126,257367,2,0,P|184:112|135:101,1,101.999995865822,0|0,1:0|0:0,0:0:0:0:
127,90,257653,2,0,P|114:60|109:26,1,67.9999972438812,10|0,1:2|0:0,0:0:0:0:
306,50,257939,5,0,1:0:0:0:
298,82,258082,1,2,2:3:0:0:
258,236,258225,1,4,1:2:0:0:
245,286,258368,1,0,0:0:0:0:
219,383,258510,6,0,P|209:303|296:272,1,183.999992542267,6|2,1:1|1:2,0:0:0:0:
338,339,258939,1,8,3:3:0:0:
415,369,259082,1,8,1:3:0:0:
492,340,259225,1,4,3:3:0:0:
512,182,259367,6,0,P|464:164|414:169,1,101.999995865822,12|0,1:2|0:0,0:0:0:0:
399,196,259653,2,0,P|365:201|331:197,1,67.9999972438812,2|8,1:3|3:3,0:0:0:0:
224,109,259939,2,0,P|215:123|206:138,1,33.9999986219406,2|0,1:2|0:0,0:0:0:0:
223,251,260082,2,0,P|216:235|207:221,1,33.9999986219406,0|0,1:0|0:0,0:0:0:0:
0,182,260225,6,0,B|31:179|55:184|55:184|80:178|80:178|103:183|136:181,1,137.9999944067,2|0,1:1|0:0,0:0:0:0:
217,214,260510,1,2,1:2:0:0:
351,117,260653,2,0,P|344:83|341:49,2,67.9999972438812,10|2|8,2:3|1:2|3:3,0:0:0:0:
425,72,261082,5,8,1:3:0:0:
425,72,261367,1,2,1:3:0:0:
459,109,261511,1,8,2:2:0:0:
409,174,261653,1,8,1:2:0:0:
463,263,261797,1,8,2:2:0:0:
458,384,261939,6,0,L|451:293,2,91.9999962711334,4|0|0,1:1|2:0|1:0,0:0:0:0:
473,270,262367,1,10,3:2:0:0:
351,117,262510,2,0,P|313:110|275:108,1,75.9999934406283,4|0,3:3|1:0,0:0:0:0:
321,0,262796,6,0,P|314:68|310:137,1,137.9999944067,12|0,1:2|0:0,0:0:0:0:
296,242,263082,2,0,P|269:216|245:187,1,75.9999934406283,8|0,1:1|2:0,0:0:0:0:
99,61,263367,6,0,P|110:72|118:84,1,29.9999982118607,8|0,2:2|0:0,0:0:0:0:
0,84,263653,6,0,B|81:73|159:69|159:69|177:38|209:13,1,223.999979812623,2|8,1:1|1:3,0:0:0:0:
407,170,264082,2,0,P|393:204|375:237,1,75.9999934406283,8|4,1:2|1:3,0:0:0:0:
351,117,264367,1,0,1:0:0:0:
507,269,264510,6,0,P|442:246|373:238,1,137.9999944067,12|0,2:2|0:0,0:0:0:0:
296,242,264796,5,4,1:3:0:0:
90,289,265082,5,0,1:0:0:0:
0,384,265367,6,0,B|182:396|151:281|293:252|293:252|325:310|386:343|386:343|323:329|252:353,1,599.999987125397,4|0,1:1|0:0,0:0:0:0:
299,221,267082,5,4,1:2:0:0:
290,172,267367,5,0,1:0:0:0:
254,69,267653,5,4,1:3:0:0:
146,15,267939,5,8,1:3:0:0:
21,59,268225,5,8,1:2:0:0:
200,166,268510,5,8,1:2:0:0:
511,0,268796,6,0,B|375:-7|299:97|299:97|214:76|152:23|152:23|218:91|213:173|213:173|172:209|112:222,1,679.999972438812,2|0,1:1|0:0,0:0:0:0:
21,59,270510,6,0,P|78:95|134:135,1,135.999994487762,8|8,1:1|3:3,0:0:0:0:
184,288,270939,2,0,P|211:268|239:248,2,67.9999972438812,8|4|0,1:3|1:3|1:0,0:0:0:0:
289,173,271367,5,8,1:3:0:0:
385,208,271653,5,4,1:3:0:0:
463,180,271939,5,0,1:0:0:0:
512,192,272225,5,4,1:1:0:0:
256,192,272296,12,8,275653,2:1:0:0:
