osu file format v14

[General]
AudioFilename: audio.mp3
AudioLeadIn: 0
PreviewTime: 89516
Countdown: 1
SampleSet: Soft
StackLeniency: 0.7
Mode: 2
LetterboxInBreaks: 0
WidescreenStoryboard: 0

[Editor]
Bookmarks: 159,14559,31916,46316,60716,75116,81416,89516,103916,117416
DistanceSpacing: 0.9
BeatDivisor: 4
GridSize: 8
TimelineZoom: 2.1

[Metadata]
Title:Byakuya Gensoutan
TitleUnicode:白夜幻想譚
Artist:Shimotsuki Haruka
ArtistUnicode:霜月はるか
Creator:celerih
Version:Illusion
Source:イリスのアトリエ エターナルマナ
Tags:JeirYagtama Atelier Iris Eternal Mana
BeatmapID:1515334
BeatmapSetID:717226

[Difficulty]
HPDrainRate:6
CircleSize:4
OverallDifficulty:9.3
ApproachRate:9.3
SliderMultiplier:1.7
SliderTickRate:2

[Events]
//Background and Video events
0,0,"Byakuya BG.jpg",0,0
//Break Periods
2,75316,79916
//Storyboard Layer 0 (Background)
//Storyboard Layer 1 (Fail)
//Storyboard Layer 2 (Pass)
//Storyboard Layer 3 (Foreground)
//Storyboard Sound Samples

[TimingPoints]
159,300,6,2,1,40,1,0
28959,320,6,2,1,40,1,0
29279,333.333333333333,6,2,1,40,1,0
29612,380.952380952381,6,2,1,40,1,0
29992,424.778761061947,6,2,1,40,1,0
30416,500,6,2,1,40,1,0
31916,300,6,2,1,40,1,0
89516,-100,6,2,1,40,0,1
103016,-100,6,2,1,40,0,0
103916,-100,6,2,1,40,0,1
117416,-100,6,2,1,40,0,0

[HitObjects]
360,256,159,6,0,P|368:184|260:168,1,170
132,136,609,2,0,B|44:136|44:136|132:136,1,170
372,84,1059,2,0,L|388:188,1,85
184,136,1359,2,0,L|284:148,1,85
104,52,1659,2,0,L|84:140,1,85
360,260,1959,6,0,P|264:256|264:172,1,170
408,144,2409,1,0,0:0:0:0:
232,184,2559,1,0,0:0:0:0:
188,152,2634,1,0,0:0:0:0:
148,116,2709,1,0,0:0:0:0:
188,152,2784,1,0,0:0:0:0:
320,92,2859,2,0,L|424:88,1,85
272,240,3159,2,0,L|328:160,1,85
160,328,3459,2,0,L|52:304,1,85
396,248,3759,6,0,P|436:228|376:152,1,170
292,148,4209,1,0,0:0:0:0:
144,188,4359,2,0,L|132:284,1,85
400,168,4659,1,0,0:0:0:0:
296,160,4809,1,0,0:0:0:0:
40,84,4959,2,0,L|136:72,1,85
280,208,5259,2,0,L|168:192,1,85
460,88,5559,5,0,0:0:0:0:
176,56,5709,1,0,0:0:0:0:
111,71,5784,1,0,0:0:0:0:
69,124,5859,1,0,0:0:0:0:
69,190,5934,1,0,0:0:0:0:
110,243,6009,1,0,0:0:0:0:
174,259,6084,1,0,0:0:0:0:
336,240,6159,6,0,L|432:228,1,85
144,164,6459,2,0,L|24:152,1,85
316,92,6759,1,0,0:0:0:0:
256,72,6859,1,0,0:0:0:0:
316,92,6959,1,0,0:0:0:0:
128,112,7059,1,0,0:0:0:0:
188,96,7159,1,0,0:0:0:0:
128,112,7259,1,0,0:0:0:0:
296,184,7359,6,0,L|392:172,1,85
120,248,7659,1,0,0:0:0:0:
292,208,7809,1,0,0:0:0:0:
48,160,7959,2,0,L|32:52,1,85
84,56,8184,1,0,0:0:0:0:
240,104,8259,6,0,P|292:68|284:-8,1,127.5
160,172,8559,2,0,L|28:144,1,127.5
168,220,8859,2,0,L|300:192,1,127.5
112,248,9159,6,0,L|216:244,1,85
368,288,9459,1,0,0:0:0:0:
424,272,9559,1,0,0:0:0:0:
368,288,9659,1,0,0:0:0:0:
236,316,9759,2,0,L|140:308,1,85
416,256,10059,1,0,0:0:0:0:
367,239,10159,1,0,0:0:0:0:
333,200,10259,1,0,0:0:0:0:
335,149,10359,1,0,0:0:0:0:
369,111,10459,1,0,0:0:0:0:
418,98,10559,1,0,0:0:0:0:
296,208,10659,1,0,0:0:0:0:
236,196,10759,1,0,0:0:0:0:
296,208,10859,1,0,0:0:0:0:
116,88,10959,6,0,P|64:140|136:188,1,170
208,192,11409,1,0,0:0:0:0:
472,148,11559,1,0,0:0:0:0:
412,136,11659,1,0,0:0:0:0:
352,120,11759,1,0,0:0:0:0:
188,112,11859,2,0,L|284:104,1,85
112,320,12159,1,0,0:0:0:0:
68,288,12234,1,0,0:0:0:0:
68,228,12309,1,0,0:0:0:0:
108,196,12384,1,0,0:0:0:0:
256,180,12459,2,0,L|160:176,1,85
408,148,12759,5,0,0:0:0:0:
132,92,12909,2,0,L|36:88,1,85
204,48,13209,2,0,L|288:36,2,85
456,236,13659,2,0,L|468:152,1,85
192,288,13959,2,0,L|184:192,1,85
440,296,14259,1,0,0:0:0:0:
384,280,14334,1,0,0:0:0:0:
224,328,14409,1,0,0:0:0:0:
168,312,14484,1,0,0:0:0:0:
392,128,14559,6,0,P|470:136|480:214,1,170
364,224,15009,1,0,0:0:0:0:
208,156,15159,2,0,L|116:172,1,85
416,236,15459,2,0,L|432:120,1,85
260,80,15759,1,0,0:0:0:0:
200,72,15859,1,0,0:0:0:0:
260,80,15959,1,0,0:0:0:0:
420,56,16059,2,0,L|312:40,1,85
80,72,16359,5,0,0:0:0:0:
424,192,16509,2,0,P|484:144|420:96,1,170
276,224,16959,2,0,L|372:220,1,85
108,288,17259,1,0,0:0:0:0:
52,272,17359,1,0,0:0:0:0:
108,288,17459,1,0,0:0:0:0:
332,224,17559,2,0,L|424:232,1,85
144,308,17859,2,0,L|36:312,1,85
320,200,18159,6,0,L|336:144,1,56.6666666666667
292,144,18309,2,0,L|180:152,1,85
368,92,18609,2,0,L|264:72,2,85
120,172,19059,1,0,0:0:0:0:
8,148,19209,1,0,0:0:0:0:
260,112,19359,2,0,L|356:104,1,85
176,280,19659,2,0,L|208:200,1,85
472,152,19959,5,0,0:0:0:0:
164,184,20109,2,0,P|84:168|128:84,1,170
260,104,20559,2,0,L|168:108,1,85
408,248,20859,2,0,L|512:228,1,85
196,240,21159,1,0,0:0:0:0:
312,176,21309,1,0,0:0:0:0:
320,136,21384,1,0,0:0:0:0:
152,128,21459,1,0,0:0:0:0:
116,108,21534,1,0,0:0:0:0:
288,100,21609,1,0,0:0:0:0:
324,80,21684,1,0,0:0:0:0:
112,52,21759,6,0,P|48:72|48:168,1,170
272,224,22209,2,0,P|256:160|156:152,1,170
400,296,22659,1,0,0:0:0:0:
456,288,22759,1,0,0:0:0:0:
400,296,22859,1,0,0:0:0:0:
228,264,22959,2,0,L|208:180,1,85
452,316,23259,2,0,L|460:216,1,85
160,168,23559,5,0,0:0:0:0:
416,128,23709,1,0,0:0:0:0:
456,120,23784,1,0,0:0:0:0:
496,112,23859,1,0,0:0:0:0:
232,96,24009,2,0,L|260:8,1,85
412,124,24309,1,0,0:0:0:0:
128,108,24459,2,0,L|240:88,1,85
472,192,24759,2,0,L|492:100,1,85
216,212,25059,2,0,L|120:192,1,85
408,240,25359,5,0,0:0:0:0:
456,208,25434,1,0,0:0:0:0:
464,152,25509,1,0,0:0:0:0:
456,208,25584,1,0,0:0:0:0:
408,240,25659,1,0,0:0:0:0:
168,204,25809,2,0,L|280:192,2,85
432,76,26259,2,0,L|440:160,1,85
176,152,26559,2,0,L|168:236,1,85
412,240,26859,1,0,0:0:0:0:
324,260,27009,1,0,0:0:0:0:
44,184,27159,5,0,0:0:0:0:
436,92,27309,2,0,P|488:136|404:188,1,170
272,152,27759,2,0,L|168:144,2,85
120,220,28209,1,0,0:0:0:0:
36,208,28359,1,0,0:0:0:0:
304,276,28509,5,0,0:0:0:0:
316,236,28584,1,0,0:0:0:0:
184,200,28659,1,0,0:0:0:0:
136,164,28734,1,0,0:0:0:0:
140,112,28809,1,0,0:0:0:0:
184,84,28884,1,0,0:0:0:0:
240,80,28959,6,0,P|312:100|320:192,1,170
192,220,29612,2,0,L|376:188,1,170
212,144,30416,1,0,0:0:0:0:
412,128,30916,1,0,0:0:0:0:
216,224,31916,6,0,P|216:180|328:128,2,170
464,140,32816,1,0,0:0:0:0:
228,248,33716,6,0,P|188:184|232:104,1,170
316,168,34166,1,0,0:0:0:0:
148,312,34316,2,0,L|128:140,1,170
344,248,35216,2,0,P|360:208|356:160,1,85
224,140,35516,6,0,L|404:124,2,170
344,192,36416,2,0,L|164:176,2,170
224,112,37316,6,0,P|320:88|336:16,2,170
96,112,38216,1,0,0:0:0:0:
352,72,38516,2,0,B|400:140|400:140|340:208,1,170
168,200,39116,6,0,P|168:156|56:104,2,170
448,160,40016,1,0,0:0:0:0:
156,288,40916,6,0,B|124:172|124:172|148:108,1,170
228,128,41366,1,0,0:0:0:0:
324,164,41516,2,0,L|208:164,1,85
80,144,41816,1,0,0:0:0:0:
224,224,42416,2,0,L|132:216,1,85
288,128,42716,6,0,L|468:112,2,170
408,188,43616,2,0,L|228:172,2,170
280,224,44516,2,0,P|344:128|324:84,1,170
180,80,45116,1,0,0:0:0:0:
312,236,45416,1,0,0:0:0:0:
351,221,45491,1,0,0:0:0:0:
375,187,45566,1,0,0:0:0:0:
374,145,45641,1,0,0:0:0:0:
350,111,45716,1,0,0:0:0:0:
310,97,45791,1,0,0:0:0:0:
152,84,45866,5,0,0:0:0:0:
144,40,45941,1,0,0:0:0:0:
304,40,46016,1,0,0:0:0:0:
48,24,46166,1,0,0:0:0:0:
368,208,46316,6,0,P|424:152|368:92,1,170
224,160,46766,1,0,0:0:0:0:
176,156,46841,1,0,0:0:0:0:
128,152,46916,2,0,L|16:140,1,85
332,72,47216,1,0,0:0:0:0:
224,40,47366,2,0,P|180:108|228:184,1,170
432,48,47816,2,0,L|332:60,1,85
72,156,48116,5,0,0:0:0:0:
24,144,48216,1,0,0:0:0:0:
72,156,48316,1,0,0:0:0:0:
232,232,48416,2,0,L|320:224,1,85
164,144,48716,1,0,0:0:0:0:
72,128,48866,1,0,0:0:0:0:
332,80,49016,1,0,0:0:0:0:
380,72,49091,1,0,0:0:0:0:
428,64,49166,1,0,0:0:0:0:
264,148,49316,2,0,L|176:144,2,85
352,124,49766,1,0,0:0:0:0:
128,256,49916,5,0,0:0:0:0:
80,248,50016,1,0,0:0:0:0:
128,256,50116,1,0,0:0:0:0:
296,156,50216,2,0,L|120:160,1,170
200,68,50666,1,0,0:0:0:0:
456,64,50816,2,0,P|448:152|360:160,1,170
296,156,51266,1,0,0:0:0:0:
48,104,51416,2,0,L|136:100,1,85
416,200,51716,5,0,0:0:0:0:
464,192,51816,1,0,0:0:0:0:
416,200,51916,1,0,0:0:0:0:
248,132,52016,2,0,L|136:128,1,85
328,280,52316,2,0,L|444:284,1,85
156,192,52616,1,0,0:0:0:0:
108,188,52691,1,0,0:0:0:0:
60,184,52766,1,0,0:0:0:0:
216,144,52916,2,0,L|324:132,1,85
394,134,53216,1,0,0:0:0:0:
99,78,53366,1,0,0:0:0:0:
416,40,53516,6,0,P|468:92|408:152,1,170
328,156,53966,1,0,0:0:0:0:
168,100,54116,2,0,L|284:88,1,85
344,88,54416,1,0,0:0:0:0:
92,216,54566,2,0,L|272:208,1,170
500,104,55016,2,0,L|396:100,1,85
152,128,55316,5,0,0:0:0:0:
104,120,55416,1,0,0:0:0:0:
152,128,55516,1,0,0:0:0:0:
312,188,55616,2,0,L|408:196,1,85
152,256,55916,1,0,0:0:0:0:
56,244,56066,1,0,0:0:0:0:
312,188,56216,2,0,L|208:180,1,85
64,208,56516,2,0,L|156:200,1,85
424,160,56816,1,0,0:0:0:0:
460,56,56966,1,0,0:0:0:0:
184,208,57116,5,0,0:0:0:0:
136,200,57216,1,0,0:0:0:0:
184,208,57316,1,0,0:0:0:0:
352,140,57416,2,0,L|232:136,1,85
112,136,57716,2,0,L|128:32,1,85
408,180,58016,1,0,0:0:0:0:
312,168,58166,1,0,0:0:0:0:
56,240,58316,2,0,L|152:224,1,85
292,280,58616,2,0,L|192:272,1,85
448,152,58916,5,0,0:0:0:0:
496,184,59016,1,0,0:0:0:0:
448,152,59116,1,0,0:0:0:0:
288,160,59216,2,0,L|388:168,1,85
84,240,59516,2,0,L|76:144,1,85
368,304,59816,2,0,L|380:200,1,85
88,268,60116,2,0,L|196:252,1,85
472,176,60416,2,0,L|376:164,1,85
48,192,60716,5,0,0:0:0:0:
424,208,61616,1,0,0:0:0:0:
268,276,61916,1,0,0:0:0:0:
232,240,62016,1,0,0:0:0:0:
236,188,62116,1,0,0:0:0:0:
276,156,62216,2,0,L|368:152,1,85
404,152,62441,1,0,0:0:0:0:
220,80,62516,6,0,L|32:68,1,170
308,192,62966,2,0,L|420:184,1,85
240,132,63266,1,0,0:0:0:0:
392,76,63416,2,0,L|308:69,1,85
52,224,63716,2,0,L|44:124,1,85
280,308,64016,2,0,L|176:296,1,85
436,144,64316,6,0,P|484:188|416:240,1,170
152,136,64766,2,0,L|272:124,2,85
312,200,65216,2,0,L|404:192,1,85
88,240,65516,2,0,L|192:228,1,85
448,276,65816,2,0,L|344:264,1,85
96,296,66116,6,0,P|56:256|124:176,1,170
432,112,66566,1,0,0:0:0:0:
292,184,66716,2,0,L|396:176,1,85
120,212,67016,2,0,L|20:200,1,85
292,296,67316,2,0,L|392:288,1,85
108,204,67616,1,0,0:0:0:0:
84,108,67766,1,0,0:0:0:0:
388,72,67916,5,0,0:0:0:0:
436,68,67991,1,0,0:0:0:0:
484,60,68066,2,0,L|304:28,1,170
64,200,68516,2,0,L|188:188,1,85
408,104,68816,2,0,P|464:144|400:196,1,170
140,108,69266,2,0,L|48:100,2,85
376,128,69716,6,0,P|404:192|336:264,1,170
104,188,70166,1,0,0:0:0:0:
232,152,70316,2,0,L|128:140,1,85
392,144,70616,2,0,P|470:165|480:245,1,170
396,248,71066,1,0,0:0:0:0:
144,192,71216,1,0,0:0:0:0:
32,168,71366,1,0,0:0:0:0:
336,124,71516,6,0,L|136:108,1,170
412,224,71966,2,0,L|504:216,2,85
124,216,72416,2,0,L|116:112,1,85
372,292,72716,2,0,L|384:192,1,85
72,144,73016,2,0,L|160:136,1,85
464,200,73316,6,0,P|448:256|320:260,2,170
72,172,74216,2,0,L|64:80,1,85
312,280,74516,2,0,L|320:188,1,85
60,224,74816,2,0,L|52:132,1,85
400,104,75116,5,0,0:0:0:0:
316,216,81416,6,0,L|328:96,1,85
284,104,81641,1,0,0:0:0:0:
184,88,81716,1,0,0:0:0:0:
188,132,81791,1,0,0:0:0:0:
328,180,81866,1,0,0:0:0:0:
364,208,81941,1,0,0:0:0:0:
368,256,82016,1,0,0:0:0:0:
340,292,82091,1,0,0:0:0:0:
184,288,82166,1,0,0:0:0:0:
136,280,82241,1,0,0:0:0:0:
296,176,82316,6,0,L|484:164,1,170
388,108,82766,1,0,0:0:0:0:
108,200,82916,2,0,L|100:84,1,85
360,156,83216,1,0,0:0:0:0:
420,144,83316,1,0,0:0:0:0:
360,156,83416,1,0,0:0:0:0:
192,176,83516,2,0,L|84:164,1,85
360,256,83816,2,0,L|472:244,1,85
104,248,84116,6,0,P|56:232|124:156,1,170
328,120,84566,1,0,0:0:0:0:
368,116,84641,1,0,0:0:0:0:
216,88,84716,2,0,L|96:68,1,85
400,224,85016,2,0,L|412:116,1,85
268,348,85316,2,0,L|176:332,1,85
480,156,85616,1,0,0:0:0:0:
388,128,85766,1,0,0:0:0:0:
116,220,85916,6,0,P|112:156|208:124,1,170
100,76,86366,1,0,0:0:0:0:
376,208,86516,2,0,L|488:184,1,85
180,180,86816,2,0,L|170:82,1,85
435,325,87116,2,0,L|481:242,1,85
233,235,87416,2,0,L|357:219,1,85
56,190,87716,6,0,P|10:141|75:80,1,170
362,246,88166,2,0,L|462:250,2,85
98,209,88616,2,0,L|202:200,1,85
419,178,88916,1,0,0:0:0:0:
276,194,89066,1,0,0:0:0:0:
260,150,89141,1,0,0:0:0:0:
425,135,89216,1,0,0:0:0:0:
472,126,89291,1,0,0:0:0:0:
304,111,89366,1,0,0:0:0:0:
258,104,89441,1,0,0:0:0:0:
433,76,89516,5,0,0:0:0:0:
113,69,89666,2,0,P|61:139|129:176,1,170
367,212,90116,2,0,L|458:210,1,85
200,136,90416,1,0,0:0:0:0:
264,128,90516,1,0,0:0:0:0:
200,136,90616,1,0,0:0:0:0:
368,96,90716,2,0,L|480:104,1,85
192,232,91016,2,0,L|176:120,1,85
456,160,91316,5,0,0:0:0:0:
144,168,91466,2,0,P|136:104|224:72,1,170
376,208,91916,2,0,L|488:216,1,85
192,280,92216,2,0,L|184:184,1,85
440,184,92516,2,0,L|448:88,1,85
176,128,92816,1,0,0:0:0:0:
296,112,92966,1,0,0:0:0:0:
32,248,93116,6,0,L|216:232,1,170
456,152,93566,2,0,L|344:144,2,85
216,208,94016,1,0,0:0:0:0:
168,200,94091,1,0,0:0:0:0:
120,192,94166,1,0,0:0:0:0:
368,128,94316,1,0,0:0:0:0:
456,112,94466,1,0,0:0:0:0:
192,112,94616,2,0,L|120:40,1,85
416,104,94916,5,0,0:0:0:0:
160,168,95066,2,0,P|104:176|72:288,1,170
328,256,95516,2,0,L|416:240,1,85
136,168,95816,2,0,L|256:152,2,85
272,248,96266,1,0,0:0:0:0:
248,208,96341,1,0,0:0:0:0:
96,208,96416,1,0,0:0:0:0:
144,192,96491,1,0,0:0:0:0:
320,176,96566,1,0,0:0:0:0:
272,160,96641,1,0,0:0:0:0:
80,152,96716,5,0,0:0:0:0:
367,102,96866,2,0,P|419:172|351:209,1,170
112,184,97316,2,0,L|200:176,1,85
448,232,97616,1,0,0:0:0:0:
384,224,97716,1,0,0:0:0:0:
448,232,97816,1,0,0:0:0:0:
272,288,97916,2,0,L|160:296,1,85
432,216,98216,2,0,L|448:104,1,85
160,120,98516,5,0,0:0:0:0:
456,120,98666,2,0,P|464:56|376:24,1,170
216,192,99116,2,0,L|120:184,1,85
408,192,99416,2,0,L|416:96,1,85
160,288,99716,2,0,L|152:192,1,85
400,160,100016,1,0,0:0:0:0:
504,136,100166,1,0,0:0:0:0:
232,216,100316,6,0,P|328:160|400:184,1,170
128,248,100766,2,0,L|16:240,2,85
400,192,101216,2,0,L|496:184,1,85
208,248,101516,2,0,L|176:160,1,85
456,248,101816,2,0,L|352:232,1,85
96,256,102116,5,0,0:0:0:0:
232,176,102266,2,0,L|128:184,1,85
400,272,102566,2,0,L|424:168,1,85
168,144,102866,1,0,0:0:0:0:
272,96,103016,2,0,L|392:80,2,85
112,232,103466,1,0,0:0:0:0:
72,216,103541,1,0,0:0:0:0:
232,216,103616,1,0,0:0:0:0:
280,208,103691,1,0,0:0:0:0:
432,304,103766,1,0,0:0:0:0:
440,256,103841,1,0,0:0:0:0:
240,160,103916,5,0,0:0:0:0:
488,128,104066,2,0,P|472:72|368:48,1,170
120,176,104516,2,0,L|216:168,1,85
472,224,104816,1,0,0:0:0:0:
408,216,104916,1,0,0:0:0:0:
472,224,105016,1,0,0:0:0:0:
296,272,105116,2,0,L|184:280,1,85
480,256,105416,2,0,L|384:248,1,85
112,264,105716,5,0,0:0:0:0:
408,208,105866,2,0,P|464:160|392:128,1,170
152,96,106316,2,0,L|56:104,1,85
336,312,106616,2,0,L|344:227,1,85
96,200,106916,2,0,L|88:104,1,85
352,168,107216,1,0,0:0:0:0:
472,144,107366,1,0,0:0:0:0:
176,248,107516,6,0,P|104:240|80:152,1,170
336,120,107966,2,0,L|224:112,2,85
72,280,108416,1,0,0:0:0:0:
56,240,108491,1,0,0:0:0:0:
72,280,108566,1,0,0:0:0:0:
352,176,108716,1,0,0:0:0:0:
464,160,108866,1,0,0:0:0:0:
160,128,109016,2,0,L|136:32,1,85
416,152,109316,5,0,0:0:0:0:
112,184,109466,2,0,P|48:232|128:256,1,170
360,248,109916,2,0,L|464:248,1,85
168,200,110216,2,0,L|288:184,2,85
328,304,110666,1,0,0:0:0:0:
344,256,110741,1,0,0:0:0:0:
184,240,110816,1,0,0:0:0:0:
136,232,110891,1,0,0:0:0:0:
312,216,110966,1,0,0:0:0:0:
360,208,111041,1,0,0:0:0:0:
184,152,111116,5,0,0:0:0:0:
456,104,111266,2,0,P|440:48|312:48,1,170
48,248,111716,2,0,L|133:246,1,85
384,264,112016,1,0,0:0:0:0:
320,256,112116,1,0,0:0:0:0:
384,264,112216,1,0,0:0:0:0:
200,312,112316,2,0,L|112:288,1,85
408,288,112616,2,0,L|504:256,1,85
160,184,112916,5,0,0:0:0:0:
480,152,113066,2,0,P|488:88|400:56,1,170
136,136,113516,2,0,L|24:144,1,85
320,280,113816,2,0,L|432:272,1,85
136,200,114116,2,0,L|248:192,1,85
480,192,114416,1,0,0:0:0:0:
384,168,114566,1,0,0:0:0:0:
96,248,114716,6,0,P|48:176|112:136,1,170
368,192,115166,2,0,L|480:184,2,85
96,168,115616,2,0,L|80:72,1,85
376,232,115916,2,0,L|264:216,1,85
48,216,116216,2,0,L|152:200,1,85
432,160,116516,6,0,L|336:152,2,85
152,248,116966,2,0,L|56:240,1,85
384,160,117266,1,0,0:0:0:0:
32,104,117416,1,0,0:0:0:0:
