osu file format v14

[General]
AudioFilename: audio.mp3
AudioLeadIn: 0
PreviewTime: 89516
Countdown: 1
SampleSet: Soft
StackLeniency: 0.7
Mode: 2
LetterboxInBreaks: 0
WidescreenStoryboard: 1

[Editor]
Bookmarks: 159,14559,31916,46316,60716,75116,81416,89516,103916,117416
DistanceSpacing: 1.1
BeatDivisor: 4
GridSize: 8
TimelineZoom: 1

[Metadata]
Title:Byakuya Gensoutan
TitleUnicode:白夜幻想譚
Artist:Shimotsuki Haruka
ArtistUnicode:霜月はるか
Creator:celerih
Version:Cup
Source:イリスのアトリエ エターナルマナ
Tags:JeirYagtama Atelier Iris Eternal Mana
BeatmapID:1517361
BeatmapSetID:717226

[Difficulty]
HPDrainRate:2
CircleSize:2.5
OverallDifficulty:6
ApproachRate:6
SliderMultiplier:0.999999999999999
SliderTickRate:1

[Events]
//Background and Video events
0,0,"Byakuya BG.jpg",0,0
//Break Periods
//Storyboard Layer 0 (Background)
//Storyboard Layer 1 (Fail)
//Storyboard Layer 2 (Pass)
//Storyboard Layer 3 (Foreground)
//Storyboard Sound Samples

[TimingPoints]
159,300,6,2,1,40,1,0
28959,320,6,2,1,40,1,0
29279,333.333333333333,6,2,1,40,1,0
29612,380.952380952381,6,2,1,40,1,0
29992,424.778761061947,6,2,1,40,1,0
30416,500,6,2,1,40,1,0
31916,300,6,2,1,40,1,0
89516,-100,6,2,1,40,0,1
103016,-100,6,2,1,40,0,0
103916,-100,6,2,1,40,0,1
117416,-100,6,2,1,40,0,0

[HitObjects]
192,176,159,5,0,0:0:0:0:
312,160,609,1,0,0:0:0:0:
208,80,1059,2,0,L|96:72,2,99.9999999999999
192,176,1959,5,0,0:0:0:0:
312,160,2409,1,0,0:0:0:0:
208,80,2859,2,0,L|96:72,2,99.9999999999999
224,264,3759,2,0,L|208:144,1,99.9999999999999
264,88,4209,1,0,0:0:0:0:
136,96,4659,2,0,L|72:16,2,99.9999999999999
280,248,5559,2,0,P|312:240|248:144,1,200
192,96,6459,1,0,0:0:0:0:
168,256,6759,2,0,P|136:168|120:152,1,99.9999999999999
192,184,7359,2,0,L|184:112,1,50
280,216,7809,2,0,L|288:160,1,50
152,104,8259,2,0,L|272:88,2,99.9999999999999
192,184,9159,2,0,L|184:112,1,50
280,216,9609,2,0,L|288:160,1,50
152,104,10059,2,0,L|272:88,2,99.9999999999999
192,184,10959,2,0,L|184:112,1,50
280,216,11409,2,0,L|288:160,1,50
152,104,11859,2,0,L|272:88,2,99.9999999999999
192,184,12759,2,0,L|184:112,1,50
280,216,13209,2,0,L|288:160,1,50
152,104,13659,2,0,L|272:88,1,99.9999999999999
128,240,14259,2,0,L|128:176,1,50
208,168,14559,2,0,P|296:152|296:96,1,150
128,136,15459,2,0,L|112:16,1,99.9999999999999
200,80,16059,1,0,0:0:0:0:
288,144,16359,1,0,0:0:0:0:
288,144,16509,2,0,L|120:136,1,150
128,216,17259,2,0,L|240:200,1,99.9999999999999
280,128,17859,1,0,0:0:0:0:
168,224,18159,2,0,P|112:176|144:120,1,150
216,144,19059,2,0,L|328:128,1,99.9999999999999
104,96,19659,1,0,0:0:0:0:
240,160,19959,2,0,L|88:152,2,150
312,184,21159,1,0,0:0:0:0:
384,88,21459,1,0,0:0:0:0:
248,88,21759,2,0,L|96:80,2,150
344,136,22959,2,0,L|240:128,1,99.9999999999999
264,88,23559,2,0,L|416:80,2,150
168,136,24759,2,0,L|272:128,1,99.9999999999999
213,249,25359,2,0,L|203:82,1,150
211,166,26259,2,0,L|109:158,1,99.9999999999999
59,165,26859,2,0,L|48:99,1,50
205,198,27159,2,0,P|248:186|188:100,1,200
104,190,28059,2,0,L|224:180,1,99.9999999999999
229,141,28659,1,0,0:0:0:0:
332,236,28959,2,0,L|216:228,1,99.9999999999999
102,224,29612,2,0,L|207:205,1,99.9999999999999
254,140,30416,1,0,0:0:0:0:
114,128,30916,1,0,0:0:0:0:
177,257,31916,2,0,L|146:51,1,200
174,153,32816,1,0,0:0:0:0:
177,257,33716,2,0,L|146:51,1,200
174,153,34616,1,0,0:0:0:0:
239,172,35516,2,0,L|120:164,2,99.9999999999999
239,172,36416,2,0,L|120:164,2,99.9999999999999
239,172,37316,2,0,L|120:164,2,99.9999999999999
239,172,38216,2,0,L|120:164,2,99.9999999999999
177,257,39116,2,0,L|146:51,1,200
174,153,40016,1,0,0:0:0:0:
177,257,40916,2,0,L|146:51,1,200
174,153,41816,1,0,0:0:0:0:
239,172,42716,2,0,L|120:164,2,99.9999999999999
239,172,43616,2,0,L|120:164,2,99.9999999999999
239,172,44516,2,0,L|120:164,2,99.9999999999999
197,238,45416,2,0,L|172:124,1,99.9999999999999
215,77,45866,2,0,L|277:73,2,50
