osu file format v14

[General]
AudioFilename: audio.mp3
AudioLeadIn: 0
PreviewTime: 89516
Countdown: 0
SampleSet: Soft
StackLeniency: 0.7
Mode: 0
LetterboxInBreaks: 0
WidescreenStoryboard: 1

[Editor]
Bookmarks: 14559,46316,60716,82316
DistanceSpacing: 0.9
BeatDivisor: 4
GridSize: 4
TimelineZoom: 1.8

[Metadata]
Title:Byakuya Gensoutan
TitleUnicode:白夜幻想譚
Artist:Shimotsuki Haruka
ArtistUnicode:霜月はるか
Creator:Chaoslitz
Version:yf's Expert
Source:イリスのアトリエ エターナルマナ
Tags:Atelier Iris Eternal Mana Pending cup #5 Suzuki_1112 Kibbleru yf_bmp Gust 1112deng Irreversible Gaia sahuang Pata-Mon
BeatmapID:1415403
BeatmapSetID:667097

[Difficulty]
HPDrainRate:5
CircleSize:4.5
OverallDifficulty:8
ApproachRate:9.3
SliderMultiplier:1.7
SliderTickRate:1

[Events]
//Background and Video events
0,0,"bg.jpg",0,0
//Break Periods
//Storyboard Layer 0 (Background)
//Storyboard Layer 1 (Fail)
//Storyboard Layer 2 (Pass)
//Storyboard Layer 3 (Foreground)
//Storyboard Sound Samples

[TimingPoints]
159,300,6,2,1,70,1,0
1059,-66.6666666666667,6,2,1,70,0,0
1284,-66.6666666666667,6,2,1,5,0,0
1359,-66.6666666666667,6,2,1,70,0,0
1584,-66.6666666666667,6,2,1,5,0,0
1659,-66.6666666666667,6,2,1,70,0,0
1884,-66.6666666666667,6,2,1,5,0,0
1959,-66.6666666666667,6,2,1,70,0,0
2409,-100,6,2,1,70,0,0
2859,-66.6666666666667,6,2,1,70,0,0
3084,-66.6666666666667,6,2,1,5,0,0
3159,-66.6666666666667,6,2,1,70,0,0
3384,-66.6666666666667,6,2,1,5,0,0
3459,-66.6666666666667,6,2,1,70,0,0
3684,-66.6666666666667,6,2,1,5,0,0
3759,-100,6,2,10,70,0,0
3909,-100,6,2,1,70,0,0
4659,-66.6666666666667,6,2,1,70,0,0
4884,-66.6666666666667,6,2,1,5,0,0
4959,-66.6666666666667,6,2,1,70,0,0
5184,-66.6666666666667,6,2,1,5,0,0
5259,-66.6666666666667,6,2,1,70,0,0
5484,-66.6666666666667,6,2,1,5,0,0
5559,-66.6666666666667,6,2,1,60,0,0
7359,-66.6666666666667,6,2,1,70,0,0
7959,-55.5555555555556,6,2,1,70,0,0
8259,-66.6666666666667,6,2,1,70,0,0
8559,-83.3333333333333,6,2,1,70,0,0
8859,-100,6,2,1,70,0,0
9159,-66.6666666666667,6,2,1,70,0,0
9759,-133.333333333333,6,2,10,70,0,0
10059,-66.6666666666667,6,2,1,70,0,0
10359,-90.9090909090909,6,2,1,70,0,0
11259,-66.6666666666667,6,2,1,70,0,0
11559,-55.5555555555556,6,2,1,70,0,0
11859,-66.6666666666667,6,2,1,70,0,0
12159,-83.3333333333333,6,2,1,70,0,0
12459,-100,6,2,1,70,0,0
12759,-66.6666666666667,6,2,1,70,0,0
14259,-50,6,2,11,85,0,0
14559,-83.3333333333333,6,2,2,80,0,0
16359,-66.6666666666667,6,2,2,80,0,0
16659,-50,6,2,2,80,0,0
16809,-66.6666666666667,6,2,2,80,0,0
17259,-100,6,2,2,80,0,0
17559,-66.6666666666667,6,2,2,80,0,0
18159,-83.3333333333333,6,2,2,80,0,0
19959,-66.6666666666667,6,2,2,80,0,0
20859,-100,6,2,2,80,0,0
21159,-66.6666666666667,6,2,2,80,0,0
21759,-83.3333333333333,6,2,3,85,0,0
21777,-83.3333333333333,6,2,2,85,0,0
23559,-100,6,2,2,85,0,0
24009,-83.3333333333333,6,2,2,85,0,0
24459,-83.3333333333333,6,2,2,85,0,0
24759,-66.6666666666667,6,2,2,85,0,0
25359,-83.3333333333333,6,2,2,85,0,0
27159,-66.6666666666667,6,2,2,85,0,0
28059,-66.6666666666667,6,2,2,65,0,0
28359,-83.3333333333333,6,2,2,85,0,0
28959,320,6,2,2,70,1,0
29279,333.333333333333,6,2,31,40,1,0
29612,380.952380952381,6,2,32,35,1,0
29992,424.778761061947,6,2,33,30,1,0
30416,500,6,2,34,25,1,0
30916,-100,6,2,35,15,0,0
31916,300,6,2,2,50,1,0
32141,-100,6,2,2,5,0,0
32216,-133.333333333333,6,2,2,50,0,0
32441,-133.333333333333,6,2,2,5,0,0
32516,-200,6,2,2,50,0,0
32741,-200,6,2,2,5,0,0
32816,-200,6,2,2,50,0,0
33716,-133.333333333333,6,2,2,50,0,0
34316,-113.636363636364,6,2,2,50,0,0
34466,-113.636363636364,6,2,2,5,0,0
34616,-100,6,2,2,50,0,0
34766,-100,6,2,2,5,0,0
35216,-100,6,2,2,50,0,0
35741,-100,6,2,2,5,0,0
35816,-133.333333333333,6,2,2,50,0,0
36041,-133.333333333333,6,2,2,5,0,0
36116,-200,6,2,2,50,0,0
36341,-200,6,2,2,5,0,0
36416,-200,6,2,2,50,0,0
37016,-200,6,2,2,50,0,0
37241,-200,6,2,2,5,0,0
37316,-200,6,2,2,50,0,0
37541,-200,6,2,2,5,0,0
37616,-133.333333333333,6,2,2,50,0,0
37841,-133.333333333333,6,2,2,5,0,0
37916,-100,6,2,2,50,0,0
38141,-100,6,2,2,5,0,0
38216,-100,6,2,2,50,0,0
38441,-100,6,2,2,5,0,0
38516,-133.333333333333,6,2,2,50,0,0
38741,-133.333333333333,6,2,2,5,0,0
38816,-200,6,2,2,50,0,0
39041,-200,6,2,2,5,0,0
39116,-100,6,2,2,50,0,0
39266,-100,6,2,2,5,0,0
39716,-100,6,2,2,50,0,0
39941,-100,6,2,2,5,0,0
40016,-133.333333333333,6,2,2,50,0,0
40316,-133.333333333333,6,2,2,5,0,0
40616,-133.333333333333,6,2,2,50,0,0
40766,-133.333333333333,6,2,2,5,0,0
40916,-100,6,2,2,50,0,0
41141,-100,6,2,2,5,0,0
41216,-100,6,2,2,50,0,0
41816,-133.333333333333,6,2,2,50,0,0
42266,-133.333333333333,6,2,2,5,0,0
42416,-133.333333333333,6,2,2,50,0,0
42716,-200,6,2,2,50,0,0
42941,-200,6,2,2,5,0,0
43016,-133.333333333333,6,2,2,50,0,0
43241,-133.333333333333,6,2,2,5,0,0
43316,-100,6,2,2,50,0,0
43541,-100,6,2,2,5,0,0
43616,-100,6,2,2,50,0,0
43841,-100,6,2,2,5,0,0
43916,-133.333333333333,6,2,2,50,0,0
44141,-133.333333333333,6,2,2,5,0,0
44216,-200,6,2,2,50,0,0
44441,-200,6,2,2,5,0,0
44516,-200,6,2,2,50,0,0
44741,-200,6,2,2,5,0,0
44816,-133.333333333333,6,2,2,50,0,0
45041,-133.333333333333,6,2,2,5,0,0
45116,-100,6,2,1,50,0,0
45341,-100,6,2,1,5,0,0
45416,-100,6,2,1,60,0,0
45566,-100,6,2,2,60,0,0
45716,-90.9090909090909,6,2,1,60,0,0
46316,-83.3333333333333,6,2,2,70,0,0
46616,-83.3333333333333,6,2,0,40,0,0
46766,-83.3333333333333,6,2,2,70,0,0
46916,-83.3333333333333,6,2,0,40,0,0
47066,-83.3333333333333,6,2,2,70,0,0
47216,-66.6666666666667,6,2,2,70,0,0
47366,-100,6,2,2,70,0,0
47816,-133.333333333333,6,2,2,70,0,0
48116,-105.263157894737,6,2,2,70,0,0
48416,-83.3333333333333,6,2,2,70,0,0
49016,-66.6666666666667,6,2,2,70,0,0
49166,-100,6,2,2,70,0,0
51116,-83.3333333333333,6,2,2,70,0,0
51416,-66.6666666666667,6,2,2,70,0,0
51716,-100,6,2,2,70,0,0
52016,-83.3333333333333,6,2,2,70,0,0
52316,-100,6,2,2,70,0,0
52616,-66.6666666666667,6,2,2,70,0,0
52766,-100,6,2,2,70,0,0
52916,-133.333333333333,6,2,2,70,0,0
53066,-200,6,2,2,70,0,0
53216,-83.3333333333333,6,2,2,70,0,0
53816,-83.3333333333333,6,2,0,40,0,0
53966,-83.3333333333333,6,2,2,70,0,0
54116,-83.3333333333333,6,2,0,40,0,0
54266,-83.3333333333333,6,2,2,70,0,0
54416,-66.6666666666667,6,2,2,70,0,0
54566,-100,6,2,2,70,0,0
55016,-133.333333333333,6,2,2,70,0,0
55316,-83.3333333333333,6,2,2,70,0,0
55391,-83.3333333333333,6,2,2,50,0,0
55616,-83.3333333333333,6,2,2,70,0,0
57116,-100,6,2,2,70,0,0
58016,-66.6666666666667,6,2,2,70,0,0
58166,-100,6,2,2,70,0,0
58616,-66.6666666666667,6,2,2,70,0,0
58916,-100,6,2,2,70,0,0
59216,-83.3333333333333,6,2,2,70,0,0
59516,-100,6,2,20,70,0,0
59591,-100,6,2,0,5,0,0
59666,-100,6,2,20,70,0,0
59741,-100,6,2,0,5,0,0
59816,-66.6666666666667,6,2,21,75,0,0
59966,-100,6,2,21,75,0,0
60116,-133.333333333333,6,2,20,70,0,0
60266,-200,6,2,20,70,0,0
60416,-200,6,2,22,65,0,0
60566,-200,6,2,24,65,0,0
60716,-100,6,2,23,60,0,0
61616,-66.6666666666667,6,2,2,60,0,0
61916,-66.6666666666667,6,2,2,60,0,0
62216,-66.6666666666667,6,2,2,50,0,0
62366,-66.6666666666667,6,2,2,40,0,0
62516,-100,6,2,2,30,0,0
62666,-100,6,2,2,20,0,0
62816,-100,6,2,2,10,0,0
62966,-100,6,2,2,70,0,0
64016,-149.253731343284,6,2,2,70,0,0
64316,-76.9230769230769,6,2,2,30,0,0
64616,-100,6,2,2,20,0,0
64766,-100,6,2,3,70,0,0
65066,-100,6,2,2,70,0,0
65516,-100,6,2,3,70,0,0
65816,-100,6,2,2,70,0,0
66566,-100,6,2,3,70,0,0
66716,-100,6,2,2,70,0,0
67016,-83.3333333333333,6,2,2,70,0,0
67316,-71.4285714285714,6,2,2,70,0,0
67616,-100,6,2,2,70,0,0
67916,-83.3333333333333,6,2,2,70,0,0
69116,-83.3333333333333,6,2,3,70,0,0
69266,-83.3333333333333,6,2,2,70,0,0
69416,-100,6,2,2,70,0,0
69566,-100,6,2,2,70,0,0
69716,-76.9230769230769,6,2,2,50,0,0
70016,-100,6,2,2,40,0,0
70166,-100,6,2,2,70,0,0
70316,-100,6,2,2,70,0,0
71516,-76.9230769230769,6,2,2,50,0,0
71816,-100,6,2,2,20,0,0
71966,-100,6,2,2,70,0,0
72116,-100,6,2,2,50,0,0
72266,-100,6,2,2,70,0,0
72716,-100,6,2,3,70,0,0
72866,-100,6,2,2,70,0,0
73316,-100,6,2,2,80,0,0
73616,-133.333333333333,6,2,2,80,0,0
73916,-100,6,2,2,80,0,0
74216,-83.3333333333333,6,2,2,80,0,0
74366,-83.3333333333333,6,2,2,75,0,0
74516,-71.4285714285714,6,2,2,70,0,0
74666,-71.4285714285714,6,2,2,65,0,0
74816,-62.5,6,2,2,60,0,0
75116,-200,6,2,2,40,0,0
80516,-200,6,2,2,50,0,0
80741,-200,6,2,2,5,0,0
80816,-100,6,2,2,50,0,0
81341,-100,6,2,2,5,0,0
81416,-83.3333333333333,6,2,2,40,0,0
81716,-83.3333333333333,6,2,1,85,0,0
81866,-83.3333333333333,6,2,2,55,0,0
82316,-66.6666666666667,6,2,2,70,0,1
82541,-66.6666666666667,6,2,2,5,0,1
82616,-66.6666666666667,6,2,2,70,0,1
82841,-66.6666666666667,6,2,2,5,0,1
82916,-133.333333333333,6,2,2,70,0,1
83141,-133.333333333333,6,2,2,5,0,1
83216,-90.9090909090909,6,2,2,70,0,1
84716,-90.9090909090909,6,2,10,70,0,1
85016,-66.6666666666667,6,2,2,70,0,1
85241,-66.6666666666667,6,2,2,5,0,1
85316,-66.6666666666667,6,2,2,70,0,1
85541,-66.6666666666667,6,2,2,5,0,1
85616,-133.333333333333,6,2,2,70,0,1
85841,-133.333333333333,6,2,2,5,0,1
85916,-66.6666666666667,6,2,2,70,0,1
86141,-66.6666666666667,6,2,2,5,0,1
86216,-66.6666666666667,6,2,2,70,0,1
86441,-66.6666666666667,6,2,2,5,0,1
86516,-133.333333333333,6,2,2,70,0,1
86816,-90.9090909090909,6,2,2,70,0,1
87716,-133.333333333333,6,2,2,70,0,1
88016,-83.3333333333333,6,2,2,70,0,1
88316,-71.4285714285714,6,2,2,70,0,1
88616,-71.4285714285714,6,2,0,75,0,1
88766,-71.4285714285714,6,2,2,80,0,1
88916,-58.8235294117647,6,2,2,85,0,1
89066,-66.6666666666667,6,2,2,90,0,1
89216,-66.6666666666667,6,2,0,80,0,1
89366,-58.8235294117647,6,2,2,80,0,1
89441,-58.8235294117647,6,2,2,80,0,0
89516,-66.6666666666667,6,2,2,90,0,1
90116,-66.6666666666667,6,2,3,90,0,1
90266,-66.6666666666667,6,2,2,90,0,1
91016,-149.253731343284,6,2,2,90,0,1
91316,-66.6666666666667,6,2,2,90,0,1
91916,-66.6666666666667,6,2,3,90,0,1
92066,-66.6666666666667,6,2,2,90,0,1
92216,-100,6,2,3,90,0,1
92516,-66.6666666666667,6,2,3,90,0,1
92816,-100,6,2,2,90,0,1
93116,-83.3333333333333,6,2,2,90,0,0
93716,-83.3333333333333,6,2,3,90,0,0
94016,-83.3333333333333,6,2,2,90,0,0
94916,-66.6666666666667,6,2,2,90,0,0
95816,-100,6,2,2,90,0,0
96116,-76.9230769230769,6,2,2,90,0,0
96716,-66.6666666666667,6,2,2,90,0,1
97316,-66.6666666666667,6,2,3,90,0,1
97466,-66.6666666666667,6,2,2,90,0,1
98216,-149.253731343284,6,2,2,90,0,1
98516,-66.6666666666667,6,2,2,90,0,1
99116,-66.6666666666667,6,2,3,90,0,1
99266,-66.6666666666667,6,2,2,90,0,1
99416,-100,6,2,3,90,0,1
99716,-66.6666666666667,6,2,3,90,0,1
100016,-100,6,2,2,90,0,1
100316,-83.3333333333333,6,2,2,90,0,0
100916,-83.3333333333333,6,2,3,90,0,0
101066,-83.3333333333333,6,2,2,90,0,0
101516,-83.3333333333333,6,2,3,90,0,0
101666,-83.3333333333333,6,2,2,90,0,0
102116,-66.6666666666667,6,2,2,90,0,0
103016,-83.3333333333333,6,2,2,90,0,0
103466,-100,6,2,2,60,0,0
103616,-80,6,2,2,70,0,0
103766,-66.6666666666667,6,2,2,80,0,0
103916,-58.8235294117647,6,2,2,90,0,1
104516,-58.8235294117647,6,2,3,90,0,1
104666,-58.8235294117647,6,2,2,90,0,1
105416,-83.3333333333333,6,2,2,90,0,1
105716,-58.8235294117647,6,2,2,90,0,1
106316,-58.8235294117647,6,2,3,90,0,1
106466,-58.8235294117647,6,2,2,90,0,1
106616,-133.333333333333,6,2,3,80,0,1
106916,-58.8235294117647,6,2,3,90,0,1
107216,-58.8235294117647,6,2,2,90,0,1
107516,-83.3333333333333,6,2,2,90,0,0
108116,-83.3333333333333,6,2,3,90,0,0
108416,-83.3333333333333,6,2,2,90,0,0
109316,-66.6666666666667,6,2,2,90,0,0
110216,-100,6,2,2,90,0,0
110516,-76.9230769230769,6,2,2,90,0,0
111116,-58.8235294117647,6,2,2,90,0,1
111716,-58.8235294117647,6,2,3,90,0,1
111866,-58.8235294117647,6,2,2,90,0,1
113516,-58.8235294117647,6,2,3,90,0,1
113666,-58.8235294117647,6,2,2,90,0,1
113816,-133.333333333333,6,2,3,90,0,1
114116,-66.6666666666667,6,2,3,90,0,1
114416,-66.6666666666667,6,2,2,90,0,1
114716,-83.3333333333333,6,2,2,90,0,0
116516,-50,6,2,2,90,0,1
116666,-100,6,2,2,90,0,0
116966,-50,6,2,2,90,0,1
117116,-100,6,2,2,90,0,0
117266,-50,6,2,2,90,0,1
117341,-50,6,2,2,90,0,0
117416,-66.6666666666667,6,2,3,95,0,1
117491,-66.6666666666667,6,2,3,95,0,0

[Colours]
Combo1 : 231,148,248
Combo2 : 242,126,184
Combo3 : 252,155,84
Combo4 : 255,255,142
Combo5 : 143,242,130
Combo6 : 151,220,248

[HitObjects]
132,296,159,5,8,0:0:0:0:
172,102,309,1,2,0:0:0:0:
240,144,459,1,2,0:0:0:0:
92,120,609,6,0,L|8:106,1,85,8|0,0:0|0:0,0:0:0:0:
184,20,909,1,0,0:1:0:0:
68,224,1059,6,0,P|154:192|172:103,1,191.250007295609,8|0,0:0|0:0,0:0:0:0:
84,132,1359,2,0,P|153:191|239:161,1,191.250007295609,8|0,1:2|2:0,0:0:0:0:
172,102,1659,2,0,P|155:192|223:252,1,191.250007295609,8|0,1:2|0:0,0:0:0:0:
240,144,1959,5,8,0:2:0:0:
391,270,2109,1,2,0:0:0:0:
460,228,2259,1,2,0:2:0:0:
312,252,2409,6,0,L|228:265,1,85,8|0,0:0|0:3,0:0:0:0:
404,352,2709,1,2,0:0:0:0:
288,148,2859,6,0,P|374:180|392:269,1,191.250007295609,10|0,2:0|2:0,0:0:0:0:
304,240,3159,2,0,P|373:181|459:211,1,191.250007295609,8|0,1:2|2:0,0:0:0:0:
391,270,3459,2,0,P|374:180|442:120,1,191.250007295609,8|0,1:2|2:0,0:0:0:0:
460,228,3759,5,4,0:0:0:0:
404,352,3909,1,0,0:0:0:0:
312,252,4059,1,8,0:0:0:0:
472,308,4209,1,8,0:0:0:0:
324,332,4359,1,2,0:0:0:0:
256,192,4509,1,8,0:0:0:0:
243,287,4659,6,0,B|205:326|155:306|155:306|135:259|171:218,1,191.250007295609,2|0,1:3|2:0,0:0:0:0:
180,133,4959,2,0,B|166:80|208:46|208:46|258:53|276:104,1,191.250007295609,8|0,1:2|2:0,0:0:0:0:
343,159,5259,2,0,B|395:172|404:226|404:226|373:267|320:256,1,191.250007295609,8|0,1:2|2:0,0:0:0:0:
256,192,5559,5,8,0:0:0:0:
336,52,5709,1,0,1:0:0:0:
360,56,5784,1,0,1:0:0:0:
392,48,5859,1,0,1:0:0:0:
420,20,5934,1,0,1:0:0:0:
460,4,6009,1,0,1:0:0:0:
508,24,6084,1,0,1:0:0:0:
512,80,6159,6,0,P|476:96|444:72,1,63.7500024318696,0|0,1:0|1:0,0:0:0:0:
324,44,6309,6,0,P|324:24|332:8,1,31.8750012159348,0|0,1:0|1:0,0:0:0:0:
452,96,6459,2,0,P|469:106|479:120,1,31.8750012159348,0|0,1:0|1:0,0:0:0:0:
340,180,6609,2,0,P|322:190|304:191,1,31.8750012159348,0|0,1:0|1:0,0:0:0:0:
164,12,6759,5,0,1:0:0:0:
196,0,6859,1,2,1:3:0:0:
228,4,6959,1,0,1:0:0:0:
256,68,7059,5,2,1:3:0:0:
204,68,7159,1,2,1:3:0:0:
168,104,7259,1,2,1:3:0:0:
232,136,7359,5,8,0:0:0:0:
116,304,7509,1,2,0:2:0:0:
312,248,7659,2,0,B|344:208|408:232|400:280|400:280|368:296|344:268,1,191.250007295609,0|0,1:0|2:0,0:0:0:0:
304,160,7959,6,0,B|364:162|342:136|402:138,2,101.999996887207,0|0|0,1:3|1:0|1:0,0:0:0:0:
176,84,8259,6,0,P|124:80|84:52,2,85.0000032424928,0|0|0,1:3|1:3|1:3,0:0:0:0:
316,40,8559,6,0,L|376:4,2,67.9999979248048,0|0|0,1:3|1:3|1:3,0:0:0:0:
256,92,8859,6,0,L|248:232,1,127.5,0|0,1:3|0:0,0:0:0:0:
248,236,9159,5,8,0:0:0:0:
176,356,9309,2,0,P|116:376|53:369,1,127.500004863739,2|2,0:2|1:3,0:0:0:0:
36,360,9534,1,2,1:3:0:0:
24,348,9609,2,0,P|14:313|24:264,1,63.7500024318696,0|0,1:3|0:0,0:0:0:0:
136,268,9759,6,0,L|148:228,1,31.8750012159348,2|0,0:0|2:0,0:0:0:0:
252,316,9909,2,0,L|264:356,1,31.8750012159348,2|0,0:0|2:0,0:0:0:0:
390,312,10059,6,0,P|404:268|392:220,2,85.0000032424928,0|0|0,1:3|1:3|1:3,0:0:0:0:
328,264,10359,5,0,1:0:0:0:
308,192,10459,1,0,1:1:0:0:
372,152,10559,1,0,1:1:0:0:
392,80,10659,6,0,L|376:0,2,62.3333352355958,0|0|0,1:0|1:0|1:0,0:0:0:0:
233,81,10959,5,8,0:0:0:0:
40,16,11109,1,2,0:2:0:0:
120,124,11259,2,0,B|80:92|104:28|152:36|152:36|168:68|140:92,1,170.000006484986,8|0,1:1|1:0,0:0:0:0:
76,196,11559,6,0,B|23:167|55:156|2:127,2,101.999996887207,0|0|0,1:3|1:1|1:1,0:0:0:0:
176,284,11859,6,0,P|198:331|194:379,2,85.0000032424928,2|0|0,1:3|1:3|1:3,0:0:0:0:
200,144,12159,6,0,L|276:104,2,67.9999979248048,0|0|0,1:3|1:3|1:3,0:0:0:0:
154,208,12459,6,0,B|228:232|212:192|278:215,1,127.5,0|0,1:3|0:0,0:0:0:0:
292,228,12759,5,8,1:2:0:0:
352,72,12909,2,0,P|414:78|474:58,1,127.500004863739,2|8,0:3|2:1,0:0:0:0:
396,164,13209,2,0,L|316:148,1,63.7500024318696,0|0,1:0|1:0,0:0:0:0:
160,72,13359,2,0,P|97:78|37:58,1,127.500004863739,2|0,1:3|0:0,0:0:0:0:
116,164,13659,5,2,1:3:0:0:
188,144,13759,1,0,1:0:0:0:
228,208,13859,1,0,1:0:0:0:
292,248,13959,6,0,L|372:232,1,63.7500024318696,0|0,1:0|0:0,0:0:0:0:
296,324,14109,2,0,L|376:308,1,63.7500024318696,8|0,1:1|0:0,0:0:0:0:
456,329,14259,6,0,P|331:313|220:372,1,255,10|0,0:0|0:0,0:0:0:0:
110,364,14559,6,0,B|158:392|204:352|204:352|236:312|296:324,1,203.999993774414,4|0,0:0|0:0,0:0:0:0:
456,329,15009,2,0,P|482:286|483:235,2,101.999996887207,2|0|0,0:0|0:1|0:0,0:0:0:0:
295,323,15459,2,0,L|194:307,1,101.999996887207,0|0,1:1|0:1,0:0:0:0:
32,148,15759,5,0,0:1:0:0:
104,128,15859,1,2,0:0:0:0:
144,192,15959,1,0,0:0:0:0:
208,232,16059,2,0,P|277:244|356:200,1,152.999995330811,2|0,0:0|0:0,2:0:0:0:
412,152,16359,6,0,P|376:168|284:152,1,127.500004863739,8|8,0:2|0:2,0:0:0:0:
232,92,16584,1,0,0:0:0:0:
228,84,16659,2,0,P|226:62|236:20,2,42.5,0|2|2,2:0|2:2|2:2,0:0:0:0:
290,156,16809,6,0,P|308:125|314:89,1,63.7500024318696,2|0,0:0|2:0,0:0:0:0:
384,12,16959,2,0,P|383:47|395:81,1,63.7500024318696,8|0,0:0|2:0,0:0:0:0:
412,300,17109,2,0,L|424:212,1,63.7500024318696,2|0,0:2|0:0,0:0:0:0:
468,92,17259,6,0,L|484:64,2,28.3333333333333,4|2|0,0:1|2:2|2:0,0:0:0:0:
412,152,17409,2,0,P|430:162|451:167,1,42.5,2|0,0:0|2:0,0:0:0:0:
512,288,17559,6,0,P|464:312|384:304,1,127.500004863739,8|8,3:2|3:2,0:0:0:0:
112,240,17859,2,0,P|160:264|240:256,1,127.500004863739,2|0,0:0|1:0,0:0:0:0:
451,167,18159,6,0,P|326:158|239:68,1,255.000009727478,4|0,0:0|2:0,0:0:0:0:
276,0,18609,2,0,L|380:7,1,101.999996887207,2|0,0:0|3:0,0:0:0:0:
240,148,18909,1,0,0:0:0:0:
172,108,19059,6,0,L|68:115,1,101.999996887207,0|2,1:1|0:0,0:0:0:0:
64,232,19359,2,0,P|143:244|175:180,1,152.999995330811,0|0,3:0|2:0,0:0:0:0:
240,148,19659,2,0,P|309:135|388:180,1,152.999995330811,2|0,0:2|0:0,2:0:0:0:
444,228,19959,6,0,P|408:212|316:228,1,127.500004863739,8|8,0:0|0:0,0:0:0:0:
322,224,20409,6,0,P|340:254|346:290,1,63.7500024318696,2|0,0:2|2:0,0:0:0:0:
416,368,20559,2,0,P|415:332|427:298,1,63.7500024318696,0|0,3:0|2:0,0:0:0:0:
372,108,20709,2,0,L|384:196,1,63.7500024318696,2|0,0:0|2:0,0:0:0:0:
312,354,20859,6,0,L|271:348,1,42.5,12|0,0:3|2:3,0:0:0:0:
381,312,21009,2,0,L|422:305,1,42.5,4|0,0:3|0:3,0:0:0:0:
489,214,21159,6,0,P|467:187|361:179,1,127.500004863739,4|8,0:1|0:2,0:0:0:0:
116,232,21459,2,0,P|137:258|243:266,1,127.500004863739,4|2,0:1|0:0,0:0:0:0:
472,56,21759,6,0,P|385:145|260:154,1,255.000009727478,4|0,0:1|2:0,0:0:0:0:
184,164,22209,2,0,L|80:157,1,101.999996887207,0|0,1:1|0:0,0:0:0:0:
220,8,22509,1,0,0:0:0:0:
288,48,22659,2,0,L|392:41,1,101.999996887207,2|0,1:2|3:0,0:0:0:0:
472,56,22959,5,0,3:1:0:0:
288,48,23109,1,4,0:1:0:0:
216,84,23259,6,0,B|178:92|178:92|114:68,1,101.999996887207,0|0,1:1|0:0,0:0:0:0:
0,192,23559,6,0,P|104:236|216:204,1,212.5,2|0,0:0|2:0,0:0:0:0:
264,176,24009,6,0,P|296:208|352:184,1,101.999996887207,2|4,1:2|0:1,0:0:0:0:
472,56,24309,2,0,L|516:128,1,50.9999984436036,2|0,0:0|0:0,0:0:0:0:
468,240,24459,5,8,0:3:0:0:
468,240,24534,1,4,0:1:0:0:
468,240,24609,1,4,0:3:0:0:
468,240,24684,1,4,0:1:0:0:
468,240,24759,6,0,P|453:300|480:356,1,127.500004863739,12|0,0:1|1:1,0:0:0:0:
345,193,25059,2,0,P|359:132|332:76,1,127.500004863739,4|0,0:1|1:2,0:0:0:0:
228,316,25359,6,0,B|180:344|135:304|135:304|103:264|43:276,1,203.999993774414,4|0,0:0|0:0,0:0:0:0:
192,160,25809,2,0,L|90:166,1,101.999996887207,2|0,1:2|0:0,0:0:0:0:
228,316,26109,1,0,0:0:0:0:
296,276,26259,2,0,L|400:283,1,101.999996887207,4|0,0:1|1:0,0:0:0:0:
480,268,26559,5,2,0:0:0:0:
296,276,26709,1,4,0:1:0:0:
224,240,26859,6,0,B|186:232|186:232|122:256,1,101.999996887207,0|2,1:1|0:0,1:0:0:0:
100,49,27159,6,0,L|115:175,1,127.500004863739,8|8,0:0|0:0,0:0:0:0:
116,176,27609,6,0,P|146:158|182:152,1,63.7500024318696,2|0,3:2|2:0,0:0:0:0:
260,82,27759,2,0,P|224:83|190:71,1,63.7500024318696,0|0,3:0|2:0,0:0:0:0:
36,57,27909,2,0,L|124:45,1,63.7500024318696,2|0,3:2|2:0,0:0:0:0:
320,24,28059,1,8,0:3:0:0:
320,24,28134,1,4,0:1:0:0:
320,24,28209,1,4,0:3:0:0:
320,24,28284,1,4,2:1:0:0:
320,24,28359,6,0,P|315:86|351:136,1,101.999996887207,0|8,0:0|0:0,0:0:0:0:
368,280,28659,2,0,P|388:234|381:184,1,101.999996887207,4|0,0:1|0:0,0:0:0:0:
320,24,28959,5,2,0:2:0:0:
143,52,29279,5,10,0:0:0:0:
79,219,29612,5,10,0:0:0:0:
191,359,29992,5,10,0:0:0:0:
368,331,30416,5,10,0:0:0:0:
432,164,30916,5,10,0:0:0:0:
320,24,31916,6,0,P|256:24|184:64,1,127.5,4|0,0:1|2:0,0:0:0:0:
264,101,32216,6,0,P|311:98|356:116,1,95.6250036478044,2|0,0:0|2:0,0:0:0:0:
356,208,32516,6,0,P|331:190|294:177,1,63.75,2|0,0:0|2:0,0:0:0:0:
292,256,32816,5,2,0:0:0:0:
292,256,33716,6,0,B|228:285|231:240|168:264,1,127.500004863739,4|0,0:1|0:0,0:0:0:0:
104,304,34166,1,0,0:0:0:0:
32,280,34316,6,0,P|12:248|12:192,1,74.8000022827149,2|0,0:0|2:0,0:0:0:0:
63,151,34616,6,0,P|83:119|83:63,1,85,2|0,0:0|0:0,0:0:0:0:
32,16,35216,1,0,0:0:0:0:
108,0,35366,1,2,0:0:0:0:
86,73,35516,6,0,P|86:137|126:209,1,127.5,4|0,0:1|2:0,0:0:0:0:
163,128,35816,6,0,P|160:80|177:36,1,95.6250036478044,2|0,0:0|2:0,0:0:0:0:
270,37,36116,6,0,P|252:61|239:98,1,63.75,2|0,0:0|2:0,0:0:0:0:
318,101,36416,6,0,L|412:108,1,85,4|0,0:1|0:0,0:0:0:0:
402,107,37016,6,0,P|402:147|418:183,1,63.7500024318696,2|0,0:0|2:0,0:0:0:0:
424,248,37316,6,0,P|392:243|363:230,1,63.75,4|0,0:1|3:0,0:0:0:0:
283,257,37616,6,0,P|314:292|357:312,1,95.6250036478044,0|0,0:0|3:0,0:0:0:0:
267,351,37916,6,0,P|222:306|200:246,1,127.5,2|0,0:0|2:0,0:0:0:0:
192,172,38216,6,0,P|175:233|118:293,1,127.5,4|0,0:1|2:0,0:0:0:0:
103,205,38516,6,0,P|118:159|113:112,1,95.6250036478044,0|0,0:0|2:0,0:0:0:0:
23,89,38816,6,0,P|34:116|37:155,1,63.75,2|0,0:0|2:0,0:0:0:0:
113,112,39116,6,0,L|208:100,1,85,4|0,0:1|2:0,0:0:0:0:
113,112,39716,6,0,P|159:114|237:65,1,127.5,0|0,0:0|3:0,0:0:0:0:
236,0,40016,6,0,P|189:-2|111:46,1,127.5,2|0,0:0|2:0,0:0:0:0:
120,35,40616,2,0,L|116:112,1,63.7500024318696,2|0,0:0|2:0,0:0:0:0:
264,148,40916,6,0,B|328:177|325:132|388:156,1,127.500004863739,4|0,0:1|2:0,0:0:0:0:
452,200,41216,2,0,P|460:229|440:296,1,85,0|2,0:0|0:0,0:0:0:0:
284,272,41516,1,2,0:0:0:0:
316,340,41666,1,0,0:0:0:0:
391,339,41816,6,0,P|308:295|215:307,1,191.250007295609,2|0,0:0|2:0,0:0:0:0:
32,336,42416,1,2,0:0:0:0:
12,264,42566,1,0,0:0:0:0:
58,204,42716,6,0,P|90:199|119:186,1,63.75,4|0,0:1|2:0,0:0:0:0:
199,213,43016,6,0,P|168:248|125:268,1,95.6250036478044,2|0,0:0|2:0,0:0:0:0:
215,307,43316,6,0,P|260:262|282:202,1,127.5,2|0,0:0|2:0,0:0:0:0:
290,128,43616,6,0,P|307:189|364:249,1,127.5,4|0,0:1|2:0,0:0:0:0:
379,161,43916,6,0,P|364:115|369:68,1,95.6250036478044,2|0,0:0|2:0,0:0:0:0:
459,45,44216,6,0,P|448:72|445:111,1,63.75,2|0,0:0|2:0,0:0:0:0:
456,184,44516,6,0,L|464:256,1,63.75,4|0,0:1|2:0,0:0:0:0:
400,296,44816,6,0,P|372:312|308:304,1,95.6250036478044,0|0,0:0|2:0,0:0:0:0:
280,236,45116,6,0,B|284:192|256:183|256:183|228:192|232:236,1,127.5,2|0,0:3|2:0,0:0:0:0:
196,312,45416,5,0,1:0:0:0:
316,312,45566,2,0,P|292:324|264:316,1,42.5,2|2,0:0|0:0,0:0:0:0:
201,305,45716,6,0,P|154:315|112:296,1,93.5000028533936,2|8,0:0|2:1,0:0:0:0:
84,72,46016,5,0,0:0:0:0:
164,232,46166,1,2,0:0:0:0:
328,188,46316,6,0,L|428:160,1,101.999996887207,4|0,0:0|2:1,0:0:0:0:
344,4,46616,2,2,P|353:53|346:104,1,101.999996887207,2|0,0:1|0:0,0:1:0:0:
508,128,46916,2,0,L|424:56,1,101.999996887207,2|0,0:1|2:1,0:1:0:0:
426,160,47141,1,0,0:0:0:0:
426,160,47216,6,0,P|426:195|440:232,1,63.7500024318696,8|0,1:2|0:0,0:0:0:0:
512,296,47366,6,0,B|415:272|447:348|352:324,1,170,8|2,0:0|0:0,0:0:0:0:
340,316,47741,1,2,0:0:0:0:
332,304,47816,6,0,P|300:272|256:296,1,95.6250036478044,12|0,0:1|2:0,0:0:0:0:
284,360,48116,5,0,3:0:0:0:
332,304,48216,1,0,3:0:0:0:
259,290,48316,1,0,3:0:0:0:
212,348,48416,2,0,P|176:372|96:356,1,101.999996887207,0|0,3:0|0:0,0:0:0:0:
204,160,48716,2,0,B|281:132|261:212|344:189,1,152.999995330811,2|0,0:0|2:0,0:0:0:0:
420,208,49016,6,0,L|407:270,1,63.7500024318696,8|0,1:2|0:0,0:0:0:0:
484,348,49166,6,0,L|472:288,1,42.5,0|0,3:0|2:0,0:0:0:0:
332,268,49316,2,0,B|312:268|312:268|291:276,1,42.5,0|0,3:0|2:0,0:0:0:0:
368,340,49466,2,0,B|388:348|388:348|408:348,1,42.5,2|0,3:2|2:0,0:0:0:0:
492,232,49616,6,0,L|512:212,3,28.3333333333333,0|2|0|2,2:0|2:2|2:2|2:0,0:0:0:0:
291,276,49916,5,0,3:0:0:0:
224,243,50016,1,0,3:0:0:0:
156,275,50116,1,0,3:0:0:0:
136,347,50216,2,0,P|82:379|20:368,1,127.5,0|0,3:0|2:0,0:0:0:0:
140,356,50516,6,0,L|236:348,1,85,2|0,0:0|2:0,0:0:0:0:
103,220,50816,6,0,P|112:164|88:92,1,127.5,8|0,1:2|2:0,0:0:0:0:
84,24,51116,6,0,B|142:10|122:55|180:40,1,101.999996887207,0|0,3:0|0:0,0:0:0:0:
256,136,51416,2,0,P|288:168|368:136,1,127.500004863739,4|0,0:1|0:0,0:0:0:0:
440,32,51716,6,0,L|428:4,4,28.3333333333333,0|2|0|2|2,3:0|0:2|0:0|0:2|0:0,0:0:0:0:
432,108,52016,2,0,P|434:133|441:157,1,50.9999984436036,2|0,0:0|2:0,0:0:0:0:
380,268,52166,2,0,P|387:243|389:218,1,50.9999984436036,8|0,0:0|2:0,0:0:0:0:
360,72,52316,6,0,L|304:64,1,42.5,2|0,0:0|2:0,0:0:0:0:
441,157,52466,2,0,L|497:149,1,42.5,8|0,0:0|2:0,0:0:0:0:
316,212,52616,6,0,P|284:218|253:219,1,63.7500024318696,8|0,1:2|0:0,0:0:0:0:
184,72,52766,6,0,L|244:84,1,42.5,0|0,0:0|2:0,0:0:0:0:
148,168,52916,2,0,L|208:172,1,31.8750012159348,4|0,3:1|2:0,0:0:0:0:
160,264,53066,2,0,L|196:256,1,21.25,4|0,0:1|2:0,0:0:0:0:
188,340,53216,5,4,0:1:0:0:
332,376,53366,1,4,0:1:0:0:
464,312,53516,6,0,P|464:256|436:212,1,101.999996887207,4|0,0:0|2:1,0:0:0:0:
284,300,53816,2,2,L|385:284,1,101.999996887207,2|0,0:1|0:0,0:1:0:0:
412,132,54116,2,0,B|368:156|368:156|352:224,1,101.999996887207,2|0,0:1|2:1,0:0:0:0:
441,217,54341,1,0,0:0:0:0:
441,217,54416,6,0,P|476:217|513:203,1,63.7500024318696,8|0,1:2|0:0,0:0:0:0:
512,48,54566,6,0,B|415:24|447:100|352:76,1,170,8|2,0:0|0:0,0:0:0:0:
340,68,54941,1,2,0:0:0:0:
332,56,55016,6,0,P|300:24|256:48,1,95.6250036478044,12|0,0:1|2:0,0:0:0:0:
284,112,55316,5,0,3:0:0:0:
332,56,55416,1,0,3:0:0:0:
259,42,55516,1,0,3:0:0:0:
212,100,55616,1,0,3:0:0:0:
112,192,55766,1,8,0:0:0:0:
24,96,55916,2,0,P|3:49|1:0,1,101.999996887207,2|0,0:0|3:0,0:0:0:0:
116,180,56216,6,0,L|178:193,1,50.9999984436036,8|0,1:2|0:0,0:0:0:0:
280,132,56366,2,0,L|218:145,1,50.9999984436036,2|0,0:0|2:0,0:0:0:0:
156,268,56516,2,0,P|220:312|260:300,1,101.999996887207,4|0,3:1|0:1,0:0:0:0:
424,136,56816,2,0,P|374:140|340:177,1,101.999996887207,4|4,0:1|0:1,0:0:0:0:
232,292,57116,5,0,3:2:0:0:
299,259,57216,1,0,3:2:0:0:
367,291,57316,1,0,3:2:0:0:
388,364,57416,2,0,P|449:374|503:342,1,127.5,0|0,3:0|2:0,0:0:0:0:
383,372,57716,6,0,L|287:364,1,85,2|0,0:0|0:0,0:0:0:0:
420,236,58016,6,0,P|412:205|412:173,1,63.7500024318696,10|0,1:2|0:0,0:0:0:0:
512,60,58166,6,0,B|416:82|448:8|353:32,1,170,8|0,0:0|0:0,0:0:0:0:
268,132,58616,6,0,P|236:164|156:132,1,127.500004863739,12|0,0:1|0:0,0:0:0:0:
0,4,58916,5,0,3:0:0:0:
64,44,59016,1,0,3:0:0:0:
96,112,59116,1,0,3:0:0:0:
100,184,59216,2,0,P|98:209|91:233,1,50.9999984436036,10|0,3:2|2:0,0:0:0:0:
152,344,59366,2,0,P|145:319|143:294,1,50.9999984436036,8|0,0:0|2:0,0:0:0:0:
163,144,59516,6,0,L|219:136,1,42.5,0|0,2:2|2:0,0:0:0:0:
91,233,59666,2,0,L|35:225,1,42.5,8|0,0:0|2:0,0:0:0:0:
220,304,59816,6,0,P|252:310|283:311,1,63.7500024318696,2|0,0:0|0:0,0:0:0:0:
508,204,59966,6,0,L|496:144,1,42.5,2|0,0:0|3:0,0:0:0:0:
412,240,60116,2,0,L|408:180,1,31.8750012159348,8|0,0:0|3:0,0:0:0:0:
316,228,60266,2,0,L|324:192,1,21.25,8|0,0:0|3:0,0:0:0:0:
240,200,60416,1,8,0:0:0:0:
205,137,60566,1,8,0:0:0:0:
48,226,60716,6,0,B|35:169|81:128|81:128|129:64|55:3|-12:33|-43:100|19:171|81:128|81:128|122:134|137:164,1,467.5,4|0,0:0|2:0,0:0:0:0:
119,235,61616,6,0,P|117:257|105:274,7,31.8750012159348,4|0|0|0|0|0|0|0,2:0|2:2|2:0|2:2|2:0|2:2|0:0|0:0,0:0:0:0:
112,344,61916,6,0,P|76:340|56:320,3,63.7500024318696,4|4|4|4,0:1|0:1|0:1|0:1,0:0:0:0:
192,348,62216,5,2,2:1:0:0:
232,328,62291,1,2,2:1:0:0:
276,324,62366,1,2,2:1:0:0:
320,336,62441,1,2,2:1:0:0:
356,360,62516,6,0,P|384:368|416:360,1,42.5,14|2,2:1|2:1,0:0:0:0:
464,320,62666,2,0,P|485:320|505:312,1,42.5,2|2,2:1|2:1,0:0:0:0:
504,232,62816,6,0,P|476:240|444:232,1,42.5,2|2,0:1|3:1,0:0:0:0:
396,192,62966,2,0,P|374:192|354:184,1,42.5,8|0,0:3|0:0,0:0:0:0:
352,104,63116,5,0,0:0:0:0:
476,128,63266,1,4,0:1:0:0:
452,0,63416,2,0,P|420:32|428:84,1,85,4|0,0:1|0:0,0:0:0:0:
463,239,63716,2,0,L|367:231,1,85,0|0,1:0|0:0,0:0:0:0:
280,77,64016,6,0,P|325:77|356:119,1,85.4249959592058,4|0,0:1|0:0,0:0:0:0:
288,156,64316,6,0,B|238:184|169:174|168:122|213:90|237:128|214:146,1,165.749992412568,6|0,0:1|0:0,0:0:0:0:
156,216,64616,6,0,P|128:224|96:216,1,42.5,2|2,2:1|2:1,0:0:0:0:
44,184,64766,1,8,1:3:0:0:
60,28,64916,6,0,P|59:57|75:85,1,42.5,2|0,2:2|2:1,0:0:0:0:
40,188,65066,2,0,P|45:166|58:149,1,42.5,8|0,2:0|0:0,0:0:0:0:
140,116,65216,5,4,0:3:0:0:
144,112,65516,2,0,L|148:24,1,85,8|0,1:2|0:0,0:0:0:0:
234,223,65816,2,0,P|178:193|115:192,1,127.5,12|0,0:1|2:0,0:0:0:0:
48,238,66116,6,0,P|27:237|7:230,3,42.5,12|2|0|2,0:1|0:0|0:0|0:0,0:0:0:0:
116,192,66416,1,4,0:1:0:0:
212,312,66566,1,8,1:2:0:0:
212,312,66641,1,2,0:0:0:0:
212,312,66716,2,0,P|254:313|292:295,1,85,2|0,0:0|0:0,0:0:0:0:
392,168,67016,6,0,P|346:147|296:148,1,101.999996887207,4|0,0:1|0:3,0:0:0:0:
332,372,67316,6,0,P|390:373|444:350,1,118.999996368408,2|0,1:2|0:0,0:0:0:0:
284,72,67616,6,0,B|245:76|249:96|205:104,1,85,4|12,0:1|0:1,0:0:0:0:
440,232,67916,5,8,0:3:0:0:
468,196,67991,1,4,0:3:0:0:
472,152,68066,1,4,0:1:0:0:
452,112,68141,1,4,0:1:0:0:
412,88,68216,1,4,0:1:0:0:
260,172,68366,1,4,0:1:0:0:
115,79,68516,1,8,1:2:0:0:
112,76,68816,6,0,P|156:100|216:88,1,101.999996887207,2|0,0:0|0:0,0:0:0:0:
80,8,69116,1,8,1:2:0:0:
168,180,69266,1,8,0:0:0:0:
92,204,69416,2,0,L|-8:200,1,85,4|2,0:1|0:0,0:0:0:0:
152,256,69716,6,0,B|199:288|268:284|274:232|232:196|205:232|226:252,1,165.749992412568,6|0,0:1|0:0,0:0:0:0:
278,327,70016,6,0,P|305:337|337:332,1,42.5,2|0,2:1|2:0,0:0:0:0:
392,305,70166,1,8,1:3:0:0:
388,148,70316,6,0,P|386:176|368:203,1,42.5,8|0,2:0|2:1,0:0:0:0:
396,309,70466,2,0,P|392:286|381:268,1,42.5,8|0,2:0|0:0,0:0:0:0:
304,232,70616,2,0,P|261:235|221:222,1,85,8|8,0:0|0:0,0:0:0:0:
340,72,70916,2,0,P|380:58|422:62,1,85,8|4,1:2|0:1,0:0:0:0:
304,232,71216,1,4,0:1:0:0:
392,144,71366,1,12,0:1:0:0:
512,276,71516,6,0,P|480:300|336:276,1,165.749992412568,2|0,0:1|0:0,0:0:0:0:
280,312,71816,6,0,P|258:311|238:319,1,42.5,6|2,0:1|3:1,0:0:0:0:
336,376,71966,1,8,1:3:0:0:
224,227,72116,6,0,P|245:227|264:235,1,42.5,8|0,2:2|0:0,0:0:0:0:
379,196,72266,2,0,P|360:204|344:218,1,42.5,4|0,0:1|0:1,0:0:0:0:
336,376,72416,5,8,0:3:0:0:
288,152,72566,1,0,0:3:0:0:
360,296,72716,2,0,P|402:299|442:286,1,85,10|8,1:2|0:0,0:0:0:0:
504,128,73016,2,0,P|463:114|421:118,1,85,0|8,0:0|0:2,0:0:0:0:
356,292,73316,5,12,0:0:0:0:
280,328,73466,1,0,0:0:0:0:
284,112,73616,6,0,P|315:97|349:98,1,63.7500024318696,8|0,0:0|0:0,0:0:0:0:
284,332,73916,6,0,P|241:333|203:315,1,85,8|0,0:0|0:0,0:0:0:0:
120,180,74216,6,0,P|165:159|215:160,1,101.999996887207,10|4,0:0|0:0,0:0:0:0:
152,384,74516,6,0,P|93:385|39:362,1,118.999996368408,4|4,0:1|0:1,0:0:0:0:
0,108,74816,6,0,P|61:80|128:82,1,136,10|0,3:2|0:0,0:0:0:0:
364,272,75116,5,4,0:0:0:0:
444,244,75416,1,2,0:0:0:0:
428,328,75716,1,2,0:0:0:0:
380,188,76016,2,0,P|378:150|392:104,1,85,2|2,0:0|0:0,0:0:0:0:
448,40,76616,1,2,0:0:0:0:
312,88,76916,5,2,0:0:0:0:
284,8,77216,1,2,0:0:0:0:
368,24,77516,1,2,0:0:0:0:
228,72,77816,2,0,P|190:73|144:60,1,85,2|2,0:0|0:0,0:0:0:0:
80,4,78416,1,2,0:0:0:0:
44,152,78716,6,0,L|12:156,2,21.25,2|0|0,0:0|0:0|0:0,0:0:0:0:
112,200,79016,1,2,0:0:0:0:
120,284,79316,1,2,0:0:0:0:
96,364,79616,2,0,P|60:380|16:376,1,85,2|2,0:0|0:0,0:0:0:0:
120,284,80216,1,2,0:0:0:0:
180,344,80516,6,0,P|212:350|243:347,1,63.75,2|0,0:0|2:0,0:0:0:0:
256,336,80816,6,0,B|296:324|316:352|316:352|364:412|452:380|436:272|340:264|320:316|368:356,1,297.5,0|0,0:0|2:0,0:0:0:0:
472,374,81416,6,0,P|502:334|504:284,1,101.999996887207,8|0,0:0|0:0,0:0:0:0:
480,220,81616,2,0,P|460:204|440:204,2,33.9999989624024,0|0|2,0:0|0:0|3:3,0:0:0:0:
353,339,81866,1,4,0:1:0:0:
272,152,82016,5,4,0:1:0:0:
256,260,82166,1,12,0:1:0:0:
168,336,82316,6,0,P|74:335|2:275,1,191.250007295609,4|0,0:2|0:1,0:1:0:0:
48,216,82616,2,0,P|126:180|164:257,1,191.250007295609,8|0,0:2|2:0,0:0:0:0:
102,384,82916,6,0,P|55:383|19:353,1,95.6250036478044,2|0,0:0|0:0,0:0:0:0:
85,309,83216,6,0,P|130:308|168:336,1,93.5000028533936,4|0,3:0|2:0,0:0:0:0:
216,328,83441,1,0,0:0:0:0:
234,284,83516,2,0,P|239:239|216:200,1,93.5000028533936,10|8,0:0|0:0,0:0:0:0:
308,328,83816,2,0,P|376:324|429:280,1,140.25000428009,8|0,0:2|0:1,0:0:0:0:
448,200,84116,6,0,P|403:199|365:227,1,93.5000028533936,12|0,0:1|2:0,0:0:0:0:
317,219,84341,1,0,0:0:0:0:
299,175,84416,2,0,P|294:130|317:91,1,93.5000028533936,10|0,0:0|0:0,0:0:0:0:
215,199,84716,1,8,0:3:0:0:
211,227,84791,1,0,0:0:0:0:
207,255,84866,1,2,0:2:0:0:
0,120,85016,6,0,P|88:152|176:120,1,191.250007295609,4|0,0:1|0:0,0:0:0:0:
152,48,85316,2,0,P|90:-12|28:47,1,191.250007295609,8|0,0:2|0:0,0:0:0:0:
44,188,85616,6,0,P|88:204|132:188,1,95.6250036478044,8|0,0:2|0:0,0:0:0:0:
176,119,85916,6,0,P|88:87|0:119,1,191.250007295609,4|0,2:1|0:0,0:0:0:0:
24,191,86216,2,0,P|86:251|148:192,1,191.250007295609,8|0,0:2|2:0,0:0:0:0:
132,51,86516,6,0,P|88:35|44:51,1,95.6250036478044,10|0,0:0|0:0,0:0:0:0:
89,120,86816,6,0,P|131:134|176:118,1,93.5000028533936,12|0,0:1|0:0,0:0:0:0:
219,139,87041,1,0,0:0:0:0:
223,186,87116,2,0,P|214:230|181:261,1,93.5000028533936,8|8,0:3|0:0,0:0:0:0:
305,162,87416,2,0,P|368:185|406:243,1,140.25000428009,4|0,3:3|0:1,0:0:0:0:
408,335,87716,6,0,B|393:289|393:289|407:240,1,95.6250036478044,4|0,0:1|0:3,0:0:0:0:
472,288,88016,6,0,L|352:288,1,101.999996887207,8|2,0:0|1:1,0:0:0:0:
256,220,88316,1,0,3:0:0:0:
256,228,88391,1,0,3:0:0:0:
256,236,88466,6,0,B|248:204|264:208|257:177,1,59.4999981842042,2|2,0:2|2:2,0:0:0:0:
180,96,88616,6,0,L|115:70,1,59.4999981842042,4|0,1:2|0:0,0:0:0:0:
332,96,88766,2,0,L|387:74,1,59.4999981842042,4|0,1:2|0:0,0:0:0:0:
256,172,88916,1,12,0:1:0:0:
116,196,89066,6,0,P|151:191|180:170,1,63.7500024318696,4|0,1:2|0:0,0:0:0:0:
396,196,89216,2,0,P|361:191|332:170,1,63.7500024318696,4|0,1:2|0:0,0:0:0:0:
256,0,89366,6,0,B|246:38|265:33|257:70,1,72.2500013780594,2|2,2:1|2:2,0:0:0:0:
255,271,89516,6,0,P|277:295|307:304,1,63.7500024318696,12|2,0:2|0:0,0:0:0:0:
476,372,89666,2,0,L|339:382,1,127.500004863739,10|0,0:0|0:0,0:0:0:0:
228,172,89966,2,0,P|256:185|284:172,1,63.7500024318696,8|0,0:0|0:0,0:0:0:0:
472,208,90116,2,0,P|408:237|335:218,1,127.500004863739,10|4,0:0|0:1,0:0:0:0:
24,103,90416,6,0,P|62:121|103:116,1,85.0000032424928,2|0,3:1|3:0,0:0:0:0:
116,0,90616,1,0,3:0:0:0:
193,89,90716,6,0,P|256:149|319:84,1,191.250007295609,2|0,0:1|0:0,0:0:0:0:
408,116,91016,6,0,P|449:121|487:104,1,85.4249959592058,4|0,3:1|2:0,0:0:0:0:
496,192,91316,6,0,P|474:216|444:225,1,63.7500024318696,10|0,0:0|0:0,0:0:0:0:
276,292,91466,2,0,L|413:302,1,127.500004863739,10|0,0:0|0:0,0:0:0:0:
283,113,91766,2,0,P|255:126|227:113,1,63.7500024318696,2|0,0:0|0:0,0:0:0:0:
39,149,91916,2,0,P|103:178|176:159,1,127.500004863739,10|0,0:0|0:0,0:0:0:0:
379,117,92216,6,0,P|375:138|364:156,1,42.5,4|8,2:2|2:3,0:0:0:0:
440,36,92365,2,0,P|461:33|480:23,1,42.5,4|4,0:3|0:3,0:0:0:0:
336,28,92516,2,0,P|256:72|176:28,1,191.250007295609,4|0,0:0|0:0,0:0:0:0:
32,24,92816,6,0,P|60:36|96:32,1,42.5,2|0,0:2|0:3,0:0:0:0:
148,156,92966,2,0,P|136:136|132:116,1,42.5,8|0,2:2|2:3,0:0:0:0:
10,100,93116,6,0,B|56:120|52:165|52:165|100:219|157:168,1,203.999993774414,4|0,0:0|0:0,0:0:0:0:
256,324,93566,1,4,0:1:0:0:
180,276,93716,2,0,L|68:288,1,101.999996887207,8|0,0:0|2:0,0:0:0:0:
332,276,94016,2,0,L|444:288,1,101.999996887207,0|2,3:0|0:0,0:0:0:0:
157,168,94316,6,0,P|176:184|216:176,1,50.9999984436036,4|0,0:1|2:0,0:0:0:0:
256,132,94466,2,0,L|256:80,1,50.9999984436036,4|0,0:1|2:0,0:0:0:0:
397,142,94616,2,0,P|360:176|310:184,1,101.999996887207,4|12,0:1|0:1,0:0:0:0:
100,153,94916,6,0,P|124:170|172:156,1,63.7500024318696,8|0,0:0|0:0,0:0:0:0:
256,81,95066,2,0,L|256:17,1,63.7500024318696,8|0,0:0|0:0,0:0:0:0:
473,140,95216,1,8,2:0:0:0:
473,140,95291,1,2,2:0:0:0:
473,140,95366,2,0,P|402:199|310:183,1,191.250007295609,2|0,0:0|0:0,0:0:0:0:
256,81,95666,1,2,0:0:0:0:
56,148,95816,6,0,P|77:148|97:143,3,42.5,10|0|0|0,0:2|3:3|3:0|3:0,0:0:0:0:
228,172,96116,6,0,P|200:172|173:166,3,55.2499974708558,10|0|0|0,0:2|3:3|3:0|3:0,0:0:0:0:
112,216,96416,5,10,0:2:0:0:
104,288,96491,1,0,3:0:0:0:
140,352,96566,1,8,3:2:0:0:
208,376,96641,1,0,3:0:0:0:
280,356,96716,6,0,P|310:346|331:323,1,63.7500024318696,12|0,0:0|0:0,0:0:0:0:
363,169,96866,2,0,L|235:159,1,127.500004863739,10|0,0:0|0:0,0:0:0:0:
112,0,97166,2,0,P|81:9|60:32,1,63.7500024318696,8|0,0:0|0:0,0:0:0:0:
29,187,97316,2,0,L|156:196,1,127.500004863739,10|4,0:0|0:1,0:0:0:0:
502,281,97616,6,0,P|467:257|426:262,1,85.0000032424928,2|0,3:1|3:0,0:0:0:0:
396,384,97816,1,0,3:0:0:0:
320,304,97916,6,0,B|308:252|256:240|256:240|204:252|192:304,1,191.250007295609,2|0,0:1|0:0,0:0:0:0:
86,262,98216,6,0,P|44:258|8:284,1,85.4249959592058,4|0,3:1|2:0,0:0:0:0:
28,384,98516,6,0,P|52:362|61:332,1,63.7500024318696,10|0,0:0|0:0,0:0:0:0:
156,196,98666,2,0,P|85:178|52:116,1,127.500004863739,10|0,0:0|0:0,0:0:0:0:
256,4,98966,6,0,L|256:84,1,63.7500024318696,2|0,0:0|0:0,0:0:0:0:
356,196,99116,2,0,P|426:178|460:116,1,127.500004863739,10|0,0:0|0:0,0:0:0:0:
508,380,99416,6,0,P|488:371|467:370,1,42.5,4|8,0:2|0:3,0:0:0:0:
392,277,99566,2,0,P|404:295|408:316,1,42.5,12|4,2:3|2:3,0:0:0:0:
328,336,99716,2,0,B|312:292|256:280|256:280|200:292|184:336,1,191.250007295609,4|0,0:2|0:0,0:0:0:0:
119,277,100016,6,0,P|108:294|103:315,1,42.5,8|0,2:2|2:3,0:0:0:0:
44,369,100166,2,0,P|23:371|4:380,1,42.5,10|0,0:2|2:3,0:0:0:0:
0,260,100316,6,0,B|66:293|99:229|99:229|56:204|59:159,1,203.999993774414,12|0,0:0|0:0,0:0:0:0:
256,60,100766,1,2,0:0:0:0:
172,100,100916,2,0,P|112:84|88:40,1,101.999996887207,8|4,0:0|0:1,0:0:0:0:
340,100,101216,2,0,P|400:84|424:40,1,101.999996887207,12|4,0:1|0:1,0:0:0:0:
355,216,101516,6,0,P|336:200|296:208,1,50.9999984436036,10|0,0:0|2:0,0:0:0:0:
256,252,101666,2,0,L|256:304,1,50.9999984436036,4|0,0:1|2:0,0:0:0:0:
114,241,101816,2,0,P|151:207|201:199,1,101.999996887207,12|0,0:1|0:0,0:0:0:0:
412,231,102116,6,0,P|387:213|339:227,1,63.7500024318696,12|0,0:1|0:0,0:0:0:0:
256,303,102266,2,0,L|256:366,1,63.7500024318696,4|0,0:1|0:0,0:0:0:0:
39,244,102416,1,8,0:2:0:0:
39,244,102491,1,2,0:0:0:0:
39,244,102566,2,0,P|109:184|201:200,1,191.250007295609,8|0,0:3|0:0,0:0:0:0:
256,303,102866,1,12,0:1:0:0:
80,312,103016,5,4,3:2:0:0:
432,312,103166,1,4,0:3:0:0:
428,316,103466,6,0,L|376:320,1,42.5,0|0,3:0|3:0,0:0:0:0:
460,236,103616,6,0,L|512:240,1,53.125,0|2,3:0|3:2,0:0:0:0:
411,102,103766,6,0,L|419:166,1,63.7500024318696,2|2,3:2|3:2,0:0:0:0:
508,368,103916,5,12,0:0:0:0:
376,232,104066,2,0,P|372:160|420:96,1,144.500002756119,2|0,0:0|2:0,0:0:0:0:
512,284,104366,5,0,0:0:0:0:
372,368,104516,2,0,P|302:349|256:284,1,144.500002756119,10|4,0:0|0:1,0:0:0:0:
256,52,104816,6,0,P|292:20|368:36,1,96.3333351707459,2|2,3:1|3:2,0:0:0:0:
411,102,105016,1,2,3:2:0:0:
324,160,105116,6,0,P|256:184|187:160,1,144.500002756119,2|0,0:1|2:1,0:0:0:0:
168,15,105416,6,0,P|218:19|255:51,1,101.999996887207,4|0,0:1|2:0,0:0:0:0:
4,368,105716,5,10,0:0:0:0:
136,232,105866,2,0,P|140:160|92:96,1,144.500002756119,10|0,0:0|0:0,0:0:0:0:
0,284,106166,5,0,0:0:0:0:
140,368,106316,2,0,P|209:349|255:284,1,144.500002756119,10|0,0:0|0:0,0:0:0:0:
316,60,106616,6,0,P|320:75|319:91,1,31.8750012159348,4|8,0:0|0:3,0:0:0:0:
192,91,106766,2,0,P|191:75|196:60,1,31.8750012159348,4|4,0:3|0:3,0:0:0:0:
460,48,106916,6,0,P|400:88|327:83,1,144.500002756119,4|0,0:0|2:1,0:0:0:0:
181,84,107216,2,0,P|110:88|52:48,1,144.500002756119,4|2,0:1|0:0,0:0:0:0:
0,284,107516,6,0,B|43:308|34:353|34:353|77:411|139:366,1,203.999993774414,4|0,0:0|0:0,0:0:0:0:
252,160,107966,1,4,0:1:0:0:
164,184,108116,2,0,P|136:224|148:300,1,101.999996887207,8|0,0:0|2:0,0:0:0:0:
376,275,108416,2,0,P|376:225|348:184,1,101.999996887207,0|2,3:0|0:0,0:0:0:0:
136,284,108716,6,0,P|155:300|195:292,1,50.9999984436036,4|0,0:1|0:0,0:0:0:0:
256,288,108866,2,0,L|256:236,1,50.9999984436036,4|0,0:1|0:0,0:0:0:0:
416,260,109016,2,0,P|379:294|329:302,1,101.999996887207,4|12,0:1|0:1,0:0:0:0:
78,261,109316,6,0,P|102:278|150:264,1,63.7500024318696,8|0,0:0|0:0,0:0:0:0:
256,228,109466,2,0,L|256:164,1,63.7500024318696,8|0,0:0|0:0,0:0:0:0:
508,184,109616,1,8,0:0:0:0:
508,184,109691,1,0,2:2:0:0:
508,184,109766,2,0,P|437:243|345:227,1,191.250007295609,2|0,0:0|0:0,0:0:0:0:
256,156,110066,1,2,0:0:0:0:
76,252,110216,6,0,P|55:257|34:257,3,42.5,10|0|0|0,0:2|3:3|3:0|3:0,0:0:0:0:
96,108,110516,6,0,P|96:136|102:163,3,55.2499974708558,10|0|0|0,0:2|3:3|3:0|3:0,0:0:0:0:
136,28,110816,5,10,3:2:0:0:
204,4,110891,1,0,3:0:0:0:
272,24,110966,1,8,3:2:0:0:
320,76,111041,1,0,3:0:0:0:
328,148,111116,5,12,0:0:0:0:
171,254,111266,2,0,P|99:245|44:187,1,144.500002756119,2|0,0:0|2:0,0:0:0:0:
212,92,111566,5,0,0:0:0:0:
304,281,111716,2,0,P|273:346|201:380,1,144.500002756119,10|4,0:0|0:1,0:0:0:0:
34,358,112016,6,0,P|76:335|124:340,1,96.3333351707459,8|2,3:2|3:2,0:0:0:0:
216,384,112216,1,2,3:2:0:0:
128,348,112316,6,0,P|84:360|0:312,1,144.500002756119,2|0,0:1|2:0,0:0:0:0:
510,314,112616,2,0,P|453:356|384:348,1,144.500002756119,4|0,0:1|2:0,0:0:0:0:
184,148,112916,5,10,0:0:0:0:
341,254,113066,2,0,P|412:245|467:187,1,144.500002756119,10|0,0:0|0:0,0:0:0:0:
300,92,113366,5,0,0:0:0:0:
208,281,113516,2,0,P|238:346|310:380,1,144.500002756119,10|0,0:0|0:0,0:0:0:0:
208,240,113816,6,0,P|203:255|204:271,1,31.8750012159348,4|8,0:0|0:3,0:0:0:0:
307,271,113966,2,0,P|308:255|304:240,1,31.8750012159348,4|4,0:3|0:3,0:0:0:0:
212,92,114116,6,0,P|161:54|99:50,1,127.500004863739,4|8,0:0|0:0,0:0:0:0:
412,50,114416,2,0,P|350:54|300:92,1,127.500004863739,4|2,0:1|0:2,0:0:0:0:
364,264,114716,6,0,B|407:288|398:333|398:333|441:391|503:346,1,203.999993774414,4|0,0:2|0:0,0:0:0:0:
312,332,115166,2,0,L|192:348,1,101.999996887207,2|0,0:0|0:0,0:0:0:0:
332,192,115466,6,0,P|356:184|384:188,1,50.9999984436036,12|0,0:1|0:0,0:0:0:0:
179,191,115616,2,0,P|155:183|130:186,1,50.9999984436036,6|0,3:2|0:0,0:0:0:0:
256,148,115766,2,0,L|256:96,1,50.9999984436036,4|0,0:1|0:0,0:0:0:0:
376,284,115916,6,0,P|357:300|317:292,1,50.9999984436036,2|0,2:0|0:0,0:0:0:0:
256,288,116066,2,0,L|256:236,1,50.9999984436036,4|0,0:1|0:0,0:0:0:0:
96,260,116216,2,0,P|133:294|183:302,1,101.999996887207,12|0,0:1|0:0,0:0:0:0:
256,232,116441,1,2,0:0:0:0:
256,228,116516,6,0,L|256:144,1,85,4|0,0:2|0:0,0:0:0:0:
176,60,116666,6,0,P|196:72|224:68,1,42.5,4|0,0:1|0:0,0:0:0:0:
336,60,116816,2,0,P|316:72|288:68,1,42.5,4|0,0:1|0:0,0:0:0:0:
56,112,116966,6,0,P|92:136|132:136,1,85,6|0,0:1|0:0,0:0:0:0:
256,143,117116,6,0,L|256:191,1,42.5,4|0,0:1|0:0,0:0:0:0:
456,112,117266,6,0,P|420:136|380:136,1,85,12|0,0:1|0:0,0:0:0:0:
256,4,117416,1,6,0:1:0:0:
