osu file format v14

[General]
AudioFilename: audio.mp3
AudioLeadIn: 0
PreviewTime: 89516
Countdown: 0
SampleSet: Soft
StackLeniency: 0.4
Mode: 0
LetterboxInBreaks: 0
WidescreenStoryboard: 0

[Editor]
Bookmarks: 14559,31916,46316,60716,75116,89516,103916,117416
DistanceSpacing: 1.1
BeatDivisor: 2
GridSize: 32
TimelineZoom: 1.5

[Metadata]
Title:Byakuya Gensoutan
TitleUnicode:白夜幻想譚
Artist:Shimotsuki Haruka
ArtistUnicode:霜月はるか
Creator:Chaoslitz
Version:Pata-Mon's Hyper
Source:イリスのアトリエ エターナルマナ
Tags:Atelier Iris Eternal Mana Pending cup #5 Suzuki_1112 Kibbleru yf_bmp Gust 1112deng Irreversible Gaia sahuang Pata-Mon
BeatmapID:1432727
BeatmapSetID:667097

[Difficulty]
HPDrainRate:5
CircleSize:4
OverallDifficulty:6.5
ApproachRate:8.2
SliderMultiplier:1.5
SliderTickRate:1

[Events]
//Background and Video events
0,0,"bg.jpg",0,0
//Break Periods
//Storyboard Layer 0 (Background)
//Storyboard Layer 1 (Fail)
//Storyboard Layer 2 (Pass)
//Storyboard Layer 3 (Foreground)
//Storyboard Sound Samples

[TimingPoints]
159,300,6,2,29,50,1,0
159,-125,6,2,29,50,0,0
7359,-111.111111111111,6,2,29,50,0,0
14559,-100,6,2,29,70,0,0
28959,320,6,2,29,50,1,0
28959,-125,6,2,29,50,0,0
29279,333.333333333333,6,2,29,30,1,0
29612,380.952380952381,6,2,29,30,1,0
29612,-158.730158730159,6,2,29,30,0,0
29992,424.778761061947,6,2,29,30,1,0
30416,500,6,2,29,30,1,0
30416,-200,6,2,29,30,0,0
30916,-200,6,2,29,30,0,0
31916,300,6,2,29,30,1,0
31916,-166.666666666667,6,2,29,30,0,0
46316,-100,6,2,29,50,0,0
60716,-125,6,2,29,50,0,0
75116,-166.666666666667,6,2,29,50,0,0
82316,-100,6,2,29,70,0,0
89516,-100,6,2,29,80,0,1
103841,-100,6,2,29,80,0,0
103916,-100,6,2,29,80,0,1
117416,-125,6,2,29,80,0,0

[Colours]
Combo1 : 231,148,248
Combo2 : 242,126,184
Combo3 : 252,155,84
Combo4 : 255,255,142
Combo5 : 143,242,130
Combo6 : 151,220,248

[HitObjects]
187,190,159,6,0,P|181:133|217:85,1,120,8|0,0:0|0:0,0:0:0:0:
295,85,609,2,0,P|334:151|302:216,1,120,8|0,0:0|0:0,0:0:0:0:
256,153,1059,1,8,0:0:0:0:
178,17,1359,1,8,0:0:0:0:
334,17,1659,1,8,0:0:0:0:
256,153,1959,6,0,L|256:89,1,60,8|0,0:0|0:0,0:0:0:0:
295,221,2259,2,0,L|363:260,1,60,2|0,0:0|0:0,0:0:0:0:
217,221,2559,2,0,L|149:260,1,60,2|0,0:0|0:0,0:0:0:0:
256,289,2859,1,8,0:0:0:0:
178,153,3159,1,10,0:0:0:0:
334,153,3459,1,10,0:0:0:0:
217,357,3759,6,0,P|178:291|210:226,1,120,8|0,0:0|0:0,0:0:0:0:
325,252,4209,2,0,P|331:309|295:357,1,120,8|0,0:0|0:0,0:0:0:0:
256,289,4659,1,2,0:0:0:0:
334,153,4959,1,8,0:0:0:0:
178,153,5259,1,8,0:0:0:0:
256,17,5559,6,0,L|256:81,1,60,8|8,0:0|0:1,0:0:0:0:
256,116,5784,1,8,0:1:0:0:
256,116,5859,2,0,L|256:148,3,30,8|8|8|8,0:1|0:1|0:1|0:1,0:0:0:0:
256,185,6159,1,8,0:0:0:0:
256,263,6309,1,8,0:0:0:0:
256,341,6459,2,0,P|294:350|329:348,1,60,8|0,0:0|0:0,0:0:0:0:
369,293,6759,2,0,L|379:232,2,40,8|8|8,0:1|0:1|0:1,0:0:0:0:
392,339,7059,2,0,L|402:400,2,40,8|8|8,0:1|0:1|0:1,0:0:0:0:
444,321,7359,5,10,0:0:0:0:
461,241,7509,2,0,P|461:208|456:164,1,67.4999979400635,2|0,0:0|0:0,0:0:0:0:
397,119,7809,1,2,0:0:0:0:
380,199,7959,2,0,P|379:231|385:276,1,67.4999979400635,2|0,0:0|0:0,0:0:0:0:
397,119,8259,2,0,L|296:131,1,101.249996910095,10|0,0:0|0:0,0:0:0:0:
235,50,8559,2,0,L|296:131,1,101.249996910095,10|0,0:0|0:0,0:0:0:0:
256,224,8859,2,0,L|296:130,1,101.249996910095,10|0,0:0|0:0,0:0:0:0:
397,119,9159,5,10,0:0:0:0:
418,197,9309,2,0,P|401:244|306:259,1,134.999995880127,2|2,0:0|0:0,0:0:0:0:
256,224,9759,2,0,P|226:222|170:234,1,67.4999979400635,2|0,0:0|0:0,0:0:0:0:
114,259,10059,2,0,L|99:132,1,101.249996910095,10|0,0:0|0:0,0:0:0:0:
74,62,10359,2,0,L|59:189,1,101.249996910095,10|0,0:0|0:0,0:0:0:0:
34,259,10659,2,0,L|19:132,1,101.249996910095,10|0,0:0|0:0,0:0:0:0:
74,62,10959,5,10,0:0:0:0:
151,87,11109,2,0,P|195:87|235:77,1,67.4999979400635,2|0,0:0|0:0,0:0:0:0:
268,146,11409,1,2,0:0:0:0:
191,171,11559,2,0,P|147:171|107:161,1,67.4999979400635,2|0,0:0|0:0,0:0:0:0:
268,146,11859,2,0,L|280:247,1,101.249996910095,10|0,0:0|0:0,0:0:0:0:
199,308,12159,2,0,L|280:247,1,101.249996910095,10|0,0:0|0:0,0:0:0:0:
373,287,12459,2,0,L|279:247,1,101.249996910095,10|0,0:0|0:0,0:0:0:0:
268,146,12759,5,10,0:0:0:0:
305,74,12909,2,0,P|348:159|301:220,1,134.999995880127,2|2,0:0|0:0,0:0:0:0:
268,146,13359,2,0,L|141:131,1,67.4999979400635,2|0,0:0|0:0,0:0:0:0:
164,215,13659,2,0,L|291:230,1,101.249996910095,10|0,0:0|0:0,0:0:0:0:
361,255,13959,2,0,L|234:270,1,101.249996910095,10|0,0:0|0:0,0:0:0:0:
164,295,14259,2,0,L|292:311,1,67.4999979400635,10|2,0:0|0:0,0:0:0:0:
361,255,14559,6,0,P|368:213|365:83,1,150,6|0,0:0|0:0,0:0:0:0:
336,29,15009,2,0,L|208:13,1,75,2|0,0:0|0:0,0:0:0:0:
179,9,15309,1,2,0:0:0:0:
67,92,15459,2,0,L|195:76,1,75,2|0,0:0|0:0,0:0:0:0:
235,158,15759,2,0,L|186:152,2,50,2|0|0,0:0|0:0|0:0,0:0:0:0:
272,197,16059,2,0,L|400:181,1,75,2|0,0:0|0:0,0:0:0:0:
510,169,16359,5,2,3:2:0:0:
424,102,16509,2,0,L|434:295,1,150,2|0,3:2|0:0,0:0:0:0:
510,374,16959,2,0,P|506:325|488:278,1,75,2|0,0:0|0:0,0:0:0:0:
375,312,17259,2,0,P|371:334|371:369,2,50,2|0|0,0:0|0:0|0:0,0:0:0:0:
345,265,17559,2,0,P|314:257|270:255,1,75,2|0,0:0|0:0,0:0:0:0:
137,307,17859,1,2,0:0:0:0:
219,320,18009,1,2,0:0:0:0:
213,196,18159,6,0,L|152:201,2,50,6|0|0,0:0|0:0|0:0,0:0:0:0:
260,167,18459,1,2,0:0:0:0:
122,128,18609,2,0,L|137:307,1,150,2|0,0:0|0:0,0:0:0:0:
202,108,19059,1,2,0:0:0:0:
144,49,19209,1,2,0:0:0:0:
48,135,19359,2,0,P|86:135|123:128,1,75,2|0,0:0|0:0,0:0:0:0:
276,101,19659,2,0,P|238:101|201:108,1,75,2|0,0:0|0:0,0:0:0:0:
335,158,19959,5,2,3:2:0:0:
304,23,20109,2,0,P|267:19|224:22,1,75,2|0,3:2|0:0,0:0:0:0:
335,158,20409,2,0,P|372:162|415:159,1,75,2|0,0:0|0:0,0:0:0:0:
489,137,20709,1,2,0:0:0:0:
409,242,20859,2,0,P|402:282|406:340,1,75,2|0,0:0|0:0,0:0:0:0:
489,137,21159,2,0,P|489:99|482:62,1,75,2|0,0:0|0:0,0:0:0:0:
329,183,21459,1,2,0:0:0:0:
409,160,21609,1,2,0:0:0:0:
249,206,21759,6,0,P|171:201|93:183,1,150,6|0,0:0|0:0,0:0:0:0:
123,106,22209,2,0,P|201:111|279:129,1,150,2|0,0:0|0:0,0:0:0:0:
404,192,22659,2,0,P|366:191|330:186,1,75,2|0,0:0|0:0,0:0:0:0:
319,38,22959,2,0,P|337:71|350:105,1,75,2|0,0:0|0:0,0:0:0:0:
249,206,23259,1,2,0:0:0:0:
271,126,23409,1,2,0:0:0:0:
227,286,23559,6,0,P|330:220|271:126,1,150,2|0,0:0|0:0,0:0:0:0:
169,227,24009,2,0,P|157:329|248:366,1,150,2|0,0:0|0:0,0:0:0:0:
249,206,24459,2,0,P|179:145|142:149,1,75,2|0,0:0|0:0,0:0:0:0:
72,106,24759,2,0,P|142:167|179:163,1,75,2|0,0:0|0:0,0:0:0:0:
234,75,25059,1,2,0:0:0:0:
152,85,25209,1,2,0:0:0:0:
316,65,25359,6,0,P|406:71|487:82,1,150,6|0,0:0|0:0,0:0:0:0:
377,165,25809,2,0,P|287:159|206:148,1,150,2|0,0:0|0:0,0:0:0:0:
465,78,26259,2,0,P|463:127|450:182,1,75,2|0,0:0|0:0,0:0:0:0:
370,240,26559,2,0,P|372:191|385:136,1,75,2|0,0:0|0:0,0:0:0:0:
434,292,26859,1,2,0:0:0:0:
421,374,27009,1,2,0:0:0:0:
511,262,27159,5,2,3:2:0:0:
370,240,27309,2,0,P|307:234|161:251,1,150,2|0,3:2|0:0,0:0:0:0:
101,313,27759,2,0,P|139:314|176:308,1,75,2|0,0:0|0:0,0:0:0:0:
169,174,28059,2,0,P|131:173|94:179,1,75,2|0,0:0|0:0,0:0:0:0:
221,239,28359,1,2,0:0:0:0:
210,100,28509,1,2,0:0:0:0:
95,179,28659,2,0,P|58:184|20:183,1,75,2|0,0:0|0:0,0:0:0:0:
210,100,28959,6,0,P|325:146|360:228,1,120,2|2,0:0|0:0,0:0:0:0:
229,332,29612,6,0,P|219:300|221:239,1,94.499997116089,2|2,0:0|0:0,0:0:0:0:
420,236,30416,6,0,P|401:252|356:274,1,75,2|2,0:0|0:0,0:0:0:0:
356,274,31916,6,0,P|395:256|438:217,1,89.9999972534181,2|0,0:0|0:0,0:0:0:0:
256,192,32516,1,2,0:0:0:0:
82,226,32816,2,0,P|116:255|156:274,1,89.9999972534181,2|0,0:0|0:0,0:0:0:0:
256,192,33716,6,0,L|256:64,1,89.9999972534181,2|0,0:0|0:0,0:0:0:0:
256,25,34166,1,2,0:0:0:0:
256,25,34316,1,2,0:0:0:0:
124,115,34616,2,0,L|124:243,1,89.9999972534181,2|0,0:0|0:0,0:0:0:0:
256,314,35216,2,0,L|256:250,1,44.999998626709,2|0,0:0|0:0,0:0:0:0:
256,192,35516,5,0,0:0:0:0:
124,115,35816,1,2,0:0:0:0:
124,115,36116,1,2,0:0:0:0:
256,192,36416,1,0,0:0:0:0:
388,115,36716,1,2,0:0:0:0:
388,115,37016,1,2,0:0:0:0:
256,192,37316,5,0,0:0:0:0:
124,115,37616,1,2,0:0:0:0:
256,38,37916,1,2,0:0:0:0:
388,115,38216,1,2,0:0:0:0:
388,269,38516,2,0,P|315:333|252:345,1,89.9999972534181,2|0,0:0|0:0,0:0:0:0:
189,329,39116,6,0,P|147:299|124:269,1,89.9999972534181,2|0,0:0|0:0,0:0:0:0:
256,192,39716,1,2,0:0:0:0:
388,269,40016,2,0,P|315:333|252:345,1,89.9999972534181,2|0,0:0|0:0,0:0:0:0:
256,192,40616,1,2,0:0:0:0:
388,115,40916,6,0,P|315:51|252:39,1,89.9999972534181,2|0,0:0|0:0,0:0:0:0:
277,117,41366,1,2,0:0:0:0:
277,117,41516,2,0,P|253:118|232:117,1,44.999998626709,2|0,0:0|0:0,0:0:0:0:
189,55,41816,2,0,P|147:85|124:115,1,89.9999972534181,2|0,0:0|0:0,0:0:0:0:
256,192,42416,2,0,L|256:236,1,44.999998626709,2|0,0:0|0:0,0:0:0:0:
256,313,42716,5,0,0:0:0:0:
179,181,43016,1,2,0:0:0:0:
179,181,43316,1,2,0:0:0:0:
256,313,43616,1,0,0:0:0:0:
333,181,43916,1,2,0:0:0:0:
333,181,44216,1,2,0:0:0:0:
256,313,44516,5,0,0:0:0:0:
179,181,44816,1,2,0:0:0:0:
333,181,45116,1,2,0:0:0:0:
256,49,45416,2,0,L|256:24,6,22.4999993133545,8|8|2|2|2|2|2,0:1|0:1|0:0|0:0|0:0|0:0|0:0,0:0:0:0:
256,125,46016,2,0,L|256:169,1,44.999998626709,2|2,0:0|0:0,0:0:0:0:
329,270,46316,6,0,P|235:255|160:283,1,150,6|0,0:0|0:0,0:0:0:0:
87,135,46916,2,0,P|93:79|161:34,1,75,2|0,0:0|0:0,0:0:0:0:
167,116,47216,1,2,3:2:0:0:
38,13,47366,2,0,P|3:131|42:224,1,150,2|0,3:2|0:0,0:0:0:0:
80,285,47816,2,0,P|74:229|6:184,1,75,2|0,0:0|0:0,0:0:0:0:
8,326,48116,6,0,P|80:318|168:314,1,150,2|0,0:0|0:0,0:0:0:0:
230,355,48566,1,2,0:0:0:0:
302,314,48716,2,0,P|332:313|412:320,1,75,2|0,0:0|0:0,0:0:0:0:
230,273,49016,2,0,L|230:113,1,150,2|0,0:0|0:0,0:0:0:0:
230,40,49466,1,2,0:0:0:0:
302,81,49616,2,0,P|332:81|412:75,1,75,2|0,0:0|0:0,0:0:0:0:
158,81,49916,6,0,P|83:77|8:69,1,150,2|0,0:0|0:0,0:0:0:0:
116,232,50516,2,0,P|146:232|226:226,1,75,2|0,0:0|0:0,0:0:0:0:
34,221,50816,1,2,3:2:0:0:
113,314,50966,2,0,P|188:310|263:302,1,150,2|0,3:2|0:0,0:0:0:0:
394,244,51416,2,0,P|357:242|320:242,1,75,2|0,0:0|0:0,0:0:0:0:
317,363,51716,6,0,P|354:365|391:365,1,75,2|0,0:0|0:0,0:0:0:0:
262,302,52016,1,2,3:2:0:0:
394,244,52166,2,2,P|431:242|468:242,1,75,2|2,3:2|0:0,0:0:0:0:
262,302,52466,1,2,3:2:0:0:
349,174,52616,2,0,P|354:135|350:47,1,75,8|0,0:0|0:0,0:0:0:0:
269,157,52916,1,2,0:0:0:0:
269,157,53066,1,0,0:0:0:0:
435,163,53216,1,2,0:0:0:0:
435,163,53366,1,0,0:0:0:0:
358,17,53516,6,0,P|286:9|198:5,1,150,6|0,0:0|0:0,0:0:0:0:
31,157,54116,2,0,P|83:163|156:159,1,75,2|0,0:0|0:0,0:0:0:0:
272,160,54416,1,2,3:2:0:0:
185,84,54566,2,0,L|191:282,1,150,2|0,3:2|0:0,0:0:0:0:
246,367,55016,2,0,L|249:268,1,75,2|0,0:0|0:0,0:0:0:0:
119,276,55316,6,0,P|175:315|249:291,1,150,2|0,0:0|0:0,0:0:0:0:
189,234,55766,1,2,0:0:0:0:
117,193,55916,2,0,L|35:197,1,75,2|0,0:0|0:0,0:0:0:0:
187,151,56216,2,0,L|351:159,1,150,2|0,0:0|0:0,0:0:0:0:
419,164,56666,1,2,0:0:0:0:
384,89,56816,2,0,P|383:56|410:3,1,75,2|0,0:0|0:0,0:0:0:0:
454,239,57116,6,0,P|439:308|314:315,1,150,2|0,0:0|0:0,0:0:0:0:
301,298,57566,1,2,0:0:0:0:
370,183,57716,2,0,L|374:258,1,75,2|0,0:0|0:0,0:0:0:0:
309,126,58016,1,2,3:2:0:0:
441,142,58166,1,2,3:2:0:0:
309,126,58316,2,0,L|313:51,1,75,2|0,0:0|0:0,0:0:0:0:
441,142,58616,2,0,L|445:217,1,75,2|0,0:0|0:0,0:0:0:0:
260,192,58916,6,0,P|218:188|164:190,1,75,2|0,0:0|0:0,0:0:0:0:
104,318,59216,1,2,3:2:0:0:
185,188,59366,1,2,3:2:0:0:
42,232,59516,2,0,P|84:236|138:234,1,75,2|0,0:0|0:0,0:0:0:0:
198,106,59816,2,0,P|156:102|102:104,1,75,2|0,0:0|0:0,0:0:0:0:
262,158,60116,2,0,P|286:123|311:75,1,75,2|0,0:0|0:0,0:0:0:0:
185,188,60416,1,2,0:0:0:0:
249,240,60566,1,2,0:0:0:0:
302,95,60716,6,0,P|365:89|436:98,1,120,6|0,0:0|0:0,0:0:0:0:
491,234,61316,1,2,0:0:0:0:
385,349,61616,2,0,L|282:345,1,60,2|0,0:0|0:0,0:0:0:0:
256,309,61916,1,8,0:1:0:0:
256,309,62066,1,0,0:0:0:0:
187,347,62216,2,0,L|84:351,1,60,2|0,0:0|0:0,0:0:0:0:
156,244,62516,6,0,L|259:240,1,60,8|0,0:0|0:0,0:0:0:0:
294,241,62816,1,2,0:0:0:0:
294,241,62966,2,0,L|397:245,1,60,8|0,0:1|0:0,0:0:0:0:
256,173,63266,1,2,0:0:0:0:
256,173,63416,2,0,L|256:77,1,60,8|0,0:1|0:0,0:0:0:0:
165,15,63716,2,0,L|233:54,1,60,8|0,0:1|0:0,0:0:0:0:
347,15,64016,2,0,L|279:54,1,60,8|0,0:1|0:0,0:0:0:0:
256,173,64316,6,0,L|256:301,1,120,8|0,0:0|0:0,0:0:0:0:
217,361,64766,1,8,0:1:0:0:
217,361,64916,2,0,P|185:372|135:373,1,60,2|0,0:0|0:0,0:0:0:0:
295,361,65216,2,0,P|327:372|377:373,1,60,2|0,0:0|0:0,0:0:0:0:
411,322,65516,1,8,0:1:0:0:
411,322,65666,1,2,0:0:0:0:
353,270,65816,2,0,P|324:273|296:283,1,60
469,270,66116,6,0,P|486:225|468:113,1,120,8|0,0:0|0:0,0:0:0:0:
456,80,66566,1,8,0:1:0:0:
396,130,66716,2,0,P|364:141|314:142,1,60,2|0,0:0|0:0,0:0:0:0:
264,114,67016,2,0,P|261:85|251:57,1,60,8|0,0:1|0:0,0:0:0:0:
172,3,67316,2,0,L|172:78,1,60,8|0,0:1|0:0,0:0:0:0:
80,114,67616,2,0,P|83:85|93:57,1,60,8|0,0:1|0:0,0:0:0:0:
172,141,67916,6,0,L|172:269,1,120,8|0,0:0|0:0,0:0:0:0:
172,339,68366,1,2,0:0:0:0:
298,309,68516,2,0,P|269:301|240:300,1,60,2|0,3:2|0:0,0:0:0:0:
104,300,68816,2,0,P|73:301|30:317,1,60,2|0,0:0|0:0,0:0:0:0:
172,339,69116,1,8,0:1:0:0:
172,339,69266,1,0,3:0:0:0:
172,261,69416,2,0,L|172:197,1,60,2|0,0:0|0:0,0:0:0:0:
230,110,69716,6,0,P|171:123|113:110,1,120,8|0,0:0|0:0,0:0:0:0:
276,47,70166,1,8,0:1:0:0:
308,118,70316,2,0,L|308:182,1,60,2|0,3:2|0:0,0:0:0:0:
308,256,70616,2,0,L|308:320,1,60,2|0,3:2|0:0,0:0:0:0:
240,217,70916,1,2,0:0:0:0:
240,217,71066,1,0,0:0:0:0:
376,217,71216,1,2,0:0:0:0:
376,217,71366,1,0,0:0:0:0:
184,163,71516,6,0,P|164:234|214:290,1,120,8|0,0:0|0:0,0:0:0:0:
259,141,71966,2,0,P|224:96|109:141,1,120,8|0,0:0|0:0,0:0:0:0:
240,217,72416,2,0,P|299:208|327:179,1,60,2|0,0:0|0:0,0:0:0:0:
395,132,72716,2,0,P|336:141|308:170,1,60,2|0,0:0|0:0,0:0:0:0:
451,186,73016,1,2,0:0:0:0:
470,110,73166,1,2,0:0:0:0:
376,208,73316,6,0,L|386:304,1,60,12|0,0:0|0:0,0:0:0:0:
259,141,73616,2,0,L|249:237,1,60,8|0,0:0|0:0,0:0:0:0:
376,70,73916,2,0,L|386:166,1,60,8|0,0:0|0:0,0:0:0:0:
376,208,74216,1,8,0:0:0:0:
460,119,74366,1,12,0:0:0:0:
376,208,74516,2,0,L|386:304,1,60,2|0,0:0|0:0,0:0:0:0:
454,179,74816,2,0,L|464:83,1,60,2|0,0:0|0:0,0:0:0:0:
292,133,75116,6,0,L|382:130,1,89.9999972534181,6|0,0:0|0:0,0:0:0:0:
215,136,75716,1,2,0:0:0:0:
286,271,76016,2,0,L|196:274,1,89.9999972534181,2|0,0:0|0:0,0:0:0:0:
363,268,76616,1,2,0:0:0:0:
292,133,76916,6,0,L|382:130,1,89.9999972534181,2|0,0:0|0:0,0:0:0:0:
286,271,77516,2,0,L|241:269,1,44.999998626709,2|0,0:0|0:0,0:0:0:0:
174,232,77816,2,0,L|84:235,2,89.9999972534181,2|0|2,0:0|0:0|0:0,0:0:0:0:
292,133,78716,6,0,L|382:136,1,89.9999972534181,2|0,0:0|0:0,0:0:0:0:
256,231,79316,2,0,L|256:295,1,44.999998626709,2|2,0:0|0:0,0:0:0:0:
179,287,79616,1,2,0:0:0:0:
333,287,79916,1,2,0:0:0:0:
256,155,80216,1,2,0:0:0:0:
256,155,80516,5,2,0:0:0:0:
214,302,80816,2,0,P|215:331|222:365,1,44.999998626709,2|0,0:0|0:0,0:0:0:0:
294,347,81116,2,0,P|297:325|298:303,1,44.999998626709,2|0,0:0|0:0,0:0:0:0:
256,238,81416,2,0,L|256:110,1,89.9999972534181,2|0,3:2|0:0,0:0:0:0:
256,71,81866,1,8,0:1:0:0:
256,71,81941,1,8,0:1:0:0:
256,71,82016,1,8,0:1:0:0:
322,109,82166,1,8,0:1:0:0:
190,109,82316,6,0,P|116:113|14:135,1,150,6|0,0:0|0:0,0:0:0:0:
93,284,82916,2,0,P|129:277|167:274,1,75,2|0,0:0|0:0,0:0:0:0:
260,152,83216,2,0,P|248:186|231:221,1,75,2|0,0:0|0:0,0:0:0:0:
291,363,83516,2,0,P|266:335|245:303,1,75,2|0,0:0|0:0,0:0:0:0:
153,193,83816,1,2,0:0:0:0:
231,221,83966,1,2,0:0:0:0:
89,246,84116,6,0,P|101:129|178:114,1,150,2|0,0:0|0:0,0:0:0:0:
153,193,84566,1,2,0:0:0:0:
200,125,84716,2,0,P|199:91|189:27,1,75,2|0,0:0|0:0,0:0:0:0:
153,193,85016,2,0,P|200:202|314:200,1,150,2|0,0:0|0:0,0:0:0:0:
384,190,85466,1,2,0:0:0:0:
333,125,85616,1,2,0:0:0:0:
353,267,85766,1,2,0:0:0:0:
466,178,85916,6,0,P|446:37|339:-18,1,150,2|0,0:0|0:0,0:0:0:0:
363,48,86366,1,2,0:0:0:0:
258,120,86516,2,0,P|295:125|335:125,1,75,2|0,0:0|0:0,0:0:0:0:
182,87,86816,2,0,P|159:116|139:151,1,75,2|0,0:0|0:0,0:0:0:0:
209,290,87116,2,0,P|194:255|174:220,1,75,2|0,0:0|0:0,0:0:0:0:
19,211,87416,2,0,P|56:216|96:216,1,75,2|0,0:0|0:0,0:0:0:0:
222,155,87716,6,0,P|284:145|370:155,1,150,2|0,0:0|0:0,0:0:0:0:
439,200,88166,2,0,P|516:158|526:113,1,75,2|0,0:0|0:0,0:0:0:0:
444,118,88466,1,2,0:0:0:0:
365,237,88616,2,0,P|354:301|380:344,1,75,6|0,0:0|0:0,0:0:0:0:
370,155,88916,2,0,P|320:113|249:124,1,75,2|0,0:0|0:0,0:0:0:0:
439,200,89216,2,0,P|516:158|526:113,1,75,2|0,0:0|0:0,0:0:0:0:
296,192,89516,5,6,0:0:0:0:
235,247,89666,2,0,L|143:255,1,75,2|0,0:0|0:0,0:0:0:0:
296,192,89966,1,2,0:0:0:0:
235,137,90116,2,0,L|143:129,1,75,2|0,0:0|0:0,0:0:0:0:
296,192,90416,2,0,L|392:192,1,75,10|0,0:0|0:0,0:0:0:0:
302,110,90716,2,0,P|260:118|235:137,1,75,2|0,0:0|0:0,0:0:0:0:
235,247,91016,2,0,P|286:274|353:252,1,75,2|0,0:0|0:0,0:0:0:0:
174,192,91316,5,2,3:2:0:0:
113,247,91466,2,0,L|120:362,1,75,2|0,3:2|0:0,0:0:0:0:
174,192,91766,1,0,0:0:0:0:
113,137,91916,2,0,L|120:22,1,75
113,247,92216,2,0,P|84:256|18:257,1,75,10|0,0:0|0:0,0:0:0:0:
113,137,92516,2,0,P|84:128|18:127,1,75,10|0,0:0|0:0,0:0:0:0:
174,192,92816,1,2,0:0:0:0:
256,192,92966,1,2,0:0:0:0:
317,40,93116,6,0,P|246:55|215:120,1,150,2|0,0:0|0:0,0:0:0:0:
256,192,93566,1,2,0:0:0:0:
338,192,93716,2,0,P|379:131|373:88,1,75,2|0,0:0|0:0,0:0:0:0:
215,264,94016,2,0,P|243:326|297:346,1,75,2|0,0:0|0:0,0:0:0:0:
215,120,94316,2,0,P|136:119|98:160,1,75,2|0,0:0|0:0,0:0:0:0:
256,192,94616,1,2,0:0:0:0:
297,120,94766,1,2,0:0:0:0:
174,192,94916,5,2,3:2:0:0:
297,264,95066,2,0,L|400:264,1,75,2|0,3:2|0:0,0:0:0:0:
372,120,95366,2,0,L|269:120,1,75,2|0,0:0|0:0,0:0:0:0:
174,192,95666,1,2,0:0:0:0:
297,120,95816,2,0,P|306:77|302:18,1,75,10|0,0:0|0:0,0:0:0:0:
297,264,96116,2,0,P|306:306|302:366,1,75,10|0,0:0|0:0,0:0:0:0:
174,192,96416,1,2,0:0:0:0:
256,192,96566,1,2,0:0:0:0:
92,192,96716,5,6,0:0:0:0:
133,120,96866,2,0,P|212:119|250:160,1,75,2|0,0:0|0:0,0:0:0:0:
92,192,97166,1,2,0:0:0:0:
133,264,97316,2,0,P|212:265|250:224,1,75,2|0,0:0|0:0,0:0:0:0:
92,192,97616,2,0,L|0:192,1,75,10|0,0:0|0:0,0:0:0:0:
120,337,97916,2,0,P|129:308|130:237,1,75,2|0,0:0|0:0,0:0:0:0:
133,120,98216,2,0,P|130:82|120:47,1,75,2|0,0:0|0:0,0:0:0:0:
174,192,98516,5,2,3:2:0:0:
215,120,98666,2,0,P|214:77|203:31,1,75,2|0,3:2|0:0,0:0:0:0:
174,192,98966,1,2,0:0:0:0:
215,264,99116,2,0,P|214:307|203:353,1,75,2|0,0:0|0:0,0:0:0:0:
215,120,99416,2,0,P|294:119|332:160,1,75,10|0,0:0|0:0,0:0:0:0:
215,264,99716,2,0,P|294:265|332:224,1,75,10|0,0:0|0:0,0:0:0:0:
338,192,100016,1,2,0:0:0:0:
256,193,100166,1,2,0:0:0:0:
389,127,100316,6,0,P|419:208|358:272,1,150,2|0,0:0|0:0,0:0:0:0:
307,115,100766,2,0,P|363:49|413:48,1,75,2|0,0:0|0:0,0:0:0:0:
338,192,101066,1,2,0:0:0:0:
307,269,101216,2,0,P|363:335|413:336,1,75,10|0,0:0|0:0,0:0:0:0:
338,192,101516,2,0,L|242:192,1,75,2|0,0:0|0:0,0:0:0:0:
389,257,101816,2,0,L|485:257,1,75,10|0,0:0|0:0,0:0:0:0:
389,127,102116,6,0,P|323:80|256:75,1,150,10|0,0:0|0:0,0:0:0:0:
149,161,102566,2,0,P|190:163|221:150,1,75,10|0,0:0|0:0,0:0:0:0:
256,75,102866,1,2,0:0:0:0:
174,82,103016,1,2,0:0:0:0:
68,179,103166,2,0,L|63:254,1,75,10|0,0:0|0:0,0:0:0:0:
174,82,103466,2,0,L|169:7,1,75,10|0,0:0|0:0,0:0:0:0:
149,161,103766,1,2,0:0:0:0:
256,75,103916,5,6,0:0:0:0:
333,105,104066,2,0,L|338:180,1,75,2|0,0:0|0:0,0:0:0:0:
256,75,104366,1,0,0:0:0:0:
179,105,104516,2,0,L|174:180,1,75,2|0,0:0|0:0,0:0:0:0:
256,75,104816,2,0,L|256:-33,1,75,10|0,0:0|0:0,0:0:0:0:
333,105,105116,2,0,P|374:96|406:84,1,75,2|0,0:0|0:0,0:0:0:0:
179,105,105416,2,0,P|138:96|106:84,1,75,2|0,0:0|0:0,0:0:0:0:
256,75,105716,5,2,3:2:0:0:
333,105,105866,2,0,L|338:180,1,75,2|0,3:2|0:0,0:0:0:0:
256,75,106166,1,2,0:0:0:0:
179,105,106316,2,0,L|174:180,1,75,2|0,0:0|0:0,0:0:0:0:
297,251,106616,2,0,P|388:245|416:206,1,75,10|0,0:0|0:0,0:0:0:0:
215,251,106916,2,0,P|124:245|96:206,1,75,10|0,0:0|0:0,0:0:0:0:
338,179,107216,1,2,0:0:0:0:
174,179,107366,1,2,0:0:0:0:
256,29,107516,6,0,L|256:179,1,150,10|0,0:0|0:0,0:0:0:0:
256,261,107966,1,2,0:0:0:0:
328,302,108116,2,0,P|364:316|427:320,1,75,2|0,0:0|0:0,0:0:0:0:
184,302,108416,2,0,P|148:316|85:320,1,75,2|0,0:0|0:0,0:0:0:0:
256,186,108716,2,0,L|256:261,1,75,2|0,0:0|0:0,0:0:0:0:
189,139,109016,1,2,0:0:0:0:
323,139,109166,1,2,0:0:0:0:
256,23,109316,5,2,3:2:0:0:
189,139,109466,2,0,P|184:99|184:64,1,75,2|0,3:2|0:0,0:0:0:0:
328,64,109766,2,0,P|328:101|323:139,1,75,2|0,0:0|0:0,0:0:0:0:
256,23,110066,1,2,0:0:0:0:
184,64,110216,2,0,L|83:56,1,75,10|0,0:0|0:0,0:0:0:0:
328,64,110516,2,0,L|429:56,1,75,10|0,0:0|0:0,0:0:0:0:
256,105,110816,1,2,0:0:0:0:
256,23,110966,1,2,0:0:0:0:
256,187,111116,5,6,0:0:0:0:
184,146,111266,2,0,L|83:138,1,75,2|0,0:0|0:0,0:0:0:0:
256,187,111566,1,0,0:0:0:0:
328,146,111716,2,0,L|429:138,1,75,2|0,0:0|0:0,0:0:0:0:
256,30,112016,2,0,L|256:105,1,75,10|0,0:0|0:0,0:0:0:0:
184,220,112316,2,0,P|180:183|184:146,1,75,2|0,0:0|0:0,0:0:0:0:
328,146,112616,2,0,P|332:183|328:220,1,75,2|0,0:0|0:0,0:0:0:0:
256,343,112916,5,2,3:2:0:0:
184,302,113066,2,0,L|83:310,1,75,2|0,3:2|0:0,0:0:0:0:
256,343,113366,1,2,0:0:0:0:
328,302,113516,2,0,L|429:310,1,75,2|0,0:0|0:0,0:0:0:0:
184,228,113816,2,0,P|180:265|184:302,1,75,10|0,0:0|0:0,0:0:0:0:
328,302,114116,2,0,P|332:265|328:228,1,75,10|0,0:0|0:0,0:0:0:0:
256,105,114416,1,2,0:0:0:0:
256,187,114566,1,2,0:0:0:0:
321,54,114716,6,0,P|240:24|176:85,1,150,10|0,0:0|0:0,0:0:0:0:
333,136,115166,2,0,P|399:80|400:30,1,75,2|0,0:0|0:0,0:0:0:0:
256,105,115466,1,2,0:0:0:0:
179,136,115616,2,0,P|113:80|112:30,1,75,6|0,0:0|0:0,0:0:0:0:
256,105,115916,2,0,L|256:201,1,75,2|0,0:0|0:0,0:0:0:0:
184,221,116216,1,2,0:0:0:0:
328,221,116366,1,2,0:0:0:0:
256,337,116516,6,0,L|256:262,2,75,10|0|0,0:0|0:0|0:0,0:0:0:0:
184,221,116966,1,10,0:0:0:0:
328,221,117116,1,10,0:0:0:0:
256,98,117266,1,10,0:0:0:0:
256,262,117416,1,10,0:0:0:0:
