osu file format v14

[General]
AudioFilename: audio.mp3
AudioLeadIn: 0
PreviewTime: 89516
Countdown: 0
SampleSet: Soft
StackLeniency: 0.7
Mode: 0
LetterboxInBreaks: 0
WidescreenStoryboard: 1

[Editor]
Bookmarks: -41,14559,46316,60716,70616,73691,75116,89516,103916,110516
DistanceSpacing: 0.9
BeatDivisor: 4
GridSize: 4
TimelineZoom: 1.8

[Metadata]
Title:Byakuya Gensoutan
TitleUnicode:白夜幻想譚
Artist:Shimotsuki Haruka
ArtistUnicode:霜月はるか
Creator:Chaoslitz
Version:Normal
Source:イリスのアトリエ エターナルマナ
Tags:Atelier Iris Eternal Mana Pending cup #5 Suzuki_1112 Kibbleru yf_bmp Gust 1112deng Irreversible Gaia sahuang Pata-Mon
BeatmapID:1425927
BeatmapSetID:667097

[Difficulty]
HPDrainRate:3
CircleSize:3.5
OverallDifficulty:4
ApproachRate:5
SliderMultiplier:1.1
SliderTickRate:1

[Events]
//Background and Video events
0,0,"bg.jpg",0,0
//Break Periods
2,75316,80516
//Storyboard Layer 0 (Background)
//Storyboard Layer 1 (Fail)
//Storyboard Layer 2 (Pass)
//Storyboard Layer 3 (Foreground)
//Storyboard Sound Samples

[TimingPoints]
159,300,6,2,1,70,1,0
159,-133.333333333333,6,2,1,70,0,0
1059,-133.333333333333,6,2,1,70,0,0
1359,-133.333333333333,6,2,1,70,0,0
1659,-133.333333333333,6,2,1,70,0,0
1959,-133.333333333333,6,2,1,70,0,0
1996,-133.333333333333,6,2,1,10,0,0
2109,-133.333333333333,6,2,1,70,0,0
2146,-133.333333333333,6,2,1,10,0,0
2259,-133.333333333333,6,2,1,70,0,0
2559,-133.333333333333,6,2,10,70,0,0
2709,-133.333333333333,6,2,1,70,0,0
2746,-133.333333333333,6,2,1,10,0,0
2859,-133.333333333333,6,2,1,70,0,0
3759,-133.333333333333,6,2,10,70,0,0
3909,-133.333333333333,6,2,1,10,0,0
4059,-133.333333333333,6,2,1,70,0,0
4659,-133.333333333333,6,2,1,70,0,0
4959,-133.333333333333,6,2,1,70,0,0
5259,-133.333333333333,6,2,1,70,0,0
5559,-133.333333333333,6,2,1,60,0,0
6196,-133.333333333333,6,2,1,10,0,0
6309,-133.333333333333,6,2,1,60,0,0
6346,-133.333333333333,6,2,1,10,0,0
6459,-133.333333333333,6,2,1,60,0,0
7359,-133.333333333333,6,2,1,70,0,0
8259,-133.333333333333,6,2,1,70,0,0
8859,-133.333333333333,6,2,1,70,0,0
9159,-133.333333333333,6,2,1,70,0,0
9759,-133.333333333333,6,2,10,70,0,0
10059,-133.333333333333,6,2,1,70,0,0
11859,-133.333333333333,6,2,1,70,0,0
12459,-133.333333333333,6,2,1,70,0,0
13059,-133.333333333333,6,2,1,70,0,0
13359,-133.333333333333,6,2,1,70,0,0
13659,-133.333333333333,6,2,1,70,0,0
13959,-133.333333333333,6,2,1,70,0,0
14259,-133.333333333333,6,2,11,85,0,0
14559,-133.333333333333,6,2,2,80,0,0
19059,-133.333333333333,6,2,2,80,0,0
19959,-133.333333333333,6,2,2,80,0,0
21759,-133.333333333333,6,2,3,85,0,0
21777,-133.333333333333,6,2,2,85,0,0
28959,320,6,2,2,70,1,0
29279,333.333333333333,6,2,31,40,1,0
29612,380.952380952381,6,2,32,35,1,0
29992,424.778761061947,6,2,33,30,1,0
30416,500,6,2,34,25,1,0
30916,-133.333333333333,6,2,35,15,0,0
31916,300,6,2,2,50,1,0
31916,-133.333333333333,6,2,2,50,0,0
32966,-133.333333333333,6,2,2,10,0,0
33716,-133.333333333333,6,2,2,50,0,0
34766,-133.333333333333,6,2,2,10,0,0
35216,-133.333333333333,6,2,2,50,0,0
35516,-133.333333333333,6,2,2,50,0,0
37316,-133.333333333333,6,2,2,50,0,0
37466,-133.333333333333,6,2,2,10,0,0
37616,-133.333333333333,6,2,2,50,0,0
38366,-133.333333333333,6,2,2,10,0,0
38516,-133.333333333333,6,2,2,50,0,0
40166,-133.333333333333,6,2,2,10,0,0
40616,-133.333333333333,6,2,2,50,0,0
41966,-133.333333333333,6,2,2,10,0,0
42416,-133.333333333333,6,2,2,50,0,0
45116,-133.333333333333,6,2,1,50,0,0
45153,-133.333333333333,6,2,2,10,0,0
45416,-133.333333333333,6,2,1,60,0,0
45566,-133.333333333333,6,2,2,60,0,0
45866,-133.333333333333,6,2,1,60,0,0
46316,-133.333333333333,6,2,2,70,0,0
59516,-133.333333333333,6,2,20,70,0,0
59816,-133.333333333333,6,2,21,75,0,0
60116,-133.333333333333,6,2,20,70,0,0
60416,-133.333333333333,6,2,22,65,0,0
60566,-133.333333333333,6,2,24,65,0,0
60716,-133.333333333333,6,2,23,60,0,0
60791,-133.333333333333,6,2,2,10,0,0
61316,-133.333333333333,6,2,2,70,0,0
63716,-133.333333333333,6,2,3,70,0,0
64016,-133.333333333333,6,2,2,70,0,0
64766,-133.333333333333,6,2,3,70,0,0
64916,-133.333333333333,6,2,2,70,0,0
65516,-133.333333333333,6,2,3,70,0,0
65816,-133.333333333333,6,2,2,70,0,0
66566,-133.333333333333,6,2,3,70,0,0
66716,-133.333333333333,6,2,2,70,0,0
67391,-133.333333333333,6,2,2,10,0,0
67616,-133.333333333333,6,2,2,70,0,0
69116,-133.333333333333,6,2,3,70,0,0
69266,-133.333333333333,6,2,2,70,0,0
69416,-133.333333333333,6,2,2,70,0,0
70166,-133.333333333333,6,2,3,70,0,0
70316,-133.333333333333,6,2,2,70,0,0
72716,-133.333333333333,6,2,3,70,0,0
72866,-133.333333333333,6,2,2,70,0,0
73316,-133.333333333333,6,2,2,80,0,0
74216,-133.333333333333,6,2,2,80,0,0
74366,-133.333333333333,6,2,2,75,0,0
74516,-133.333333333333,6,2,2,70,0,0
74666,-133.333333333333,6,2,2,65,0,0
74816,-133.333333333333,6,2,2,60,0,0
75116,-133.333333333333,6,2,2,40,0,0
80516,-133.333333333333,6,2,2,50,0,0
81041,-133.333333333333,6,2,2,10,0,0
81116,-133.333333333333,6,2,2,40,0,0
81716,-133.333333333333,6,2,1,55,0,0
81866,-133.333333333333,6,2,2,55,0,0
82316,-133.333333333333,6,2,2,70,0,0
84716,-133.333333333333,6,2,10,70,0,0
84791,-133.333333333333,6,2,2,70,0,0
87716,-133.333333333333,6,2,2,70,0,0
88616,-133.333333333333,6,2,2,75,0,0
88766,-133.333333333333,6,2,2,80,0,0
88916,-133.333333333333,6,2,2,85,0,0
89066,-133.333333333333,6,2,2,90,0,0
89216,-133.333333333333,6,2,2,80,0,0
89516,-111.111111111111,6,2,2,90,0,1
90116,-111.111111111111,6,2,3,90,0,1
90266,-111.111111111111,6,2,2,90,0,1
90416,-111.111111111111,6,2,2,90,0,1
90716,-111.111111111111,6,2,2,90,0,1
91016,-111.111111111111,6,2,2,90,0,1
91316,-111.111111111111,6,2,2,90,0,1
91916,-111.111111111111,6,2,3,90,0,1
92066,-111.111111111111,6,2,2,90,0,1
92216,-111.111111111111,6,2,3,90,0,1
92441,-111.111111111111,6,2,3,10,0,1
92516,-111.111111111111,6,2,3,90,0,1
92816,-111.111111111111,6,2,2,90,0,1
93116,-111.111111111111,6,2,2,90,0,1
93716,-111.111111111111,6,2,3,90,0,1
94016,-111.111111111111,6,2,2,90,0,1
96716,-111.111111111111,6,2,2,90,0,1
97316,-111.111111111111,6,2,3,90,0,1
97466,-111.111111111111,6,2,2,90,0,1
97616,-111.111111111111,6,2,2,90,0,1
97916,-111.111111111111,6,2,2,90,0,1
98216,-111.111111111111,6,2,2,90,0,1
98516,-111.111111111111,6,2,2,90,0,1
99116,-111.111111111111,6,2,3,90,0,1
99266,-111.111111111111,6,2,2,90,0,1
99416,-111.111111111111,6,2,3,90,0,1
100016,-111.111111111111,6,2,2,90,0,1
100916,-111.111111111111,6,2,3,90,0,1
101066,-111.111111111111,6,2,2,90,0,1
101516,-111.111111111111,6,2,3,90,0,1
101666,-111.111111111111,6,2,2,90,0,1
102116,-111.111111111111,6,2,2,90,0,1
103166,-111.111111111111,6,2,2,90,0,1
103466,-111.111111111111,6,2,2,90,0,1
103841,-111.111111111111,6,2,2,90,0,0
103916,-111.111111111111,6,2,2,90,0,1
104516,-111.111111111111,6,2,3,90,0,1
104666,-111.111111111111,6,2,2,90,0,1
104816,-111.111111111111,6,2,2,90,0,1
105116,-111.111111111111,6,2,2,90,0,1
105416,-111.111111111111,6,2,2,90,0,1
105716,-111.111111111111,6,2,2,90,0,1
106316,-111.111111111111,6,2,3,90,0,1
106466,-111.111111111111,6,2,2,90,0,1
106616,-111.111111111111,6,2,3,90,0,1
106841,-111.111111111111,6,2,3,10,0,1
106916,-111.111111111111,6,2,3,90,0,1
107216,-111.111111111111,6,2,2,90,0,1
107516,-111.111111111111,6,2,2,90,0,1
108116,-111.111111111111,6,2,3,90,0,1
108416,-111.111111111111,6,2,2,90,0,1
111116,-111.111111111111,6,2,2,90,0,1
111716,-111.111111111111,6,2,3,90,0,1
111866,-111.111111111111,6,2,2,90,0,1
112016,-111.111111111111,6,2,2,90,0,1
112316,-111.111111111111,6,2,2,90,0,1
112616,-111.111111111111,6,2,2,90,0,1
112916,-111.111111111111,6,2,2,90,0,1
113516,-111.111111111111,6,2,3,90,0,1
113666,-111.111111111111,6,2,2,90,0,1
113816,-111.111111111111,6,2,3,90,0,1
114416,-111.111111111111,6,2,2,90,0,1
114716,-111.111111111111,6,2,2,90,0,1
115166,-111.111111111111,6,2,2,90,0,1
115616,-111.111111111111,6,2,2,90,0,1
116216,-111.111111111111,6,2,2,90,0,1
116516,-111.111111111111,6,2,2,90,0,1
117416,-111.111111111111,6,2,3,95,0,0

[Colours]
Combo1 : 231,148,248
Combo2 : 242,126,184
Combo3 : 252,155,84
Combo4 : 255,255,142
Combo5 : 143,242,130
Combo6 : 151,220,248

[HitObjects]
162,228,159,6,0,L|35:241,2,123.750004720688,8|8|2,0:1|0:1|0:3,0:0:0:0:
237,277,1359,1,8,0:0:0:0:
288,202,1659,1,8,0:1:0:0:
363,256,1959,2,0,L|355:343,2,82.5000031471254,8|0|2,0:0|1:0|0:3,0:0:0:0:
372,165,2859,1,2,0:3:0:0:
452,121,3159,2,0,L|496:131,2,41.2500015735627,8|0|8,0:0|0:0|0:0,0:0:0:0:
401,45,3759,6,0,B|362:35|362:35|323:51,1,82.5000031471254,4|0,0:0|1:0,0:0:0:0:
256,113,4359,1,8,0:1:0:0:
188,51,4659,2,0,B|121:58|121:58|98:77|98:77|30:83,1,165.000006294251,2|8,0:3|0:0,0:0:0:0:
3,169,5559,2,0,P|36:279|150:268,1,247.500009441376,0|0,1:0|1:0,0:0:0:0:
222,213,6759,2,0,P|262:209|307:234,1,82.5000031471254,0|0,1:0|1:0,0:0:0:0:
369,284,7359,6,0,L|361:371,2,82.5000031471254,2|8|2,0:3|0:1|0:3,0:0:0:0:
453,251,8259,1,2,0:3:0:0:
408,171,8559,1,2,0:3:0:0:
479,115,8859,1,2,0:3:0:0:
434,35,9159,2,0,P|354:13|289:75,1,165.000006294251,0|2,1:0|0:3,0:0:0:0:
256,142,10059,1,0,1:0:0:0:
178,94,10359,2,0,L|87:101,1,82.5000031471254,0|0,1:0|1:0,0:0:0:0:
20,150,10959,6,0,P|22:248|91:257,1,165.000006294251,2|2,0:3|1:3,0:0:0:0:
151,218,11859,1,2,3:0:0:0:
207,289,12159,2,0,L|289:281,1,82.5000031471254,2|2,0:3|0:3,0:0:0:0:
345,352,12759,2,0,P|426:363|466:292,1,165.000006294251,2|2,1:3|0:3,0:0:0:0:
403,234,13659,2,0,L|411:150,1,82.5000031471254,2|0,0:3|1:0,0:0:0:0:
419,61,14259,1,10,0:0:0:0:
337,99,14559,6,0,L|209:110,2,123.750004720688,4|2|2,0:0|0:0|0:1,0:0:0:0:
410,151,15759,2,0,L|403:234,1,82.5000031471254,4|2,0:1|0:0,0:0:0:0:
441,316,16359,2,0,P|395:358|292:322,1,165.000006294251,8|8,0:0|0:0,0:0:0:0:
256,257,17259,2,0,L|262:200,2,41.2500015735627,4|0|0,0:1|0:0|3:0,0:0:0:0:
169,283,17859,2,0,L|127:287,1,41.2500015735627,2|0,0:0|0:0,0:0:0:0:
95,255,18159,6,0,L|81:378,2,123.750004720688,4|2|4,0:0|0:0|0:1,0:0:0:0:
155,187,19359,2,0,P|130:169|70:168,1,82.5000031471254,0|2,3:0|0:1,0:0:0:0:
4,113,19959,6,0,P|1:35|39:15,1,123.750004720688,8|2,0:0|0:1,0:0:0:0:
111,63,20709,1,2,0:0:0:0:
111,63,20859,2,0,L|203:56,1,82.5000031471254,12|4,0:1|0:1,0:0:0:0:
268,108,21459,2,0,L|325:103,1,41.2500015735627,4|2,0:1|0:0,0:0:0:0:
352,90,21759,6,0,P|381:58|470:65,2,123.750004720688,6|2|6,0:1|0:1|0:1,0:0:0:0:
369,179,22959,2,0,L|375:271,1,82.5000031471254,2|4,0:1|0:1,0:0:0:0:
340,345,23559,2,0,P|282:364|226:335,1,123.750004720688,8|2,0:0|0:0,0:0:0:0:
190,254,24309,1,2,0:0:0:0:
190,254,24459,2,0,L|107:260,1,82.5000031471254,6|12,0:1|0:1,0:0:0:0:
84,172,25059,2,0,L|140:167,1,41.2500015735627,4|2,0:1|0:0,0:0:0:0:
170,165,25359,6,0,P|149:109|170:40,2,123.750004720688,4|2|6,0:0|0:1|0:1,0:0:0:0:
256,194,26559,1,2,0:0:0:0:
342,165,26859,2,0,L|398:160,1,41.2500015735627,12|2,0:1|0:0,0:0:0:0:
428,160,27159,6,0,P|474:202|452:308,1,165.000006294251,8|0,0:0|3:0,0:0:0:0:
397,360,28059,1,4,0:1:0:0:
316,318,28359,2,0,L|233:324,1,82.5000031471254,8|4,0:0|0:1,0:0:0:0:
256,192,28959,12,0,30916,0:0:0:0:
143,362,31916,6,0,P|85:364|62:258,1,165,4|2,0:1|0:0,0:0:0:0:
86,192,32816,1,2,0:0:0:0:
318,50,33716,2,0,L|309:175,1,123.750004720688,4|0,0:1|0:0,0:0:0:0:
320,217,34316,2,0,L|314:299,1,82.5000031471254,2|2,0:0|0:0,0:0:0:0:
142,360,35216,2,0,L|139:318,1,41.2500015735627,2|0,0:0|0:0,0:0:0:0:
155,276,35516,6,0,P|201:212|177:136,1,165.000006294251,4|2,0:1|0:0,0:0:0:0:
88,117,36416,2,0,P|41:181|65:257,1,165.000006294251,4|2,0:1|0:0,0:0:0:0:
155,276,37316,2,0,L|251:267,2,82.5000031471254,4|0|2,0:1|0:0|0:0,0:0:0:0:
142,365,38216,2,0,L|59:372,2,82.5000031471254,4|0|2,0:1|0:0|0:0,0:0:0:0:
233,354,39116,6,0,P|264:305|375:321,1,165.000006294251,4|0,0:1|0:0,0:0:0:0:
432,364,40016,1,2,0:0:0:0:
479,188,40616,1,2,0:0:0:0:
427,113,40915,2,0,P|365:118|303:123,1,123.750004720688,4|2,0:1|0:0,0:0:0:0:
270,154,41516,2,0,L|212:149,2,41.2500015735627,2|0|2,0:0|0:0|0:0,0:0:0:0:
136,30,42416,2,0,L|94:33,1,41.2500015735627,2|0,0:0|0:0,0:0:0:0:
50,41,42716,6,0,P|1:104|30:178,1,165.000006294251,4|2,0:1|0:0,0:0:0:0:
102,233,43616,2,0,L|188:225,2,82.5000031471254,4|2|2,0:1|0:0|0:0,0:0:0:0:
93,323,44516,2,0,L|175:315,1,82.5000031471254,4|0,0:1|0:0,0:0:0:0:
256,355,45116,1,2,0:3:0:0:
336,315,45416,2,0,B|419:323|419:323|469:296,1,123.750004720688,0|8,1:0|0:1,0:0:0:0:
493,278,46016,2,0,L|489:229,1,41.2500015735627,0|2,0:0|0:0,0:0:0:0:
505,193,46316,6,0,P|509:151|403:113,1,165.000006294251,4|2,0:0|0:0,0:0:0:0:
330,144,47216,2,0,L|325:226,2,82.5000031471254,8|2|12,0:0|3:2|0:1,0:0:0:0:
282,66,48116,2,0,P|241:50|168:86,1,123.750004720688,0|0,3:0|0:0,0:0:0:0:
144,116,48716,2,0,P|106:133|66:129,1,82.5000031471254,2|8,0:0|0:0,0:0:0:0:
0,192,49316,1,0,0:0:0:0:
66,254,49616,2,0,P|86:251|106:250,1,41.2500015735627,0|2,0:0|0:0,0:0:0:0:
145,275,49916,6,0,P|206:225|278:255,1,165.000006294251,0|2,3:0|0:0,0:0:0:0:
324,334,50816,2,0,P|396:364|457:314,1,165.000006294251,8|4,0:0|0:1,0:0:0:0:
477,226,51716,2,0,L|468:132,1,82.5000031471254,0|2,3:0|0:0,0:0:0:0:
461,53,52316,1,2,0:0:0:0:
387,106,52616,2,0,P|346:110|304:114,1,82.5000031471254,8|4,0:0|3:1,0:0:0:0:
246,184,53216,2,0,P|226:180|206:177,1,41.2500015735627,4|4,0:1|0:1,0:0:0:0:
172,147,53516,6,0,P|136:130|73:225,1,165.000006294251,4|2,0:0|0:0,0:0:0:0:
94,296,54416,2,0,L|0:307,2,82.5000031471254,8|2|12,0:0|3:2|0:1,0:0:0:0:
151,365,55316,2,0,L|289:349,1,123.750004720688,0|0,3:0|0:0,0:0:0:0:
308,321,55916,2,0,L|302:263,2,41.2500015735627,2|0|8,0:0|0:0|0:0,0:0:0:0:
387,364,56516,1,4,3:1:0:0:
474,341,56816,2,0,L|480:283,1,41.2500015735627,4|4,0:1|0:1,0:0:0:0:
495,257,57116,6,0,P|508:198|422:135,1,165.000006294251,0|2,3:0|0:0,0:0:0:0:
352,170,58016,2,0,P|320:184|258:172,1,82.5000031471254,10|2,0:0|3:2,0:0:0:0:
216,109,58616,1,12,0:1:0:0:
143,163,58916,2,0,L|54:171,1,82.5000031471254,0|10,3:0|0:0,0:0:0:0:
36,258,59516,2,0,L|77:254,1,41.2500015735627,8|8,0:0|0:0,0:0:0:0:
112,284,59816,2,0,L|153:280,1,41.2500015735627,2|2,0:0|0:0,0:0:0:0:
188,310,60116,2,0,L|229:306,1,41.2500015735627,8|8,0:0|0:0,0:0:0:0:
264,336,60416,2,0,L|305:332,2,41.2500015735627,8|8|4,0:0|0:0|0:0,0:0:0:0:
443,363,61316,5,2,0:0:0:0:
386,291,61616,2,0,P|391:253|398:210,1,82.5000031471254,2|4,0:0|0:1,0:0:0:0:
451,135,62216,1,2,3:2:0:0:
409,54,62516,2,0,P|349:27|273:83,1,165.000006294251,12|0,0:1|0:0,0:0:0:0:
242,164,63416,2,0,L|247:257,2,82.5000031471254,12|8|4,0:1|0:0|0:1,0:0:0:0:
184,93,64316,6,0,P|122:99|60:106,1,123.750004720688,12|8,0:1|0:0,0:0:0:0:
20,126,64916,2,0,P|30:161|34:183,1,41.2500015735627,4|0,0:1|0:0,0:0:0:0:
38,210,65216,2,0,P|15:246|18:294,1,82.5000031471254,4|8,0:1|0:0,0:0:0:0:
61,362,65816,1,12,0:1:0:0:
149,341,66116,2,0,P|210:334|272:327,1,123.750004720688,12|8,0:1|0:0,0:0:0:0:
312,308,66716,2,0,L|319:259,2,41.2500015735627,0|2|4,0:0|0:0|0:1,0:0:0:0:
383,363,67316,1,2,3:2:0:0:
440,293,67616,2,0,L|447:244,1,41.2500015735627,4|12,0:1|0:1,0:0:0:0:
462,209,67916,6,0,P|458:166|348:145,1,165.000006294251,12|8,0:1|0:0,0:0:0:0:
282,191,68816,2,0,L|199:199,1,82.5000031471254,2|8,0:0|0:0,0:0:0:0:
127,254,69416,2,0,P|94:248|77:247,1,41.2500015735627,4|2,0:1|0:0,0:0:0:0:
41,255,69716,2,0,P|-2:213|-1:153,1,123.750004720688,4|10,0:1|0:0,0:0:0:0:
21,113,70316,1,8,0:0:0:0:
97,64,70616,2,0,L|179:55,1,82.5000031471254,8|0,0:0|3:0,0:0:0:0:
267,34,71216,2,0,L|262:82,1,41.2500015735627,4|12,0:1|0:1,0:0:0:0:
257,120,71516,6,0,P|309:167|396:146,1,165.000006294251,12|8,0:1|0:0,0:0:0:0:
470,96,72416,2,0,L|480:193,1,82.5000031471254,4|10,0:1|0:0,0:0:0:0:
461,267,73016,2,0,P|454:289|450:315,1,41.2500015735627,0|2,0:0|0:0,0:0:0:0:
459,351,73316,6,0,P|413:301|316:335,1,165.000006294251,12|8,0:0|0:0,0:0:0:0:
245,362,74216,2,0,L|237:269,2,82.5000031471254,10|4|10,0:0|0:1|3:2,0:0:0:0:
156,339,75116,1,4,0:0:0:0:
66,348,82016,6,0,P|68:328|70:308,1,41.2500015735627,4|12,0:1|0:1,0:0:0:0:
82,263,82316,6,0,P|32:206|54:124,1,165.000006294251,4|2,0:0|0:0,0:0:0:0:
114,58,83216,2,0,L|196:51,1,82.5000031471254,0|2,3:0|0:0,0:0:0:0:
276,93,83816,2,0,L|317:89,1,41.2500015735627,4|0,0:1|0:0,0:0:0:0:
353,61,84116,2,0,P|414:42|479:120,1,165.000006294251,12|2,0:1|0:3,0:0:0:0:
443,191,85016,2,0,P|430:229|434:270,1,82.5000031471254,4|2,0:1|0:0,0:0:0:0:
465,355,85616,2,0,L|417:362,1,41.2500015735627,4|12,0:1|0:1,0:0:0:0:
379,370,85916,6,0,P|333:305|255:315,1,165.000006294251,0|10,3:0|0:0,0:0:0:0:
175,358,86816,2,0,P|146:350|88:342,1,82.5000031471254,12|4,0:1|0:1,0:0:0:0:
18,292,87416,1,4,0:1:0:0:
98,250,87716,2,0,P|127:197|114:138,1,123.750004720688,4|4,0:1|0:3,0:0:0:0:
76,112,88316,2,0,L|82:64,1,41.2500015735627,0|4,0:0|0:3,0:0:0:0:
88,25,88616,2,0,P|46:29|5:33,2,82.5000031471254,2|12|2,3:2|0:1|0:1,0:0:0:0:
168,67,89516,5,12,0:0:0:0:
168,67,89666,2,0,L|271:57,1,98.9999969787599,2|0,0:0|0:0,0:0:0:0:
306,36,90116,2,0,P|328:46|348:61,1,49.4999984893799,10|4,0:0|0:1,0:0:0:0:
379,93,90416,2,0,P|422:71|470:80,2,98.9999969787599,2|2|4,3:1|0:1|0:1,0:0:0:0:
304,141,91316,5,10,0:0:0:0:
304,141,91466,2,0,L|294:244,1,98.9999969787599,10|0,0:0|0:0,0:0:0:0:
304,283,91916,2,0,L|299:338,1,49.4999984893799,10|0,0:0|0:0,0:0:0:0:
261,356,92216,2,0,P|213:366|168:347,1,98.9999969787599,4|4,0:0|0:0,0:0:0:0:
132,265,92816,2,0,P|108:267|84:272,1,49.4999984893799,4|2,0:1|0:0,0:0:0:0:
40,279,93116,6,0,P|-17:227|0:154,1,148.49999546814,2|4,0:0|0:1,0:0:0:0:
27,133,93716,1,8,0:0:0:0:
103,176,94016,2,0,L|153:169,2,49.4999984893799,0|2|4,3:0|0:0|0:1,0:0:0:0:
123,88,94616,2,0,L|172:81,1,49.4999984893799,4|12,0:1|0:1,0:0:0:0:
212,62,94916,6,0,P|259:55|319:132,1,148.49999546814,8|2,0:0|0:0,0:0:0:0:
267,198,95666,1,2,0:0:0:0:
267,198,95816,2,0,P|276:239|279:270,1,49.4999984893799,2|4,3:2|0:1,0:0:0:0:
297,286,96116,2,0,P|293:317|287:338,1,49.4999984893799,2|4,3:2|3:1,0:0:0:0:
256,365,96416,2,0,P|226:358|193:354,1,49.4999984893799,4|2,0:1|0:0,0:0:0:0:
174,324,96716,5,12,0:0:0:0:
174,324,96866,2,0,P|112:330|56:337,1,98.9999969787599,2|0,0:0|0:0,0:0:0:0:
33,319,97316,2,0,P|22:296|17:272,1,49.4999984893799,10|4,0:0|0:1,0:0:0:0:
35,231,97616,2,0,P|31:182|27:133,2,98.9999969787599,8|2|4,3:2|0:1|0:1,0:0:0:0:
123,245,98516,5,10,0:0:0:0:
123,245,98666,2,0,P|119:196|115:147,1,98.9999969787599,10|0,0:0|0:0,0:0:0:0:
106,101,99116,2,0,P|124:86|146:74,1,49.4999984893799,10|0,0:0|0:0,0:0:0:0:
178,42,99416,2,0,P|218:68|273:61,1,98.9999969787599,4|4,0:0|0:0,0:0:0:0:
346,22,100016,2,0,L|399:27,1,49.4999984893799,4|2,0:1|0:0,0:0:0:0:
439,33,100316,6,0,P|469:66|442:170,1,148.49999546814,8|2,0:0|0:0,0:0:0:0:
414,184,100916,2,0,L|364:179,1,49.4999984893799,8|4,0:0|0:1,0:0:0:0:
320,172,101216,2,0,L|221:181,2,98.9999969787599,12|10|12,0:1|0:0|0:1,0:0:0:0:
328,260,102116,6,0,L|229:269,1,98.9999969787599,12|4,0:1|0:1,0:0:0:0:
192,295,102566,2,0,P|153:322|104:319,1,98.9999969787599,8|12,0:3|0:1,0:0:0:0:
71,290,103016,2,0,L|77:236,1,49.4999984893799,12|4,0:1|0:3,0:0:0:0:
14,180,103466,2,0,P|-7:136|7:90,1,98.9999969787599,8|2,0:3|0:0,0:0:0:0:
45,68,103916,5,12,0:0:0:0:
45,68,104066,2,0,L|143:58,1,98.9999969787599,2|0,0:0|0:0,0:0:0:0:
182,36,104516,2,0,L|235:41,1,49.4999984893799,10|4,0:0|0:1,0:0:0:0:
266,70,104816,2,0,L|251:181,2,98.9999969787599,2|2|4,3:1|0:1|0:1,0:0:0:0:
346,32,105716,5,10,0:0:0:0:
346,32,105866,2,0,P|396:23|446:61,1,98.9999969787599,10|0,0:0|0:0,0:0:0:0:
450,88,106316,2,0,L|443:137,1,49.4999984893799,10|0,0:0|0:0,0:0:0:0:
435,180,106616,2,0,P|394:218|394:273,1,98.9999969787599,4|4,0:0|0:0,0:0:0:0:
425,340,107216,2,0,L|362:348,1,49.4999984893799,4|2,0:1|0:0,0:0:0:0:
333,332,107516,6,0,P|271:373|196:345,1,148.49999546814,2|4,0:0|0:1,0:0:0:0:
173,321,108116,2,0,L|186:222,2,98.9999969787599,8|0|4,0:0|3:0|0:1,0:0:0:0:
94,363,109016,2,0,P|64:353|39:349,1,49.4999984893799,4|12,0:1|0:1,0:0:0:0:
11,322,109316,6,0,P|-7:251|50:189,1,148.49999546814,8|2,0:0|0:0,0:0:0:0:
115,155,110066,1,2,0:0:0:0:
115,155,110216,2,0,P|111:108|107:86,1,49.4999984893799,2|4,3:2|0:1,0:0:0:0:
98,62,110516,2,0,P|117:45|140:37,1,49.4999984893799,2|4,3:2|3:1,0:0:0:0:
184,31,110816,2,0,P|208:36|232:41,1,49.4999984893799,4|2,0:1|0:0,0:0:0:0:
265,71,111116,5,12,0:0:0:0:
265,71,111266,2,0,P|314:66|363:60,1,98.9999969787599,2|0,0:0|0:0,0:0:0:0:
406,49,111716,2,0,P|441:67|464:90,1,49.4999984893799,10|4,0:0|0:1,0:0:0:0:
474,109,112016,2,0,P|467:176|462:227,2,98.9999969787599,8|2|4,3:2|0:1|0:1,0:0:0:0:
389,138,112916,5,10,0:0:0:0:
389,138,113066,2,0,P|383:187|378:236,1,98.9999969787599,10|0,0:0|0:0,0:0:0:0:
388,280,113516,2,0,P|393:310|395:335,1,49.4999984893799,10|0,0:0|0:0,0:0:0:0:
366,364,113816,2,0,P|321:356|266:349,1,98.9999969787599,4|4,0:0|0:0,0:0:0:0:
180,363,114416,2,0,P|185:324|190:305,1,49.4999984893799,4|2,0:1|0:0,0:0:0:0:
213,278,114716,6,0,P|203:208|135:191,1,148.49999546814,4|2,0:1|0:0,0:0:0:0:
55,231,115466,1,12,0:1:0:0:
55,231,115616,2,0,L|65:329,2,98.9999969787599,2|0|12,3:2|3:0|0:1,0:0:0:0:
60,142,116516,6,0,P|36:143|11:152,2,49.4999984893799,6|4|4,0:1|0:1|0:1,0:0:0:0:
81,102,116966,2,0,P|132:114|180:88,1,98.9999969787599,6|12,0:1|0:1,0:0:0:0:
204,63,117416,1,6,0:1:0:0:
