osu file format v14

[General]
AudioFilename: audio.mp3
AudioLeadIn: 0
PreviewTime: 89516
Countdown: 0
SampleSet: Soft
StackLeniency: 0.7
Mode: 0
LetterboxInBreaks: 0
WidescreenStoryboard: 1

[Editor]
DistanceSpacing: 0.9
BeatDivisor: 4
GridSize: 4
TimelineZoom: 2.1

[Metadata]
Title:Byakuya Gensoutan
TitleUnicode:白夜幻想譚
Artist:Shimotsuki Haruka
ArtistUnicode:霜月はるか
Creator:Chaoslitz
Version:Kibbleru's Extra
Source:イリスのアトリエ エターナルマナ
Tags:Atelier Iris Eternal Mana Pending cup #5 Suzuki_1112 Kibbleru yf_bmp Gust 1112deng Irreversible Gaia sahuang Pata-Mon
BeatmapID:1415402
BeatmapSetID:667097

[Difficulty]
HPDrainRate:7
CircleSize:4
OverallDifficulty:8
ApproachRate:9.2
SliderMultiplier:1.7
SliderTickRate:1

[Events]
//Background and Video events
0,0,"bg.jpg",0,0
//Break Periods
//Storyboard Layer 0 (Background)
//Storyboard Layer 1 (Fail)
//Storyboard Layer 2 (Pass)
//Storyboard Layer 3 (Foreground)
//Storyboard Sound Samples

[TimingPoints]
159,300,6,3,50,40,1,0
159,-142.857142857143,6,3,50,40,0,0
1959,-125,6,3,50,50,0,0
3759,-125,6,3,50,60,0,0
6759,-100,6,3,50,50,0,0
7359,-100,6,3,50,60,0,0
8559,-200,6,3,50,60,0,0
9159,-100,6,3,50,60,0,0
10059,-83.3333333333333,6,3,50,60,0,0
10959,-100,6,3,50,60,0,0
12159,-200,6,3,50,60,0,0
12759,-100,6,3,50,60,0,0
13659,-200,6,3,50,60,0,0
13959,-71.4285714285714,6,3,50,60,0,0
14559,-100,6,2,50,70,0,0
16509,-83.3333333333333,6,2,50,50,0,0
16809,-100,6,2,50,60,0,0
17109,-100,6,2,50,70,0,0
18609,-100,6,2,50,60,0,0
18759,-100,6,2,50,70,0,0
20409,-100,6,2,50,60,0,0
20559,-100,6,2,50,70,0,0
21159,-76.9230769230769,6,2,50,70,0,0
21459,-62.5,6,2,50,70,0,0
21759,-100,6,2,50,70,0,0
22659,-100,6,2,50,60,0,0
22809,-100,6,2,50,70,0,0
24009,-100,6,2,50,60,0,0
24159,-100,6,2,50,70,0,0
25809,-100,6,2,50,60,0,0
25959,-100,6,2,50,70,0,0
27309,-125,6,2,50,70,0,0
28659,-76.9230769230769,6,2,50,70,0,0
28959,320,6,2,51,70,1,0
29279,333.333333333333,6,2,51,60,1,0
29612,380.952380952381,6,2,51,50,1,0
29992,424.778761061947,6,2,51,45,1,0
30416,500,6,2,51,40,1,0
31916,300,6,2,51,40,1,0
31916,-166.666666666667,6,2,51,40,0,0
32066,-166.666666666667,6,2,51,5,0,0
32216,-166.666666666667,6,2,51,40,0,0
33866,-166.666666666667,6,2,51,5,0,0
34016,-166.666666666667,6,2,51,40,0,0
35666,-166.666666666667,6,2,51,5,0,0
35816,-166.666666666667,6,2,51,40,0,0
36566,-166.666666666667,6,2,51,5,0,0
36716,-166.666666666667,6,2,51,40,0,0
37466,-166.666666666667,6,2,51,5,0,0
37616,-166.666666666667,6,2,51,40,0,0
38366,-166.666666666667,6,2,51,5,0,0
38516,-166.666666666667,6,2,51,40,0,0
39266,-166.666666666667,6,2,51,5,0,0
39416,-166.666666666667,6,2,51,40,0,0
41066,-166.666666666667,6,2,51,5,0,0
41216,-166.666666666667,6,2,51,40,0,0
42866,-166.666666666667,6,2,51,5,0,0
43016,-166.666666666667,6,2,51,40,0,0
43766,-166.666666666667,6,2,51,5,0,0
43916,-166.666666666667,6,2,51,40,0,0
44666,-166.666666666667,6,2,51,5,0,0
44816,-166.666666666667,6,2,51,40,0,0
45416,-100,6,2,50,60,0,0
51416,-83.3333333333333,6,2,50,60,0,0
51716,-100,6,2,50,60,0,0
60716,-200,6,2,50,60,0,0
61916,-200,6,2,50,40,0,0
62216,-125,6,2,50,60,0,0
62516,-200,6,2,50,60,0,0
63416,-100,6,2,50,60,0,0
63716,-125,6,2,50,60,0,0
64016,-166.666666666667,6,2,50,60,0,0
64316,-125,6,2,50,60,0,0
73316,-100,6,2,50,60,0,0
75116,-100,6,2,50,50,0,0
75191,-100,6,2,51,50,0,0
76916,-83.3333333333333,6,2,51,50,0,0
77516,-125,6,2,51,50,0,0
80216,-200,6,2,51,40,0,0
80816,-83.3333333333333,6,2,51,40,0,0
81416,-100,6,2,50,70,0,0
82016,-76.9230769230769,6,2,50,70,0,0
82316,-83.3333333333333,6,3,50,70,0,1
82616,-100,6,3,50,70,0,1
89516,-125,6,3,50,60,0,0
93116,-90.9090909090909,6,3,50,70,0,1
96716,-125,6,3,50,60,0,0
100316,-90.9090909090909,6,3,50,70,0,1
103916,-125,6,3,50,60,0,0
107516,-90.9090909090909,6,3,50,70,0,1
111116,-125,6,3,50,60,0,0
114716,-90.9090909090909,6,3,50,70,0,1
117416,-90.9090909090909,6,3,50,60,0,0

[Colours]
Combo1 : 242,30,30
Combo2 : 210,209,216
Combo3 : 131,133,150
Combo4 : 149,157,255
Combo5 : 40,57,215
Combo6 : 205,89,234
Combo7 : 255,176,211

[HitObjects]
0,136,159,6,0,P|37:169|109:174,1,118.999996368408,0|2,0:0|0:1,0:0:0:0:
170,125,609,2,0,P|209:101|283:110,1,118.999996368408,0|0,0:0|0:0,0:0:0:0:
331,173,1059,2,0,P|337:201|337:231,1,59.4999981842042,2|0,0:1|0:0,0:0:0:0:
359,94,1359,2,0,P|383:77|411:67,1,59.4999981842042,0|0,0:0|0:0,0:0:0:0:
279,108,1659,2,0,P|252:94|229:75,1,59.4999981842042
156,118,1959,5,2,0:2:0:0:
156,118,2109,1,2,0:2:0:0:
88,67,2259,2,0,P|119:111|115:196,1,136,0|2,0:0|0:1,0:0:0:0:
134,339,2709,1,2,0:2:0:0:
134,339,2859,2,0,P|137:305|151:274,1,68,2|0,0:1|0:0,0:0:0:0:
273,183,3159,2,0,P|241:196|208:200,1,68
70,142,3459,2,0,P|97:162|117:189,1,68
208,200,3759,86,0,P|277:204|338:145,1,136,4|0,0:2|0:0,0:0:0:0:
384,106,4209,1,0,0:0:0:0:
438,166,4359,2,0,P|450:197|450:231,1,68
301,83,4659,2,0,P|288:51|288:17,1,68,2|2,0:1|0:2,0:0:0:0:
327,165,4959,2,0,P|305:191|276:208,1,68
384,106,5259,2,0,P|417:111|446:127,1,68
482,201,5559,5,4,0:0:0:0:
446,274,5709,1,8,0:0:0:0:
421,262,5784,1,8,0:0:0:0:
394,258,5859,1,8,0:0:0:0:
367,260,5934,1,8,0:0:0:0:
342,269,6009,1,8,0:0:0:0:
319,285,6084,1,8,0:0:0:0:
302,306,6159,1,8,0:0:0:0:
219,335,6309,1,8,0:0:0:0:
147,282,6459,1,8,0:0:0:0:
153,193,6609,1,8,0:0:0:0:
229,143,6759,86,0,P|237:170|239:198,2,56.6666666666667,8|8|8,0:0|0:0|0:0,0:0:0:0:
68,236,7059,2,0,P|59:263|57:291,2,56.6666666666667,8|8|8,0:0|0:0|0:0,0:0:0:0:
168,277,7359,21,2,0:2:0:0:
168,277,7509,2,0,P|174:315|174:361,1,85,2|8,0:2|0:0,0:0:0:0:
357,198,7809,1,2,0:2:0:0:
357,198,7959,2,0,P|350:236|350:282,1,85,2|8,0:2|0:0,0:0:0:0:
228,125,8259,2,0,P|239:165|244:207,1,85,2|2,0:2|0:2,0:0:0:0:
244,207,8484,1,2,0:2:0:0:
244,207,8559,6,0,L|253:138,1,63.75,2|0,0:2|0:0,0:0:0:0:
451,247,8859,2,0,L|459:177,1,63.75,4|0,0:0|0:0,0:0:0:0:
376,50,9159,85,2,0:2:0:0:
376,50,9309,2,0,P|364:90|360:133,1,85,2|8,0:2|0:0,0:0:0:0:
133,118,9609,1,8,0:0:0:0:
133,118,9684,1,8,0:0:0:0:
133,118,9759,2,0,P|144:158|148:201,1,85,2|0,0:2|0:0,0:0:0:0:
257,67,10059,6,0,P|251:91|250:117,3,50.9999984436036,8|8|8|8,0:0|0:0|0:0|0:0,0:0:0:0:
25,92,10359,2,0,P|30:116|31:142,3,50.9999984436036,8|8|8|8,0:0|0:0|0:0|0:0,0:0:0:0:
94,251,10659,1,8,0:0:0:0:
96,235,10734,1,8,0:0:0:0:
98,219,10809,1,8,0:0:0:0:
195,197,10959,85,2,0:2:0:0:
195,197,11109,2,0,P|202:238|201:281,1,85,2|8,0:2|0:0,0:0:0:0:
407,151,11409,1,2,0:2:0:0:
407,151,11559,2,0,P|399:192|400:235,1,85,2|8,0:2|0:0,0:0:0:0:
277,68,11859,2,0,P|287:109|292:158,1,85,2|0,0:2|0:0,0:0:0:0:
301,297,12159,5,8,0:0:0:0:
304,275,12234,1,2,0:2:0:0:
307,254,12309,1,2,0:2:0:0:
179,199,12459,2,0,L|188:136,1,63.75,8|0,0:0|0:0,0:0:0:0:
64,160,12759,85,2,0:2:0:0:
64,160,12909,2,0,P|75:200|79:243,1,85,2|8,0:2|0:0,0:0:0:0:
307,78,13209,1,2,0:2:0:0:
307,78,13359,2,0,P|295:118|291:161,1,85,8|0,0:0|0:0,0:0:0:0:
214,318,13659,38,0,P|211:286|202:255,1,63.75,4|0,0:2|0:0,0:0:0:0:
174,239,13959,6,0,B|198:219|246:218|286:258|286:258|323:296|384:313|420:274|420:274|374:289|332:263,1,356.999989105225,2|0,0:2|0:0,0:0:0:0:
385,187,14559,70,0,P|303:182|248:250,1,170,4|0,1:2|0:0,0:0:0:0:
99,205,15009,1,2,0:0:0:0:
91,185,15084,1,2,0:0:0:0:
90,163,15159,1,2,0:0:0:0:
185,172,15309,1,0,0:0:0:0:
35,295,15459,2,0,P|84:293|153:350,1,127.5,10|0,0:0|0:0,0:0:0:0:
233,298,15759,2,0,P|244:272|248:244,2,56.6666666666667,2|2|2,1:2|0:0|0:0,0:0:0:0:
339,290,16059,2,0,L|423:286,1,85,2|0,1:2|0:0,0:0:0:0:
479,174,16359,5,2,1:0:0:0:
383,139,16509,2,0,L|380:194,3,50.9999984436036,2|2|2|2,0:1|0:1|0:1|0:1,0:0:0:0:
282,183,16809,2,0,L|280:130,2,42.5,2|2|2,0:1|0:1|0:1,0:0:0:0:
282,183,17109,1,0,0:0:0:0:
178,159,17259,1,8,0:3:0:0:
152,157,17334,1,8,0:3:0:0:
126,155,17409,1,4,0:3:0:0:
352,63,17559,85,2,0:0:0:0:
185,165,17709,1,2,0:0:0:0:
354,267,17859,1,2,1:2:0:0:
185,165,18009,1,2,0:0:0:0:
393,179,18159,5,2,0:0:0:0:
403,165,18234,1,2,0:0:0:0:
413,150,18309,2,0,P|331:162|268:109,1,170,2|10,0:0|0:2,0:0:0:0:
190,248,18759,2,0,P|193:205|184:164,1,85,0|8,0:0|0:3,0:0:0:0:
271,300,19059,1,0,1:2:0:0:
99,213,19209,1,2,0:0:0:0:
260,96,19359,1,2,1:2:0:0:
260,96,19509,1,0,1:2:0:0:
99,213,19659,2,0,L|56:210,2,42.5,2|2|2,0:1|0:1|0:1,0:0:0:0:
323,222,19959,85,0,1:0:0:0:
323,222,20109,2,0,P|241:211|180:268,1,170,2|8,0:1|0:0,0:0:0:0:
5,227,20559,2,0,P|-4:183|7:132,1,85,2|0,0:0|0:0,0:0:0:0:
99,213,20859,6,0,L|90:281,3,42.5,4|0|0|0,0:3|0:0|0:0|0:0,0:0:0:0:
198,197,21159,86,0,L|227:258,3,55.2499974708558,8|0|0|0,0:3|0:0|0:0|0:0,0:0:0:0:
246,108,21459,6,0,L|322:127,3,68,2|2|2|2,1:2|0:0|0:0|0:0,0:0:0:0:
480,196,21759,86,0,B|401:175|406:240|313:220,1,170,4|0,1:2|0:0,0:0:0:0:
317,221,22134,1,0,0:0:0:0:
317,221,22209,1,0,0:0:0:0:
345,124,22359,2,0,P|353:82|350:39,1,85,2|2,0:0|0:0,0:0:0:0:
456,288,22659,2,0,P|448:329|451:372,1,85,8|0,0:0|0:0,0:0:0:0:
442,173,22959,1,8,0:3:0:0:
364,230,23109,1,2,1:2:0:0:
275,200,23259,1,2,1:2:0:0:
275,200,23559,6,0,P|208:153|126:167,1,170,2|0,1:2|0:0,0:0:0:0:
94,260,24009,2,0,P|105:300|106:343,1,85,10|0,0:0|1:0,0:0:0:0:
189,246,24309,1,2,1:2:0:0:
125,166,24459,86,0,P|113:125|112:82,1,85,8|8,0:3|0:3,0:0:0:0:
399,82,24759,2,0,P|398:125|387:166,1,85,4|4,0:3|0:3,0:0:0:0:
257,128,25059,1,0,1:2:0:0:
257,128,25209,1,0,1:2:0:0:
377,293,25359,6,0,P|318:234|235:229,1,170,4|0,1:2|0:0,0:0:0:0:
61,255,25809,2,0,P|49:191|53:166,1,85,10|0,0:0|1:0,0:0:0:0:
142,204,26109,1,2,1:2:0:0:
127,99,26259,86,0,L|44:80,1,85,2|0,1:2|0:0,0:0:0:0:
385,99,26559,2,0,L|467:80,1,85,2|0,1:2|1:0,0:0:0:0:
256,56,26859,1,2,0:0:0:0:
256,168,27009,1,2,0:0:0:0:
256,280,27159,1,2,0:1:0:0:
380,339,27309,6,0,P|355:275|355:208,1,136,2|0,0:1|0:0,0:0:0:0:
165,230,27759,2,0,P|163:260|156:302,1,68,0|0,1:0|1:0,0:0:0:0:
76,188,28059,2,0,P|53:211|22:232,1,68,4|4,0:3|0:3,0:0:0:0:
85,88,28359,2,0,P|51:81|17:70,1,68,2|0,0:0|0:0,0:0:0:0:
192,149,28584,1,2,0:0:0:0:
176,132,28659,22,0,L|256:126,4,55.2499974708558,0|0|0|0|2,0:0|0:0|0:0|0:0|0:0,0:0:0:0:
314,83,29279,1,2,0:0:0:0:
431,146,29612,1,2,0:0:0:0:
436,282,29992,1,2,0:0:0:0:
315,329,30416,1,2,0:0:0:0:
183,250,30916,1,2,0:0:0:0:
256,172,31916,22,0,L|252:121,1,50.9999984436036
487,177,32216,69,2,0:0:0:0:
413,131,32516,1,2,0:0:0:0:
413,217,32816,1,2,0:0:0:0:
256,236,33716,70,0,L|259:185,1,50.9999984436036
25,241,34016,21,2,0:0:0:0:
99,195,34316,1,2,0:0:0:0:
99,281,34616,1,2,0:0:0:0:
256,304,35216,1,0,0:0:0:0:
256,304,35516,54,0,L|252:253,1,50.9999984436036
412,134,35816,37,2,0:0:0:0:
437,212,36116,1,2,0:0:0:0:
256,236,36416,70,0,L|259:185,1,50.9999984436036
75,212,36716,21,2,0:0:0:0:
100,134,37016,1,2,0:0:0:0:
256,304,37316,54,0,L|252:253,1,50.9999984436036
437,216,37616,37,2,0:0:0:0:
412,138,37916,1,2,0:0:0:0:
256,236,38216,70,0,L|259:185,1,50.9999984436036
75,152,38516,21,2,0:0:0:0:
100,74,38816,1,2,0:0:0:0:
256,172,39116,22,0,L|252:121,1,50.9999984436036
487,177,39416,69,2,0:0:0:0:
413,131,39716,1,2,0:0:0:0:
413,217,40016,1,2,0:0:0:0:
256,236,40916,70,0,L|259:185,1,50.9999984436036
25,241,41216,21,2,0:0:0:0:
99,195,41516,1,2,0:0:0:0:
99,281,41816,1,2,0:0:0:0:
256,304,42416,1,0,0:0:0:0:
256,304,42716,54,0,L|252:253,1,50.9999984436036
412,134,43016,37,2,0:0:0:0:
437,212,43316,1,2,0:0:0:0:
256,236,43616,70,0,L|259:185,1,50.9999984436036
75,212,43916,21,2,0:0:0:0:
100,134,44216,1,2,0:0:0:0:
256,304,44516,54,0,L|252:253,1,50.9999984436036
350,276,44816,37,2,0:0:0:0:
157,276,45116,1,2,0:0:0:0:
260,74,45416,54,0,P|247:114|246:159,1,85,8|0,0:3|0:0,0:0:0:0:
344,171,45641,1,0,0:0:0:0:
344,171,45716,2,0,P|339:150|336:129,2,42.5,0|0|4,0:0|0:0|0:3,0:0:0:0:
280,241,46016,1,0,0:0:0:0:
428,137,46166,1,2,0:0:0:0:
273,56,46316,6,0,P|251:56|230:52,3,42.5,4|0|0|0,1:1|0:0|0:0|0:0,0:0:0:0:
139,19,46616,2,0,L|148:103,1,85,2|0,0:0|0:0,0:0:0:0:
289,325,46916,2,0,L|279:240,1,85,2|0,0:0|0:0,0:0:0:0:
307,135,47216,85,2,0:1:0:0:
116,207,47366,1,2,0:1:0:0:
232,54,47516,5,0,0:0:0:0:
203,151,47666,1,0,0:0:0:0:
259,236,47816,1,0,0:0:0:0:
333,36,48116,86,0,P|335:64|334:92,2,56.6666666666667,2|2|2,1:2|0:0|0:0,0:0:0:0:
307,135,48416,2,0,L|391:124,1,85,2|0,0:0|0:0,0:0:0:0:
127,77,48716,2,0,L|42:87,1,85,2|2,0:0|0:1,0:0:0:0:
140,220,49016,6,0,L|143:177,2,42.5,2|2|2,0:1|0:0|0:0,0:0:0:0:
214,114,49316,1,0,0:0:0:0:
46,200,49466,1,0,0:0:0:0:
59,63,49616,85,0,0:0:0:0:
236,261,49766,1,0,0:0:0:0:
324,25,49916,6,0,L|319:90,2,56.6666666666667,4|2|2,0:3|0:0|0:0,0:0:0:0:
307,176,50216,1,2,0:0:0:0:
154,33,50516,1,0,0:0:0:0:
98,242,50816,86,0,P|95:199|91:157,1,85,8|2,0:0|0:1,0:0:0:0:
59,63,51116,1,0,0:0:0:0:
41,328,51416,2,0,P|97:279|171:279,1,152.999995330811,4|0,0:3|0:0,0:0:0:0:
302,348,51716,6,0,L|250:343,3,42.5,2|2|2|0,1:2|0:0|0:0|0:0,0:0:0:0:
167,378,52016,1,2,0:1:0:0:
261,243,52166,2,0,L|356:236,1,85,2|0,0:1|0:0,0:0:0:0:
261,243,52466,1,0,0:0:0:0:
328,58,52616,85,8,0:3:0:0:
165,68,52766,1,0,0:0:0:0:
151,166,52916,5,4,0:3:0:0:
352,176,53066,1,4,0:3:0:0:
366,274,53216,85,0,1:2:0:0:
127,284,53366,1,0,1:2:0:0:
252,352,53516,6,0,L|256:224,1,127.5,4|0,1:1|0:0,0:0:0:0:
244,202,53816,2,0,L|338:194,1,85,2|0,0:0|0:0,0:0:0:0:
84,88,54116,2,0,L|0:95,1,85,2|0,0:0|0:0,0:0:0:0:
71,183,54416,85,2,0:1:0:0:
262,102,54566,1,2,0:1:0:0:
155,232,54716,5,0,0:0:0:0:
167,140,54866,1,0,0:0:0:0:
179,48,55016,1,0,0:0:0:0:
434,182,55316,86,0,P|405:180|367:169,2,56.6666666666667,2|2|2,1:2|0:0|0:0,0:0:0:0:
350,154,55616,2,0,L|359:258,1,85,2|0,0:0|0:0,0:0:0:0:
72,172,55916,2,0,L|64:87,1,85,2|2,0:0|0:1,0:0:0:0:
214,181,56216,5,2,0:1:0:0:
214,181,56366,1,2,0:0:0:0:
147,256,56516,85,0,0:0:0:0:
216,80,56666,1,0,1:2:0:0:
275,258,56816,1,0,0:0:0:0:
216,80,56966,1,0,1:2:0:0:
332,56,57116,6,0,P|334:84|330:112,2,56.6666666666667,2|2|2,1:2|0:0|0:0,0:0:0:0:
317,138,57416,2,0,L|415:129,1,85,2|0,0:0|1:2,0:0:0:0:
118,145,57716,2,0,L|33:152,1,85,2|0,0:0|0:0,0:0:0:0:
144,290,58016,85,2,0:1:0:0:
144,290,58166,1,2,0:1:0:0:
340,297,58316,2,0,P|295:227|214:211,1,170,2|4,0:0|0:3,0:0:0:0:
144,290,58766,1,0,0:0:0:0:
108,134,58916,6,0,P|113:161|115:194,2,56.6666666666667,2|2|2,1:2|0:0|0:0,0:0:0:0:
14,87,59216,1,2,0:1:0:0:
222,222,59366,1,2,0:1:0:0:
200,123,59516,85,4,0:3:0:0:
105,206,59666,1,4,0:3:0:0:
201,307,59816,2,0,P|200:264|205:222,1,85,4|0,1:0|0:0,0:0:0:0:
98,14,60116,2,0,P|98:56|93:98,1,85,2|0,1:2|0:0,0:0:0:0:
97,246,60416,5,2,0:0:0:0:
200,123,60566,1,2,0:0:0:0:
298,264,60716,22,0,P|382:258|434:185,1,170,4|0,1:2|0:0,0:0:0:0:
335,171,61616,2,0,L|250:163,1,85,2|8,0:0|0:3,0:0:0:0:
173,192,62066,1,8,0:3:0:0:
10,136,62216,2,0,L|14:186,3,34,4|2|0|2,0:3|0:0|1:0|0:0,0:0:0:0:
98,93,62516,6,0,L|90:220,1,127.5,2|8,1:2|0:3,0:0:0:0:
53,314,63116,1,2,0:0:0:0:
53,314,63266,1,2,1:2:0:0:
53,314,63416,6,0,L|154:336,1,85,8|0,0:3|0:0,0:0:0:0:
120,214,63716,2,0,L|206:209,1,68,8|0,0:0|0:0,0:0:0:0:
64,125,64016,2,0,L|125:106,1,50.9999984436036,4|0,0:3|0:0,0:0:0:0:
338,159,64316,6,0,P|309:217|311:295,1,136,2|0,1:2|1:2,0:0:0:0:
324,66,64766,1,8,0:0:0:0:
222,112,64916,2,0,P|229:78|228:44,1,68,2|8,0:0|0:3,0:0:0:0:
13,124,65216,2,0,P|60:79|133:74,1,136,2|8,1:2|0:0,0:0:0:0:
96,246,65666,1,0,0:0:0:0:
97,159,65816,2,0,P|130:166|163:184,1,68,2|0,1:2|0:0,0:0:0:0:
254,262,66116,86,0,L|250:126,1,136,2|0,1:2|1:2,0:0:0:0:
339,198,66566,1,8,0:0:0:0:
431,172,66716,2,0,P|426:206|423:240,1,68,2|8,0:0|0:3,0:0:0:0:
355,98,67016,2,0,P|421:90|466:41,1,136,2|8,1:2|0:0,0:0:0:0:
250,126,67466,1,0,0:0:0:0:
276,30,67616,1,0,1:2:0:0:
326,194,67766,1,2,0:0:0:0:
148,107,67916,5,8,0:3:0:0:
148,120,68016,1,8,0:3:0:0:
149,134,68116,1,8,0:3:0:0:
150,147,68216,1,0,1:2:0:0:
50,137,68366,1,8,0:2:0:0:
250,126,68516,2,0,L|317:124,1,68,2|0,0:1|0:0,0:0:0:0:
350,268,68816,2,0,P|296:228|224:231,1,136,2|0,1:2|1:2,0:0:0:0:
399,175,69266,1,2,0:1:0:0:
268,317,69416,1,2,0:0:0:0:
268,317,69566,1,0,0:0:0:0:
125,209,69716,86,0,P|135:241|136:282,1,68,2|0,1:2|0:0,0:0:0:0:
198,139,70016,1,0,1:2:0:0:
47,259,70166,1,8,0:0:0:0:
219,332,70316,1,2,0:1:0:0:
219,332,70616,6,0,P|230:300|234:266,1,68,2|0,1:2|0:0,0:0:0:0:
139,135,70916,2,0,P|160:160|188:180,1,68,8|0,0:0|0:0,0:0:0:0:
352,164,71216,2,0,P|318:170|287:183,1,68,2|0,1:2|0:0,0:0:0:0:
329,271,71516,86,0,P|395:277|447:325,1,136,2|0,1:2|1:2,0:0:0:0:
465,131,71966,2,0,P|453:163|450:196,1,68,10|0,0:0|0:0,0:0:0:0:
142,56,72416,6,0,L|209:47,1,68,2|0,1:2|0:0,0:0:0:0:
357,151,72716,2,0,L|289:159,1,68,10|2,0:0|0:1,0:0:0:0:
310,28,73016,1,2,1:2:0:0:
190,177,73166,1,2,0:0:0:0:
325,340,73316,22,0,P|327:297|333:255,1,85,4|0,1:2|0:0,0:0:0:0:
100,236,73616,2,0,P|97:193|91:151,1,85,4|0,0:3|0:0,0:0:0:0:
376,164,73916,2,0,P|378:121|384:79,1,85,4|0,0:3|0:0,0:0:0:0:
35,64,74216,5,0,1:2:0:0:
288,120,74366,1,4,0:0:0:0:
0,153,74516,1,0,1:2:0:0:
0,153,74666,1,0,1:2:0:0:
194,106,74816,2,0,L|199:154,3,42.5,4|2|2|0,0:3|0:0|0:0|0:0,0:0:0:0:
388,261,75116,5,4,1:1:0:0:
288,120,75416,1,2,0:0:0:0:
288,120,75716,1,2,0:0:0:0:
223,274,76016,5,0,0:0:0:0:
302,212,76316,1,2,0:0:0:0:
302,212,76616,1,2,0:0:0:0:
128,309,76916,86,0,P|126:284|123:259,2,50.9999984436036
196,177,77216,1,2,0:0:0:0:
401,256,77516,2,0,P|402:222|407:188,1,68,2|0,0:0|0:0,0:0:0:0:
332,118,77816,1,0,0:0:0:0:
498,233,78116,1,2,0:0:0:0:
498,233,78416,1,2,0:0:0:0:
401,256,78716,6,0,L|327:250,1,68
252,300,79016,1,2,0:0:0:0:
252,300,79316,1,2,0:0:0:0:
61,67,79616,86,0,L|135:61,1,68
210,111,79916,1,2,0:0:0:0:
308,76,80216,2,0,P|298:117|296:159,1,85
473,195,80816,6,0,P|492:127|388:155,1,203.999993774414
387,222,81266,1,0,0:0:0:0:
456,333,81416,6,0,P|456:312|459:290,3,42.5,2|0|0|0,0:1|0:0|0:0|0:0,0:0:0:0:
291,199,81716,2,0,P|293:220|293:241,1,42.5,2|0,0:1|0:0,0:0:0:0:
304,360,81866,1,8,0:3:0:0:
313,346,81941,1,8,0:3:0:0:
322,332,82016,6,0,P|294:332|267:336,1,55.2499974708558,8|0,0:3|0:0,0:0:0:0:
432,189,82166,2,0,P|459:192|486:193,1,55.2499974708558,4|0,0:3|0:0,0:0:0:0:
339,19,82316,22,0,B|303:55|303:55|315:156,1,152.999995330811,4|0,1:2|0:0,0:0:0:0:
342,240,82616,2,0,L|242:236,1,85,2|8,0:2|0:0,0:0:0:0:
401,96,82916,1,4,0:0:0:0:
289,334,83066,1,2,0:2:0:0:
157,196,83216,5,2,0:2:0:0:
180,163,83316,1,2,0:2:0:0:
216,144,83416,1,2,0:2:0:0:
257,144,83516,1,8,0:0:0:0:
420,343,83666,1,2,0:2:0:0:
240,236,83816,1,4,0:0:0:0:
428,137,83966,1,2,0:2:0:0:
337,286,84116,86,0,L|342:196,1,85,4|0,0:1|0:0,0:0:0:0:
84,132,84416,1,2,0:2:0:0:
240,236,84566,1,8,0:0:0:0:
84,314,84716,1,2,0:1:0:0:
84,314,84866,1,2,0:2:0:0:
43,231,85016,6,0,P|105:224|157:259,1,127.5,8|0,0:0|0:0,0:0:0:0:
354,115,85316,2,0,P|311:115|274:135,1,85,4|4,0:0|0:0,0:0:0:0:
97,30,85616,2,0,P|138:34|172:59,1,85,2|0,1:2|0:0,0:0:0:0:
337,205,85916,85,8,0:0:0:0:
184,153,86066,1,2,0:2:0:0:
297,37,86216,1,2,0:2:0:0:
62,47,86366,5,4,0:0:0:0:
274,135,86516,1,2,0:2:0:0:
86,265,86666,1,2,0:2:0:0:
165,10,86816,86,0,P|164:52|161:94,1,85,8|2,0:0|0:2,0:0:0:0:
186,301,87116,2,0,P|186:258|189:216,1,85,4|2,0:0|0:2,0:0:0:0:
274,135,87416,1,2,1:2:0:0:
76,178,87566,1,2,0:2:0:0:
289,240,87716,6,0,B|375:224|365:288|449:278,1,170,2|0,1:2|0:0,0:0:0:0:
311,331,88166,1,8,0:2:0:0:
433,186,88316,1,8,0:0:0:0:
260,91,88466,1,0,0:0:0:0:
348,239,88616,86,0,P|341:197|337:154,1,85,4|0,1:2|0:0,0:0:0:0:
149,68,88916,2,0,P|155:109|159:152,1,85,0|0,1:2|0:0,0:0:0:0:
163,182,89141,1,0,0:0:0:0:
146,157,89216,1,2,0:2:0:0:
123,139,89291,1,2,0:2:0:0:
94,130,89366,1,2,0:2:0:0:
65,130,89441,1,2,0:2:0:0:
37,140,89516,1,4,0:2:0:0:
48,319,89666,54,0,L|139:308,1,68,2|0,0:2|0:0,0:0:0:0:
77,221,89966,1,2,0:2:0:0:
436,237,90116,2,0,L|345:226,1,68,2|0,0:2|0:0,0:0:0:0:
327,143,90416,5,2,0:2:0:0:
180,234,90566,1,2,0:2:0:0:
180,234,90641,1,2,0:2:0:0:
180,234,90716,1,8,0:0:0:0:
321,311,90866,1,8,0:0:0:0:
88,148,91016,85,4,0:0:0:0:
271,223,91166,1,0,0:0:0:0:
93,311,91316,1,2,0:2:0:0:
212,140,91466,6,0,P|215:107|218:73,1,68,2|0,0:2|0:0,0:0:0:0:
302,122,91766,1,2,0:2:0:0:
404,104,91916,2,0,P|400:137|397:171,1,68,2|0,0:2|0:0,0:0:0:0:
475,36,92216,85,8,0:0:0:0:
309,129,92366,1,8,0:0:0:0:
468,242,92516,1,4,0:0:0:0:
309,129,92666,1,0,0:0:0:0:
325,23,92816,5,2,1:2:0:0:
404,104,92966,1,0,1:0:0:0:
309,129,93116,22,0,P|213:121|150:188,1,187.000005706787,2|0,1:2|0:0,0:0:0:0:
253,212,93566,1,2,0:2:0:0:
402,184,93716,2,0,P|416:139|416:92,1,93.5000028533936,2|0,0:2|0:0,0:0:0:0:
206,70,94016,2,0,L|209:116,2,46.7500014266968,8|0|0,0:0|0:0|0:0,0:0:0:0:
309,129,94316,5,8,0:0:0:0:
253,212,94466,1,2,0:2:0:0:
154,197,94616,1,4,0:0:0:0:
356,223,94766,1,2,0:2:0:0:
237,373,94916,85,2,0:1:0:0:
173,297,95066,2,0,B|221:289|249:252|249:252|270:296|321:312,1,187.000005706787,2|0,0:1|0:0,0:0:0:0:
273,62,95516,2,0,P|251:102|246:149,1,93.5000028533936,8|0,0:0|0:0,0:0:0:0:
357,177,95816,5,8,0:0:0:0:
356,158,95891,1,2,0:2:0:0:
355,139,95966,1,2,0:2:0:0:
176,38,96116,1,2,0:1:0:0:
463,159,96266,1,2,0:2:0:0:
463,159,96341,1,2,0:2:0:0:
463,159,96416,86,0,L|536:155,1,46.7500014266968,2|0,1:2|0:0,0:0:0:0:
246,149,96566,2,0,L|199:151,1,46.7500014266968,2|0,1:2|0:0,0:0:0:0:
112,200,96716,1,4,0:2:0:0:
360,124,96866,54,0,P|355:157|353:191,1,68,2|0,0:2|0:0,0:0:0:0:
275,47,97166,1,2,0:2:0:0:
112,200,97316,2,0,P|110:166|105:132,1,68,2|0,0:2|0:0,0:0:0:0:
62,280,97616,5,2,0:2:0:0:
96,244,97716,1,2,0:2:0:0:
142,227,97816,1,2,0:2:0:0:
191,234,97916,1,8,0:0:0:0:
17,177,98066,85,4,0:0:0:0:
152,328,98216,1,4,0:0:0:0:
208,135,98366,1,0,0:0:0:0:
62,280,98516,1,2,0:2:0:0:
228,236,98666,6,0,L|160:228,1,68,2|0,0:2|0:0,0:0:0:0:
208,135,98966,1,2,0:2:0:0:
442,175,99116,2,0,L|509:167,1,68,2|0,0:2|0:0,0:0:0:0:
474,72,99416,85,8,0:0:0:0:
305,170,99566,1,8,0:0:0:0:
483,264,99716,1,4,0:0:0:0:
305,170,99866,1,4,0:0:0:0:
292,269,100016,5,2,1:2:0:0:
318,68,100166,1,2,1:2:0:0:
56,263,100316,22,0,P|122:200|212:206,1,187.000005706787,2|0,1:2|0:0,0:0:0:0:
403,127,100766,1,2,0:2:0:0:
308,265,100916,2,0,P|317:219|315:172,1,93.5000028533936,2|0,0:2|0:0,0:0:0:0:
157,299,101216,1,8,0:0:0:0:
212,206,101366,1,0,0:0:0:0:
135,124,101516,5,4,0:0:0:0:
320,199,101666,1,0,0:0:0:0:
157,299,101816,1,0,1:2:0:0:
157,299,102116,85,2,0:2:0:0:
228,137,102266,2,0,L|224:230,1,93.5000028533936
476,112,102566,1,0,1:2:0:0:
320,199,102716,1,8,0:0:0:0:
477,306,102866,1,4,0:0:0:0:
371,112,103016,1,4,0:2:0:0:
470,210,103166,5,2,0:2:0:0:
437,216,103466,1,2,0:2:0:0:
411,236,103766,1,2,0:2:0:0:
477,306,103916,37,2,0:2:0:0:
315,209,104066,2,0,L|318:276,1,68,2|0,0:2|0:0,0:0:0:0:
223,154,104366,1,2,0:2:0:0:
128,285,104516,2,0,L|131:217,1,68,2|0,0:2|0:0,0:0:0:0:
71,133,104816,5,0,0:0:0:0:
228,246,104966,1,2,0:2:0:0:
228,246,105041,1,2,0:2:0:0:
228,246,105116,1,8,0:0:0:0:
36,318,105266,1,8,0:0:0:0:
299,164,105416,85,4,0:0:0:0:
129,236,105566,1,0,0:0:0:0:
293,325,105716,1,2,0:2:0:0:
194,147,105866,6,0,L|189:66,1,68,2|0,0:2|0:0,0:0:0:0:
299,164,106166,1,2,0:2:0:0:
395,31,106316,2,0,L|390:98,1,68,2|0,0:2|0:0,0:0:0:0:
292,63,106616,85,8,0:0:0:0:
395,189,106766,1,0,0:0:0:0:
303,314,106916,1,4,0:0:0:0:
395,189,107066,1,0,0:0:0:0:
412,297,107216,5,2,1:2:0:0:
290,208,107366,1,2,1:2:0:0:
205,329,107516,22,0,P|127:335|54:241,1,187.000005706787,2|0,1:2|0:0,0:0:0:0:
255,193,107966,1,2,0:2:0:0:
173,132,108116,2,0,P|158:177|156:224,1,93.5000028533936,2|0,0:2|0:0,0:0:0:0:
365,218,108416,2,0,L|360:161,2,46.7500014266968,8|0|0,0:0|0:0|0:0,0:0:0:0:
265,204,108716,5,8,0:0:0:0:
265,204,108866,1,0,0:0:0:0:
448,135,109016,1,4,0:0:0:0:
265,204,109166,1,0,0:0:0:0:
405,336,109316,85,2,0:1:0:0:
419,240,109466,2,0,B|330:225|345:311|249:295,1,187.000005706787,2|0,0:1|0:0,0:0:0:0:
274,107,109916,2,0,P|259:151|257:197,1,93.5000028533936
403,374,110216,5,8,0:0:0:0:
404,355,110291,1,2,0:2:0:0:
405,336,110366,1,2,0:2:0:0:
357,166,110516,1,2,0:1:0:0:
170,238,110666,1,2,0:2:0:0:
170,238,110741,1,2,0:2:0:0:
170,238,110816,86,0,L|104:234,1,46.7500014266968,2|0,1:2|0:0,0:0:0:0:
440,232,110966,2,0,L|506:228,1,46.7500014266968,0|0,1:2|0:0,0:0:0:0:
226,319,111116,1,4,0:0:0:0:
357,166,111266,54,0,L|364:78,1,68,2|0,0:2|0:0,0:0:0:0:
226,319,111566,1,2,0:2:0:0:
164,170,111716,2,0,L|169:237,1,68,2|0,0:2|0:0,0:0:0:0:
393,258,112016,5,2,0:2:0:0:
344,265,112116,1,2,0:2:0:0:
298,248,112216,1,2,0:2:0:0:
264,212,112316,1,8,0:0:0:0:
226,319,112466,85,8,0:0:0:0:
357,166,112616,1,4,0:0:0:0:
177,134,112766,1,0,0:0:0:0:
264,212,112916,1,2,0:2:0:0:
97,244,113066,6,0,P|130:238|164:236,1,68,2|0,0:2|0:0,0:0:0:0:
151,333,113366,1,2,0:2:0:0:
424,173,113516,2,0,P|390:170|356:165,1,68,2|0,0:2|0:0,0:0:0:0:
273,96,113816,85,2,0:2:0:0:
273,96,113891,1,2,0:2:0:0:
273,96,113966,1,2,0:2:0:0:
377,261,114116,1,8,0:0:0:0:
177,254,114266,1,8,0:0:0:0:
273,96,114416,5,4,0:0:0:0:
240,187,114566,1,2,0:0:0:0:
289,269,114716,22,0,P|360:214|448:236,1,187.000005706787,2|0,1:2|0:0,0:0:0:0:
469,125,115166,1,2,0:2:0:0:
382,312,115316,1,0,1:2:0:0:
271,142,115466,1,8,0:0:0:0:
432,221,115616,6,0,L|338:213,1,93.5000028533936,4|0,0:2|1:0,0:0:0:0:
44,139,115916,2,0,L|137:131,1,93.5000028533936,4|0,0:0|1:0,0:0:0:0:
454,37,116216,2,0,L|360:29,1,93.5000028533936,8|0,0:0|0:0,0:0:0:0:
141,30,116516,85,0,1:2:0:0:
308,120,116666,1,0,1:2:0:0:
149,235,116816,1,0,1:2:0:0:
454,37,116966,5,4,1:2:0:0:
203,148,117116,1,0,1:2:0:0:
437,273,117266,85,4,1:2:0:0:
141,30,117416,1,4,1:1:0:0:
