osu file format v14

[General]
AudioFilename: audio.mp3
AudioLeadIn: 0
PreviewTime: 89516
Countdown: 0
SampleSet: Soft
StackLeniency: 0.7
Mode: 0
LetterboxInBreaks: 0
WidescreenStoryboard: 1

[Editor]
Bookmarks: 46316
DistanceSpacing: 1
BeatDivisor: 4
GridSize: 4
TimelineZoom: 3.199999

[Metadata]
Title:Byakuya Gensoutan
TitleUnicode:白夜幻想譚
Artist:Shimotsuki Haruka
ArtistUnicode:霜月はるか
Creator:Chaoslitz
Version:Irreversible's Extra
Source:イリスのアトリエ エターナルマナ
Tags:Atelier Iris Eternal Mana Pending cup #5 Suzuki_1112 Kibbleru yf_bmp Gust 1112deng Irreversible Gaia sahuang Pata-Mon
BeatmapID:1427203
BeatmapSetID:667097

[Difficulty]
HPDrainRate:6.5
CircleSize:4.5
OverallDifficulty:8
ApproachRate:9
SliderMultiplier:1.76
SliderTickRate:1

[Events]
//Background and Video events
0,0,"bg.jpg",0,0
//Break Periods
//Storyboard Layer 0 (Background)
//Storyboard Layer 1 (Fail)
//Storyboard Layer 2 (Pass)
//Storyboard Layer 3 (Foreground)
//Storyboard Sound Samples

[TimingPoints]
159,300,6,2,70,70,1,0
159,-133.333333333333,6,2,70,70,0,0
1059,-133.333333333333,6,2,70,70,0,0
1359,-133.333333333333,6,2,70,50,0,0
1659,-133.333333333333,6,2,70,30,0,0
1959,-133.333333333333,6,2,70,70,0,0
7359,-133.333333333333,6,2,70,45,0,0
9159,-125,6,2,70,55,0,0
10059,-117.647058823529,6,2,70,55,0,0
10959,-100,6,2,70,65,0,0
12759,-100,6,2,70,75,0,0
14259,-66.6666666666667,6,2,70,90,0,0
14559,-100,6,2,70,70,0,0
20859,-133.333333333333,6,2,70,40,0,0
21084,-133.333333333333,6,2,70,5,0,0
21159,-100,6,2,70,50,0,0
21384,-100,6,2,70,5,0,0
21459,-80,6,2,70,60,0,0
21684,-80,6,2,70,5,0,0
21759,-89.2857142857143,6,2,70,70,0,0
27159,-133.333333333333,6,2,70,70,0,0
28359,-153.846153846154,6,2,70,70,0,0
28659,-181.818181818182,6,2,70,70,0,0
28959,320,6,2,70,50,1,0
28959,-1000,6,2,70,50,0,0
29039,-1000,6,2,70,5,0,0
29279,333.333333333333,6,2,70,5,1,0
29612,380.952380952381,6,2,70,5,1,0
29992,424.778761061947,6,2,70,5,1,0
30416,500,6,2,70,5,1,0
31041,-100,6,2,70,5,0,0
31916,300,6,2,70,55,1,0
31916,-200,6,2,70,55,0,0
35216,-200,6,2,70,55,0,0
45041,-200,6,2,70,5,0,0
45116,-200,6,2,70,55,0,0
46316,-133.333333333333,6,2,70,65,0,0
58916,-133.333333333333,6,2,70,75,0,0
59816,-100,6,2,70,70,0,0
60716,-133.333333333333,6,2,70,70,0,0
68553,-133.333333333333,6,2,70,5,0,0
68816,-133.333333333333,6,2,70,70,0,0
68853,-133.333333333333,6,2,70,5,0,0
69116,-133.333333333333,6,2,70,70,0,0
69153,-133.333333333333,6,2,70,5,0,0
69378,-133.333333333333,6,2,70,70,0,0
74216,-133.333333333333,6,2,70,80,0,0
75116,-400,6,2,70,45,0,0
79166,-400,6,2,70,5,0,0
79316,-400,6,2,70,45,0,0
80216,-400,6,2,70,20,0,0
80816,-400,6,2,70,45,0,0
82316,-87.719298245614,6,2,70,75,0,0
86516,-100,6,2,70,70,0,0
87716,-476.190476190476,6,2,70,77,0,0
88616,-100,6,2,70,77,0,0
88916,-80,6,2,70,77,0,0
89516,-66.6666666666667,6,2,70,70,0,1
89591,-66.6666666666667,6,2,70,5,0,1
89666,-66.6666666666667,6,2,70,83,0,1
93116,-100,6,2,70,70,0,0
96041,-100,6,2,70,5,0,0
96116,-85.4700854700855,6,2,70,70,0,0
96341,-85.4700854700855,6,2,70,5,0,0
96416,-74.6268656716418,6,2,70,70,0,0
96641,-74.6268656716418,6,2,70,5,0,0
96716,-66.6666666666667,6,2,70,83,0,1
100316,-100,6,2,70,70,0,0
103916,-66.6666666666667,6,2,70,83,0,1
107516,-100,6,2,70,70,0,0
110441,-100,6,2,70,5,0,0
110516,-85.4700854700855,6,2,70,70,0,0
110741,-85.4700854700855,6,2,70,5,0,0
110816,-74.6268656716418,6,2,70,70,0,0
111041,-74.6268656716418,6,2,70,5,0,0
111116,-66.6666666666667,6,2,70,83,0,1
114716,-66.6666666666667,6,2,70,70,0,0
116516,-66.6666666666667,6,2,70,90,0,0
117416,-66.6666666666667,6,2,70,100,0,1
117453,-66.6666666666667,6,2,70,5,0,0

[Colours]
Combo1 : 253,216,104
Combo2 : 167,12,12
Combo3 : 234,234,234
Combo4 : 255,0,0
Combo5 : 255,128,0
Combo6 : 255,179,217
Combo7 : 108,227,249
Combo8 : 226,133,239

[HitObjects]
80,312,159,6,0,B|140:308|140:308|156:316|156:316|209:312,1,132.000005035401,4|0,3:1|0:0,0:0:0:0:
232,244,609,2,0,B|172:248|172:248|156:240|156:240|102:243,1,132.000005035401,4|0,3:1|0:0,0:0:0:0:
56,192,1059,6,0,B|48:172|48:172|62:129,1,66.0000025177003,8|0,3:0|0:0,0:0:0:0:
48,132,1359,2,0,B|56:112|56:112|96:92,1,66.0000025177003,8|0,3:0|0:0,0:0:0:0:
84,84,1659,2,0,B|104:76|104:76|146:90,1,66.0000025177003,8|0,3:0|0:0,0:0:0:0:
232,244,1959,101,4,3:1:0:0:
366,90,2109,1,2,0:0:0:0:
448,192,2259,2,0,L|372:188,1,66.0000025177003,8|2,0:3|0:0,0:0:0:0:
232,244,2559,2,0,L|270:242,2,33.0000012588501,0|0|2,0:0|0:0|0:0,0:0:0:0:
64,192,2859,5,4,0:1:0:0:
146,90,3009,1,2,0:0:0:0:
40,130,3159,101,8,0:3:0:0:
169,151,3309,1,2,0:0:0:0:
81,79,3459,5,4,3:1:0:0:
128,202,3609,1,2,0:0:0:0:
105,141,3759,101,2,1:0:0:0:
256,192,3834,12,0,4659,1:0:0:0:
408,142,5559,5,8,3:0:0:0:
388,244,5709,1,8,3:2:0:0:
384,244,5784,1,8,3:2:0:0:
381,244,5859,1,8,3:0:0:0:
378,244,5934,1,8,3:0:0:0:
374,245,6009,1,8,3:2:0:0:
371,245,6084,1,8,3:2:0:0:
368,245,6159,101,8,3:0:0:0:
280,192,6309,1,0,0:0:0:0:
124,244,6459,5,8,3:0:0:0:
104,142,6609,1,8,0:0:0:0:
212,244,6759,102,0,B|213:269|213:269|200:292,2,44.0000016784669,10|10|8,3:2|3:2|3:2,0:0:0:0:
232,127,7059,2,0,B|210:116|210:116|197:93,2,44.0000016784669,10|10|8,3:2|3:2|3:2,0:0:0:0:
323,204,7359,5,2,1:3:0:0:
323,204,7509,2,0,P|369:160|432:172,1,132.000005035401,2|2,1:3|0:0,0:0:0:0:
418,285,7959,2,0,P|396:253|389:221,1,66.0000025177003,8|8,3:2|3:2,0:0:0:0:
94,284,8259,38,0,P|112:258|121:226,1,66.0000025177003,8|2,3:0|0:0,0:0:0:0:
188,192,8559,2,0,P|182:159|166:130,1,66.0000025177003,8|2,1:0|0:0,0:0:0:0:
188,59,8859,2,0,P|161:40|129:31,1,66.0000025177003,2|2,1:0|0:0,0:0:0:0:
121,226,9159,69,2,1:3:0:0:
144,256,9309,2,0,P|209:265|260:208,1,140.8,2|2,1:3|0:0,0:0:0:0:
324,59,9759,2,0,P|351:38|385:29,1,70.4,8|8,3:2|3:2,0:0:0:0:
476,257,10059,54,0,P|445:278|409:288,1,74.8000014266968,8|2,3:0|0:0,0:0:0:0:
328,352,10359,2,0,P|291:345|258:327,1,74.8000014266968,8|2,1:0|0:0,0:0:0:0:
156,314,10659,2,0,P|134:283|124:247,1,74.8000014266968,2|2,1:0|0:0,0:0:0:0:
188,59,10959,53,4,1:0:0:0:
243,101,11109,2,0,P|164:125|118:58,1,176,4|2,1:0|0:0,0:0:0:0:
124,247,11559,2,0,P|72:267|24:259,1,88,8|8,3:2|3:2,0:0:0:0:
388,137,11859,70,0,P|440:117|488:125,1,88,4|2,1:0|0:0,0:0:0:0:
382,233,12159,2,0,P|433:256|461:295,1,88,12|2,1:0|0:0,0:0:0:0:
312,300,12459,2,0,P|332:352|324:400,1,88,4|2,1:0|0:0,0:0:0:0:
124,247,12759,37,4,1:0:0:0:
174,167,12909,2,0,P|90:152|33:215,1,176,4|2,1:0|0:0,0:0:0:0:
123,246,13359,2,0,L|116:334,1,88,8|8,3:2|3:2,0:0:0:0:
396,334,13659,86,0,L|388:246,1,88,4|2,1:0|0:0,0:0:0:0:
181,79,13959,2,0,L|174:167,1,88,4|2,1:0|0:0,0:0:0:0:
459,76,14259,22,0,B|439:88|439:88|304:76,1,132.000005035401,14|8,3:0|3:0,0:0:0:0:
188,304,14559,38,0,P|132:364|48:328,1,176,6|4,0:0|0:1,0:0:0:0:
174,167,15009,1,2,0:0:0:0:
369,278,15159,2,0,P|410:290|452:279,1,88,2|0,0:1|0:0,0:0:0:0:
452,68,15459,2,0,P|410:57|369:70,1,88,2|4,3:0|0:1,0:0:0:0:
230,157,15759,2,0,P|187:167|146:155,2,58.6666666666667,10|0|0,0:0|0:1|0:1,0:0:0:0:
135,50,16059,2,0,P|94:38|52:49,1,88,4|0,3:0|0:0,0:0:0:0:
112,288,16359,5,4,3:2:0:0:
112,288,16509,2,0,L|316:280,1,176,0|2,3:0|0:0,0:0:0:0:
287,281,16884,1,0,0:0:0:0:
287,281,16959,2,0,L|364:344,1,88,2|4,0:1|0:1,0:0:0:0:
317,119,17259,6,0,L|414:135,2,58.6666666666667,2|8|8,0:0|0:1|0:1,0:0:0:0:
317,119,17559,6,0,L|333:22,1,88,2|0,0:0|0:0,0:0:0:0:
162,175,17859,2,0,L|70:209,1,88,6|4,3:0|0:1,0:0:0:0:
287,281,18159,70,0,L|344:328,1,44,4|0,3:2|0:0,0:0:0:0:
408,280,18309,2,0,B|440:192|388:192|408:108,2,176,0|2|2,3:0|0:0|0:1,0:0:0:0:
191,309,19059,2,0,B|176:313|176:313|104:301,1,88,2|0,0:0|0:0,0:0:0:0:
104,128,19359,2,0,B|124:212|72:212|104:300,1,176,2|2,3:0|0:0,0:0:0:0:
24,164,19809,1,2,0:1:0:0:
188,56,19959,6,0,B|232:60|256:108|256:108|284:60|321:56,1,176,4|4,3:2|0:1,0:0:0:0:
321,327,20409,2,0,B|284:324|256:276|256:276|232:324|188:328,1,176,2|4,0:0|0:1,0:0:0:0:
488,164,20859,6,0,P|470:140|482:172,1,99.0000037765504,10|0,3:2|0:0,0:0:0:0:
488,164,21159,6,0,P|465:134|480:175,1,132,8|0,3:2|0:0,0:0:0:0:
488,164,21459,70,0,P|459:126|478:178,1,165,10|0,3:2|0:0,0:0:0:0:
340,288,21759,6,0,B|308:326|243:325|204:286|204:286|180:306|185:324,1,197.12000240625,4|2,3:2|0:0,0:0:0:0:
56,228,22209,2,0,B|24:184|36:104|36:104|48:140|72:164,1,197.12000240625,10|2,0:0|0:0,0:0:0:0:
275,231,22659,6,0,P|287:184|319:146,1,98.560001203125,10|0,3:2|0:0,0:0:0:0:
456,228,22959,2,0,P|444:275|412:313,1,98.560001203125,10|0,0:0|0:0,0:0:0:0:
99,312,23259,2,0,P|68:275|56:228,1,98.560001203125,10|0,0:0|0:0,0:0:0:0:
256,52,23559,5,4,3:2:0:0:
256,52,23709,2,0,B|400:44|400:44|320:104,2,197.12000240625,4|2|2,3:1|0:0|0:0,0:0:0:0:
56,228,24459,70,0,P|68:275|99:312,1,98.560001203125,10|0,0:0|0:0,0:0:0:0:
412,312,24759,2,0,P|443:275|456:228,1,98.560001203125,10|0,0:0|0:0,0:0:0:0:
318,146,25059,2,0,P|287:183|275:231,1,98.560001203125,10|0,0:0|0:0,0:0:0:0:
100,312,25359,6,0,P|66:269|121:305,1,197.12000240625,4|2,3:2|0:0,0:0:0:0:
0,233,25809,2,0,P|75:174|168:193,1,197.12000240625,4|2,0:1|0:0,0:0:0:0:
318,146,26259,6,0,P|374:158|430:166,1,98.560001203125,8|0,0:0|0:0,0:0:0:0:
264,268,26559,2,0,P|226:311|191:355,1,98.560001203125,8|0,0:0|0:0,0:0:0:0:
185,161,26859,1,8,0:0:0:0:
152,68,27009,1,0,0:0:0:0:
100,312,27159,5,4,0:1:0:0:
100,312,27309,2,0,L|24:320,2,66.0000025177003,2|0|2,0:0|0:0|0:0,0:0:0:0:
200,343,27759,2,0,L|276:351,1,66.0000025177003,8|2,0:0|0:0,0:0:0:0:
478,305,28059,70,0,L|412:311,1,66.0000025177003,8|0,0:0|0:0,0:0:0:0:
316,248,28359,6,0,L|372:242,1,57.1999973815919,8|2,0:0|0:0,0:0:0:0:
440,192,28660,6,0,L|390:196,1,48.4000014770508,8|2,0:0|0:0,0:0:0:0:
252,129,28959,6,0,B|240:96|256:60|256:60|273:96|262:129,1,148.9,4|2,0:0|0:0,0:0:0:0:
72,328,31916,102,0,B|41:328|41:284|89:284|89:296|89:308|105:332|132:344|164:344|184:331,1,176,8|8,0:0|0:3,0:0:0:0:
256,260,32816,1,8,0:0:0:0:
256,260,33716,38,0,B|272:208|264:156|264:156|254:164|246:176,1,132,8|8,0:3|0:0,0:0:0:0:
353,331,34316,2,0,P|397:331|445:327,1,88,8|8,0:3|0:0,0:0:0:0:
440,327,35216,70,0,L|444:275,1,44,8|8,0:3|0:3,0:0:0:0:
440,57,35516,1,8,0:0:0:0:
246,175,35816,2,0,P|285:192|328:185,1,88,8|8,0:3|0:0,0:0:0:0:
184,112,36416,2,0,B|149:140|154:189|154:189|125:150|76:153,1,176,8|8,0:3|0:3,0:0:0:0:
72,326,37316,38,0,P|64:283|83:244,1,88,8|8,0:0|0:0,0:0:0:0:
256,360,37916,1,8,0:3:0:0:
439,325,38216,2,0,P|446:283|428:243,2,88,8|8|8,0:0|0:3|0:0,0:0:0:0:
256,244,39116,69,8,0:3:0:0:
256,244,39716,1,8,0:0:0:0:
439,58,40016,1,8,0:3:0:0:
439,58,40616,1,8,0:3:0:0:
256,244,40916,38,0,B|186:238|191:270|126:260,1,132,8|8,0:0|0:3,0:0:0:0:
64,184,41516,2,0,P|47:194|62:207,1,44,8|8,0:3|0:0,0:0:0:0:
128,124,41816,70,0,B|193:114|188:146|258:141,1,132,8|8,0:3|0:0,0:0:0:0:
448,184,42416,2,0,P|464:194|449:207,1,44,8|8,0:0|0:3,0:0:0:0:
386,261,42716,37,8,0:0:0:0:
255,138,43016,2,0,P|267:96|297:65,1,88,8|4,0:0|0:3,0:0:0:0:
139,285,43616,69,8,0:0:0:0:
255,138,43916,2,0,P|237:99|202:73,1,88,8|8,0:3|0:3,0:0:0:0:
139,285,44516,38,0,B|102:294|102:294|218:302,1,154,8|0,0:0|0:0,0:0:0:0:
217,301,45116,69,8,0:0:0:0:
352,263,45416,21,8,0:0:0:0:
424,324,45566,2,0,L|420:364,2,22,4|4|4,0:1|0:1|0:1,0:0:0:0:
352,263,45866,2,0,L|348:223,2,22,4|4|4,0:1|0:1|0:1,0:0:0:0:
456,192,46166,1,4,0:0:0:0:
326,95,46316,54,0,P|263:84|212:123,2,132.000005035401,4|2|2,0:0|0:0|0:0,0:0:0:0:
163,241,47216,2,0,L|167:317,1,66.0000025177003,0|0,3:0|3:0,0:0:0:0:
63,323,47516,2,0,L|54:170,1,132.000005035401,2|8,0:0|2:0,0:0:0:0:
281,334,48116,6,0,P|217:345|166:306,1,132.000005035401,0|0,1:0|3:0,0:0:0:0:
256,192,48566,1,2,0:0:0:0:
345,306,48716,2,0,L|349:241,1,66.0000025177003,2|0,0:0|0:0,0:0:0:0:
455,191,49016,2,0,L|509:193,3,33.0000012588501,0|2|0|2,3:0|0:0|3:0|0:0,0:0:0:0:
455,191,49316,2,0,L|451:256,1,66.0000025177003,2|2,0:0|0:0,0:0:0:0:
256,192,49616,5,0,3:0:0:0:
349,241,49766,1,0,3:0:0:0:
281,50,49916,6,0,P|217:38|166:77,1,132.000005035401,2|8,1:0|0:0,0:0:0:0:
256,192,50366,1,8,3:0:0:0:
166,76,50516,2,0,L|90:72,1,66.0000025177003,2|2,0:0|0:0,0:0:0:0:
51,278,50816,70,0,P|102:316|166:305,1,132.000005035401,2|8,1:0|0:0,0:0:0:0:
256,192,51266,1,8,0:3:0:0:
281,50,51416,2,0,L|357:46,1,66.0000025177003,2|2,0:0|0:0,0:0:0:0:
460,279,51716,6,0,L|456:323,3,33.0000012588501,2|2|0|2,1:0|0:0|0:0|0:0,0:0:0:0:
460,279,52016,2,0,L|368:271,1,66.0000025177003,2|2,0:0|0:0,0:0:0:0:
256,344,52316,2,0,L|348:336,1,66.0000025177003,2|2,0:0|0:0,0:0:0:0:
236,111,52616,5,2,1:0:0:0:
196,212,52766,1,8,0:0:0:0:
168,116,52916,5,8,3:0:0:0:
182,223,53066,1,0,3:0:0:0:
108,155,53216,69,0,3:0:0:0:
173,240,53366,1,8,3:0:0:0:
96,352,53516,6,0,B|95:351|67:331|95:311|95:311|119:339|159:359|203:347|227:323,1,198.000007553101,4|8,0:0|0:0,0:0:0:0:
209,188,54116,2,0,P|173:236|173:264,1,66.0000025177003,2|2,0:0|0:0,0:0:0:0:
412,352,54416,2,0,L|396:152,1,198.000007553101,0|8,1:0|0:0,0:0:0:0:
256,60,55016,2,0,P|223:57|193:70,1,66.0000025177003,2|2,0:0|0:0,0:0:0:0:
396,154,55316,6,0,P|422:155|446:145,4,33.0000012588501,2|2|0|2|2,1:0|0:0|3:0|0:0|0:0,0:0:0:0:
256,60,55766,1,0,3:0:0:0:
172,239,55916,2,0,P|184:209|209:188,1,66.0000025177003,8|8,0:0|0:0,0:0:0:0:
351,226,56216,2,0,P|433:227|396:153,1,198.000007553101,2|8,1:0|0:0,0:0:0:0:
193,70,56816,2,0,P|223:57|256:60,1,66.0000025177003,4|2,1:0|0:0,0:0:0:0:
172,239,57116,6,0,B|24:231|24:231|72:219,1,198.000007553101,8|8,1:2|0:0,0:0:0:0:
72,218,57641,1,8,0:3:0:0:
78,225,57716,70,0,L|81:318,1,66.0000025177003,8|0,0:0|0:0,0:0:0:0:
195,135,58016,2,0,L|191:41,1,66.0000025177003,4|8,1:0|0:3,0:0:0:0:
317,249,58316,2,0,L|320:342,1,66.0000025177003,8|8,0:0|0:0,0:0:0:0:
439,165,58616,2,0,L|436:72,1,66.0000025177003,2|8,0:0|0:3,0:0:0:0:
457,291,58916,54,0,P|467:303|480:313,2,33.0000012588501,8|8|8,0:0|0:0|0:0,0:0:0:0:
254,259,59216,1,8,0:0:0:0:
439,166,59366,1,10,0:3:0:0:
345,351,59516,1,8,0:0:0:0:
312,144,59666,1,8,0:0:0:0:
166,351,59816,6,0,P|126:366|83:360,1,88,4|2,0:0|0:0,0:0:0:0:
203,191,60116,2,0,P|236:218|253:258,1,88,4|2,0:0|0:0,0:0:0:0:
46,239,60416,101,4,0:0:0:0:
112,83,60566,1,2,0:0:0:0:
79,161,60716,5,4,0:0:0:0:
79,161,61316,53,2,0:0:0:0:
239,331,61616,2,0,P|336:346|425:306,1,198.000007553101,2|8,0:0|0:0,0:0:0:0:
433,161,62216,2,0,L|433:133,6,16.5000006294251,8|0|8|0|8|0|8,0:0|0:0|0:0|0:0|0:0|0:0|0:0,0:0:0:0:
433,161,62516,54,0,P|336:147|247:187,1,198.000007553101,12|8,0:0|0:0,0:0:0:0:
88,78,63116,1,8,3:0:0:0:
70,244,63266,1,8,3:0:0:0:
79,161,63416,53,12,0:0:0:0:
317,360,63716,1,8,0:0:0:0:
371,54,64016,1,8,0:0:0:0:
440,352,64316,54,0,B|432:272|432:272|444:244|444:244|436:157,1,198.000007553101,12|8,0:0|0:0,0:0:0:0:
311,295,64916,2,0,L|319:387,1,66.0000025177003,8|8,3:0|3:0,0:0:0:0:
138,173,65216,2,0,P|108:158|75:157,1,66.0000025177003,12|0,0:0|0:0,0:0:0:0:
185,95,65516,2,0,P|175:64|153:40,1,66.0000025177003,8|0,0:0|0:0,0:0:0:0:
275,74,65816,2,0,P|289:44|290:11,1,66.0000025177003,8|0,0:0|0:0,0:0:0:0:
435,155,66116,54,0,P|353:160|390:87,1,198.000007553101,4|8,0:0|0:0,0:0:0:0:
275,74,66716,2,0,P|289:44|290:11,1,66.0000025177003,8|8,3:0|3:0,0:0:0:0:
138,173,67016,2,0,L|30:167,1,99.0000037765504,12|0,0:0|0:0,0:0:0:0:
39,167,67316,2,0,L|34:247,1,66.0000025177003,4|0,0:1|0:0,0:0:0:0:
195,360,67616,54,0,L|200:292,1,66.0000025177003,8|0,0:0|0:0,0:0:0:0:
374,173,67916,2,0,L|432:169,4,33.0000012588501,6|2|2|2|2,0:0|0:0|0:0|0:0|0:0,0:0:0:0:
104,56,68516,54,0,L|88:60,1,16.5000006294251,8|0,0:0|0:0,0:0:0:0:
256,232,68816,2,0,L|256:248,1,16.5000006294251,12|0,0:0|0:0,0:0:0:0:
408,56,69116,2,0,L|424:60,1,16.5000006294251,8|0,0:0|0:0,0:0:0:0:
408,56,69416,54,0,L|334:59,1,66.0000025177003,8|8,3:0|3:0,0:0:0:0:
160,96,69716,2,0,P|116:140|108:52,1,198.000007553101,4|8,0:0|0:0,0:0:0:0:
160,96,70316,1,0,3:0:0:0:
342,324,70616,54,0,L|408:328,1,66.0000025177003,12|0,0:0|0:0,0:0:0:0:
439,176,70916,2,0,L|373:172,1,66.0000025177003,8|0,0:0|0:0,0:0:0:0:
240,375,71216,54,0,L|236:309,1,66.0000025177003,8|8,0:0|3:0,0:0:0:0:
160,96,71516,2,0,P|98:82|53:128,1,132.000005035401,4|0,0:0|0:0,0:0:0:0:
130,341,71966,2,0,P|191:354|236:308,1,132.000005035401,8|8,0:0|3:0,0:0:0:0:
117,145,72416,2,0,L|113:210,1,66.0000025177003,12|8,0:0|3:0,0:0:0:0:
395,239,72716,54,0,L|398:173,1,66.0000025177003,12|8,0:0|3:0,0:0:0:0:
208,204,73016,1,12,0:0:0:0:
304,180,73166,1,0,0:0:0:0:
248,340,73316,53,4,0:0:0:0:
264,44,73616,1,8,0:0:0:0:
248,340,73916,1,8,0:0:0:0:
347,214,74216,101,8,0:0:0:0:
164,169,74366,1,12,0:0:0:0:
321,123,74516,5,8,0:0:0:0:
189,259,74666,1,8,0:0:0:0:
229,100,74816,101,8,0:0:0:0:
282,283,74966,1,8,0:0:0:0:
256,192,75116,53,12,0:0:0:0:
189,259,75716,69,8,0:3:0:0:
72,192,76016,1,8,0:0:0:0:
189,125,76616,37,8,0:3:0:0:
189,259,76916,1,8,0:0:0:0:
72,192,77516,69,8,0:0:0:0:
116,132,77666,1,8,0:3:0:0:
188,124,77816,1,8,0:0:0:0:
323,259,78716,38,0,P|359:267|388:264,1,66,8|0,0:3|0:0,0:0:0:0:
440,192,79316,69,8,0:0:0:0:
323,125,79466,1,8,0:0:0:0:
323,259,79616,1,8,0:3:0:0:
164,216,79916,37,8,0:3:0:0:
56,252,80216,70,0,L|100:256,1,44,8|8,0:0|0:0,0:0:0:0:
100,256,80816,38,0,P|108:188|163:215,1,154,8|4,0:3|3:0,0:0:0:0:
164,216,81941,1,4,3:0:0:0:
164,216,82016,1,4,3:0:0:0:
256,48,82166,1,8,3:0:0:0:
308,304,82316,86,0,P|399:327|459:254,1,200.639997550781,4|0,0:0|0:0,0:0:0:0:
400,100,82766,1,12,1:0:0:0:
267,215,82916,2,0,P|222:228|164:219,1,100.319998775391
48,48,83216,102,0,L|56:148,1,100.319998775391,12|0,1:0|0:0,0:0:0:0:
162,322,83516,2,0,L|170:222,1,100.319998775391,12|0,1:0|0:0,0:0:0:0:
180,108,83816,5,12,1:0:0:0:
72,260,83966,1,0,0:0:0:0:
293,335,84116,102,0,B|321:290|422:303|418:357|391:373|349:373|323:326|357:270|397:246|459:253,1,300.959996326172,12|12,1:0|1:0,0:0:0:0:
256,128,84716,2,0,L|256:72,2,50.1599993876953
72,260,85016,2,0,P|64:328|76:364,1,100.319998775391,12|0,1:0|0:0,0:0:0:0:
77,109,85316,2,0,P|24:152|7:186,1,100.319998775391,12|0,1:0|0:0,0:0:0:0:
162,322,85616,5,12,1:0:0:0:
180,108,85766,1,0,0:0:0:0:
261,252,85916,102,0,B|329:248|329:248|361:260|361:260|460:252,1,200.639997550781,12|0,1:0|0:0,0:0:0:0:
360,52,86366,1,4,1:0:0:0:
272,340,86516,2,0,P|213:363|163:324,1,132
164,324,86816,6,0,L|70:316,1,88,12|0,1:0|0:0,0:0:0:0:
288,127,87116,2,0,L|381:134,1,88,12|0,1:0|0:0,0:0:0:0:
460,252,87416,2,0,L|366:244,1,88,12|0,1:0|0:0,0:0:0:0:
224,100,87716,102,0,P|264:84|288:128,1,101.639996898193,12|0,1:0|0:0,0:0:0:0:
288,128,88616,6,0,P|263:163|220:171,1,88,12|8,1:2|0:0,0:0:0:0:
140,155,88841,1,8,0:0:0:0:
140,155,88916,2,8,P|171:111|224:99,1,110,12|8,0:0|0:0,0:0:0:0:
116,280,89216,21,8,3:0:0:0:
100,274,89291,5,8,3:0:0:0:
100,258,89366,5,8,3:0:0:0:
116,253,89441,5,8,3:0:0:0:
128,272,89516,54,0,P|131:310|136:340,1,66.0000025177003,4|0,1:0|0:0,0:0:0:0:
216,344,89666,2,0,P|340:364|423:268,1,264.000010070801,2|8,0:0|1:0,0:0:0:0:
368,36,90116,1,0,0:0:0:0:
304,264,90266,1,0,0:0:0:0:
91,106,90416,102,0,L|222:98,1,132.000005035401,8|0,1:0|0:0,0:0:0:0:
184,176,90641,1,0,0:0:0:0:
184,176,90716,2,0,L|52:183,1,132.000005035401,8|0,1:0|0:0,0:0:0:0:
216,344,91016,1,4,1:0:0:0:
422,268,91166,2,0,P|434:228|430:196,1,66.0000025177003
368,36,91316,5,12,1:0:0:0:
422,268,91466,2,0,P|340:363|215:343,1,264.000010070801,2|12,0:0|1:0,0:0:0:0:
52,184,91916,102,0,L|65:32,1,132.000005035401
215,343,92216,2,0,L|63:330,1,132.000005035401,12|0,1:0|0:0,0:0:0:0:
373,180,92516,1,12,1:0:0:0:
361,311,92666,1,0,0:0:0:0:
212,24,92817,1,12,1:0:0:0:
343,35,92967,1,2,0:0:0:0:
222,229,93116,22,0,P|136:208|52:184,1,176,4|8,0:0|3:0,0:0:0:0:
343,35,93566,1,2,0:0:0:0:
343,35,93716,6,0,P|348:80|351:127,1,88,8|8,0:0|3:0,0:0:0:0:
222,229,94016,1,10,0:0:0:0:
228,141,94166,1,0,0:0:0:0:
400,232,94316,2,0,P|381:273|360:315,1,88,8|8,3:0|0:0,0:0:0:0:
256,344,94616,1,2,0:0:0:0:
256,344,94766,1,2,0:0:0:0:
151,311,94916,6,0,P|125:226|104:141,1,176,8|8,3:0|0:0,0:0:0:0:
205,41,95366,2,0,P|292:61|376:85,1,176,8|8,3:0|0:0,0:0:0:0:
411,223,95816,6,0,P|363:274|314:322,1,132,2|0,0:0|0:0,0:0:0:0:
319,317,96116,70,0,P|294:236|274:156,1,154.440000589142,2|0,0:0|0:0,0:0:0:0:
277,168,96416,6,0,P|367:188|454:214,1,176.879991633179,2|0,0:0|0:0,0:0:0:0:
375,85,96716,85,12,1:2:0:0:
315,312,96866,2,0,P|196:351|102:266,1,264.000010070801,2|8,0:0|1:0,0:0:0:0:
128,32,97316,1,0,0:0:0:0:
101,265,97466,1,0,0:0:0:0:
244,93,97616,102,0,P|308:81|380:85,1,132.000005035401,8|0,1:0|0:0,0:0:0:0:
407,159,97841,1,0,0:0:0:0:
407,159,97916,2,0,P|343:171|271:167,1,132.000005035401,8|0,1:0|0:0,0:0:0:0:
132,36,98216,1,12,1:0:0:0:
101,265,98366,2,0,P|86:294|61:315,1,66.0000025177003,0|0,0:0|0:0,0:0:0:0:
96,128,98516,5,12,1:0:0:0:
196,312,98666,2,0,P|315:351|409:266,1,264.000010070801,2|12,0:0|1:0,0:0:0:0:
200,76,99116,102,0,B|192:116|192:116|204:164|204:164|188:224,1,132.000005035401
61,315,99416,2,0,B|50:274|50:274|62:226|62:226|54:186,1,132.000005035401,12|0,1:0|0:0,0:0:0:0:
200,76,99716,5,12,1:0:0:0:
410,265,99866,1,0,0:0:0:0:
200,312,100016,1,12,1:0:0:0:
410,123,100166,1,0,0:0:0:0:
193,204,100316,6,0,P|128:200|1:182,1,176,8|8,3:0|0:0,0:0:0:0:
18,185,100691,1,0,0:0:0:0:
18,185,100766,2,0,P|85:185|33:229,1,176,8|0,3:0|0:0,0:0:0:0:
76,76,101216,6,0,P|116:92|148:121,1,88,4|2,0:0|0:0,0:0:0:0:
264,40,101516,2,0,P|281:80|283:124,1,88,4|2,0:0|0:0,0:0:0:0:
422,147,101816,2,0,P|405:187|376:219,1,88,4|6,0:0|3:0,0:0:0:0:
308,247,102041,1,4,3:0:0:0:
308,247,102116,5,8,0:0:0:0:
264,40,102266,1,8,3:0:0:0:
200,324,102416,1,0,0:0:0:0:
48,216,102566,6,0,P|113:212|240:194,1,176,8|8,0:0|3:0,0:0:0:0:
450,154,103016,2,0,P|448:216|440:252,1,88,4|0,0:0|0:0,0:0:0:0:
244,124,103316,2,0,P|236:80|235:36,1,88,4|0,0:0|0:0,0:0:0:0:
176,328,103616,69,8,3:0:0:0:
162,337,103691,5,8,3:0:0:0:
148,328,103766,5,8,3:0:0:0:
153,312,103841,5,8,3:0:0:0:
168,312,103916,54,0,L|248:308,1,66.0000025177003,4|0,1:0|0:0,0:0:0:0:
324,348,104066,2,0,P|437:293|449:167,1,264.000010070801,2|8,0:0|1:0,0:0:0:0:
236,36,104516,1,0,0:0:0:0:
164,324,104666,1,0,0:0:0:0:
328,220,104816,102,0,L|188:208,1,132.000005035401,8|0,1:0|0:0,0:0:0:0:
56,128,105041,1,0,0:0:0:0:
56,128,105116,2,0,L|187:116,1,132.000005035401,8|0,1:0|0:0,0:0:0:0:
324,348,105416,1,12,1:0:0:0:
456,188,105566,2,0,P|464:156|456:116,1,66.0000025177003
300,92,105716,5,12,1:0:0:0:
217,285,105866,1,0,0:0:0:0:
355,229,106016,101,0,0:0:0:0:
161,147,106166,1,12,1:0:0:0:
60,282,106316,6,0,P|76:226|128:252,1,132.000005035401
324,348,106616,101,12,1:0:0:0:
448,166,106766,1,0,0:0:0:0:
272,268,106916,5,12,1:0:0:0:
315,96,107066,1,0,0:0:0:0:
204,204,107216,101,12,1:0:0:0:
189,62,107366,1,0,0:0:0:0:
78,262,107516,22,0,P|61:175|54:87,1,176,8|8,3:0|0:0,0:0:0:0:
244,376,107966,1,8,0:0:0:0:
349,244,108116,6,0,P|398:253|440:264,1,88,8|2,0:0|0:0,0:0:0:0:
328,124,108416,2,0,P|310:76|299:34,1,88,4|2,0:0|0:0,0:0:0:0:
228,212,108716,2,0,P|195:250|164:281,1,88,4|2,0:0|0:0,0:0:0:0:
140,72,109016,1,8,0:0:0:0:
140,72,109166,1,8,0:0:0:0:
52,225,109316,6,0,P|140:221|228:212,1,176,8|8,3:0|0:0,0:0:0:0:
213,377,109766,2,0,P|272:312|328:244,1,176,8|8,3:0|2:0,2:0:0:0:
448,320,110216,6,0,P|444:254|437:189,1,132,2|0,2:0|2:0,2:0:0:0:
436,188,110516,70,0,P|428:264|424:342,1,154.440000589142,2|0,2:0|2:0,2:0:0:0:
424,341,110816,6,0,P|419:252|410:165,1,176.879991633179,2|0,2:0|2:0,2:0:0:0:
368,56,111116,85,12,1:2:0:0:
255,300,111266,2,0,P|133:328|54:232,1,264.000010070801,2|8,0:0|1:0,0:0:0:0:
144,56,111716,1,0,0:0:0:0:
144,56,111866,1,0,0:0:0:0:
268,316,112016,101,8,1:0:0:0:
268,316,112091,1,0,0:0:0:0:
268,316,112166,1,0,0:0:0:0:
268,316,112241,1,0,0:0:0:0:
268,316,112316,2,0,L|416:312,1,132.000005035401,8|0,1:0|0:0,0:0:0:0:
144,56,112616,2,0,L|12:52,1,132.000005035401,12|0,1:0|0:0,0:0:0:0:
156,192,112916,5,12,1:0:0:0:
459,154,113066,2,0,P|378:57|257:87,1,264.000010070801,2|12,0:0|1:0,0:0:0:0:
294,339,113516,2,0,P|355:349|387:295,1,132.000005035401
156,192,113816,101,12,1:0:0:0:
48,340,113966,1,0,0:0:0:0:
162,157,114116,5,12,1:0:0:0:
9,259,114266,1,0,0:0:0:0:
179,127,114416,101,12,1:0:0:0:
1,171,114566,1,0,0:0:0:0:
203,26,114716,6,0,B|276:32|300:100|300:100|352:44|421:67,1,264.000010070801,4|8,1:2|0:3,0:0:0:0:
428,280,115166,2,0,B|419:331|419:331|368:316|334:252|352:188|383:153,1,264.000010070801,4|8,0:0|0:0,0:0:0:0:
196,328,115616,102,0,P|132:348|64:352,1,132.000005035401,4|2,0:0|0:0,0:0:0:0:
319,206,115916,2,0,P|369:249|428:280,1,132.000005035401,4|2,0:0|0:0,0:0:0:0:
120,132,116216,2,0,P|100:67|96:0,1,132.000005035401,4|2,0:0|0:0,0:0:0:0:
196,328,116516,6,0,P|148:364|72:272,1,198.000007553101,4|8,1:2|0:3,0:0:0:0:
120,132,116816,1,8,0:0:0:0:
427,279,116966,101,8,0:3:0:0:
448,72,117116,1,8,0:0:0:0:
427,279,117266,1,8,0:2:0:0:
256,12,117416,5,4,0:0:0:0:
