osu file format v14

[General]
AudioFilename: audio.mp3
AudioLeadIn: 0
PreviewTime: 89516
Countdown: 0
SampleSet: Soft
StackLeniency: 0.7
Mode: 0
LetterboxInBreaks: 0
WidescreenStoryboard: 1

[Editor]
Bookmarks: 159,1959,3759,5559,7359,14559,28959,31916,44516,46316,58916,60716,65066,67916,73316,75116,82316
DistanceSpacing: 0.7
BeatDivisor: 4
GridSize: 4
TimelineZoom: 3.799998

[Metadata]
Title:Byakuya Gensoutan
TitleUnicode:白夜幻想譚
Artist:Shimotsuki Haruka
ArtistUnicode:霜月はるか
Creator:Chaoslitz
Version:Gust's Insane
Source:イリスのアトリエ エターナルマナ
Tags:Atelier Iris Eternal Mana Pending cup #5 Suzuki_1112 Kibbleru yf_bmp Gust 1112deng Irreversible Gaia sahuang Pata-Mon
BeatmapID:1415401
BeatmapSetID:667097

[Difficulty]
HPDrainRate:6
CircleSize:5
OverallDifficulty:7
ApproachRate:9
SliderMultiplier:2.4
SliderTickRate:1

[Events]
//Background and Video events
0,0,"gust.jpg",0,0
//Break Periods
//Storyboard Layer 0 (Background)
//Storyboard Layer 1 (Fail)
//Storyboard Layer 2 (Pass)
//Storyboard Layer 3 (Foreground)
//Storyboard Sound Samples

[TimingPoints]
159,300,6,3,61,40,1,0
159,-100,6,3,61,40,0,1
459,-100,6,3,61,15,0,1
609,-100,6,3,61,40,0,1
909,-100,6,3,61,15,0,1
1059,-100,6,3,61,40,0,1
1809,-100,6,3,61,5,0,1
1959,-166.666666666667,6,2,61,40,0,0
2859,-166.666666666667,6,3,61,60,0,0
3609,-166.666666666667,6,3,61,15,0,0
3759,-100,6,2,0,80,0,1
3834,-100,6,3,61,40,0,0
4209,-100,6,3,61,25,0,0
4509,-100,6,3,61,15,0,0
4659,-100,6,3,61,60,0,0
5709,-100,6,3,61,40,0,0
7359,-100,6,2,61,60,0,0
14259,-80,6,2,61,60,0,0
14559,-166.666666666667,6,2,62,60,0,0
17259,-166.666666666667,6,2,62,40,0,0
17859,-166.666666666667,6,2,62,60,0,0
19359,-166.666666666667,6,2,62,30,0,0
19809,-166.666666666667,6,2,62,60,0,0
21759,-166.666666666667,6,2,62,75,0,0
28059,-166.666666666667,6,2,62,40,0,0
28209,-166.666666666667,6,2,62,80,0,0
28359,-166.666666666667,6,2,62,60,0,0
28509,-166.666666666667,6,2,62,40,0,0
28959,320,6,2,0,50,1,0
29279,333.333333333333,6,2,0,40,1,0
29612,380.952380952381,6,2,0,35,1,0
29992,424.778761061947,6,2,0,30,1,0
30416,500,6,2,0,20,1,0
31916,300,6,2,61,40,1,0
31916,-166.666666666667,6,2,61,40,0,0
45116,-166.666666666667,6,3,61,40,0,0
45566,-166.666666666667,6,2,61,40,0,0
45716,-166.666666666667,6,3,61,40,0,0
46016,-166.666666666667,6,2,61,40,0,0
46316,-125,6,2,0,60,0,0
46391,-125,6,2,63,60,0,0
53516,-125,6,2,0,60,0,0
53616,-125,6,2,63,60,0,0
59816,-125,6,2,61,60,0,0
59966,-125,6,2,63,60,0,0
60716,-300,6,2,62,60,0,0
62516,-125,6,2,64,75,0,0
67916,-125,6,2,64,25,0,0
68366,-125,6,2,64,75,0,0
72416,-100,6,2,64,80,0,0
73316,-142.857142857143,6,2,61,60,0,0
73616,-153.846153846154,6,2,61,50,0,0
73916,-166.666666666667,6,2,61,40,0,0
74216,-166.666666666667,6,3,61,40,0,0
74366,-166.666666666667,6,2,62,40,0,0
74516,-166.666666666667,6,3,61,40,0,0
75116,-250,6,2,61,40,0,0
80816,-250,6,2,61,60,0,0
81416,-250,6,3,69,60,0,0
81516,-250,6,2,61,60,0,0
81866,-250,6,2,61,40,0,0
82316,-125,6,2,61,80,0,1
82391,-125,6,2,64,80,0,1
87716,-100,6,2,64,100,0,0
88616,-100,6,2,61,100,0,0
89216,-100,6,2,64,100,0,0
89516,-166.666666666667,6,2,61,60,0,0
89591,-166.666666666667,6,2,63,60,0,0
90416,-166.666666666667,6,2,63,30,0,0
91316,-166.666666666667,6,2,63,60,0,0
92216,-166.666666666667,6,2,63,60,0,0
92366,-166.666666666667,6,2,63,30,0,0
92516,-166.666666666667,6,2,63,60,0,0
92666,-166.666666666667,6,2,63,30,0,0
92816,-166.666666666667,6,2,63,60,0,0
93116,-125,6,2,63,80,0,0
93866,-125,6,2,63,40,0,0
94166,-125,6,2,63,80,0,0
94316,-125,6,2,63,80,0,0
95816,-100,6,2,61,100,0,0
96716,-166.666666666667,6,2,0,60,0,0
96866,-166.666666666667,6,2,63,60,0,0
97916,-166.666666666667,6,2,63,30,0,0
98216,-166.666666666667,6,2,63,60,0,0
99566,-166.666666666667,6,2,63,30,0,0
99716,-166.666666666667,6,2,63,60,0,0
99866,-166.666666666667,6,2,63,30,0,0
100016,-166.666666666667,6,2,63,60,0,0
100316,-125,6,2,63,80,0,0
102716,-125,6,2,63,40,0,0
102866,-100,6,2,63,100,0,0
103916,-166.666666666667,6,2,61,60,0,0
104066,-166.666666666667,6,2,63,60,0,0
106766,-166.666666666667,6,2,63,30,0,0
106916,-166.666666666667,6,2,63,60,0,0
107066,-166.666666666667,6,2,63,30,0,0
107216,-166.666666666667,6,2,63,60,0,0
107516,-125,6,2,63,80,0,0
110216,-100,6,2,63,100,0,0
111116,-166.666666666667,6,2,63,60,0,0
112466,-166.666666666667,6,2,63,30,0,0
112916,-166.666666666667,6,2,63,60,0,0
113966,-166.666666666667,6,2,63,30,0,0
114116,-166.666666666667,6,2,63,60,0,0
114266,-166.666666666667,6,2,63,30,0,0
114416,-166.666666666667,6,2,63,60,0,0
114716,-125,6,2,63,80,0,0
115616,-125,6,2,62,100,0,0
115766,-125,6,2,62,50,0,0
116216,-125,6,2,62,100,0,0

[Colours]
Combo1 : 255,255,179
Combo2 : 66,66,255
Combo3 : 0,181,0
Combo4 : 185,0,4
Combo5 : 185,0,185
Combo6 : 179,255,255
Combo7 : 170,255,170
Combo8 : 255,206,231

[HitObjects]
256,328,159,5,4,0:3:0:0:
380,64,459,1,2,0:0:0:0:
424,136,609,1,8,0:3:0:0:
132,64,909,1,2,0:0:0:0:
88,136,1059,1,12,0:0:0:0:
256,328,1359,1,8,0:0:0:0:
88,136,1659,5,8,0:0:0:0:
132,64,1809,1,2,0:0:0:0:
178,207,1959,6,0,L|172:136,1,71.9999978027344,2|2,0:0|0:0,0:0:0:0:
307,163,2259,2,0,L|300:91,1,71.9999978027344,2|0,0:0|0:0,0:0:0:0:
435,118,2559,2,0,L|428:46,1,71.9999978027344,2|2,0:0|0:0,0:0:0:0:
441,192,2859,5,10,0:0:0:0:
256,376,3159,1,8,0:0:0:0:
71,192,3459,1,8,0:0:0:0:
77,118,3609,1,2,0:0:0:0:
65,266,3759,69,4,0:0:0:0:
83,44,4059,1,4,0:0:0:0:
168,68,4209,1,4,0:0:0:0:
256,80,4359,1,4,0:0:0:0:
344,68,4509,1,8,0:0:0:0:
429,44,4659,5,10,0:0:0:0:
256,192,4959,1,8,0:0:0:0:
83,44,5259,1,8,0:0:0:0:
429,44,5559,5,4,0:0:0:0:
380,160,5709,1,4,0:0:0:0:
352,149,5784,1,4,0:0:0:0:
329,132,5859,1,4,0:0:0:0:
313,106,5934,1,4,0:0:0:0:
308,77,6009,1,4,0:0:0:0:
314,47,6084,1,4,0:0:0:0:
330,22,6159,1,4,0:0:0:0:
330,22,6309,1,4,0:0:0:0:
83,44,6459,5,4,0:0:0:0:
83,44,6609,1,4,0:0:0:0:
132,160,6759,1,4,0:0:0:0:
160,150,6859,1,4,0:0:0:0:
183,131,6959,1,4,0:0:0:0:
198,106,7059,1,4,0:0:0:0:
204,76,7159,1,4,0:0:0:0:
199,47,7259,1,4,0:0:0:0:
184,21,7359,5,2,0:0:0:0:
265,1,7509,1,2,0:0:0:0:
346,20,7659,2,0,P|370:73|353:130,1,120,8|0,0:0|0:0,0:0:0:0:
132,160,7959,6,0,L|257:169,1,120,10|0,0:0|0:0,0:0:0:0:
162,275,8259,2,0,L|43:272,1,120,10|0,0:0|0:0,0:0:0:0:
0,52,8559,2,0,L|140:52,1,120,10|0,0:0|0:0,0:0:0:0:
346,20,8859,1,10,0:0:0:0:
56,224,9159,5,10,0:0:0:0:
56,224,9309,1,2,0:0:0:0:
96,312,9459,1,8,0:0:0:0:
128,328,9534,1,8,0:0:0:0:
164,332,9609,1,8,0:0:0:0:
200,328,9684,1,8,0:0:0:0:
232,312,9759,2,0,P|304:320|356:360,1,120,10|0,0:0|0:0,0:0:0:0:
512,276,10059,6,0,L|392:272,1,120,10|0,0:0|0:0,0:0:0:0:
240,204,10359,1,8,0:0:0:0:
266,179,10434,1,8,0:0:0:0:
300,167,10509,1,8,0:0:0:0:
335,172,10584,1,8,0:0:0:0:
367,187,10659,2,0,P|439:191|503:155,1,120,2|0,0:0|0:0,0:0:0:0:
480,68,10959,69,10,0:0:0:0:
132,192,11259,1,8,0:0:0:0:
132,192,11409,1,10,0:0:0:0:
185,112,11559,1,10,0:0:0:0:
153,93,11634,1,8,0:0:0:0:
116,93,11709,1,8,0:0:0:0:
83,109,11784,1,8,0:0:0:0:
61,138,11859,2,0,P|45:208|65:250,1,120,10|0,0:0|0:0,0:0:0:0:
276,284,12159,2,0,L|145:280,1,120,10|0,0:0|0:0,0:0:0:0:
385,170,12459,2,0,L|265:166,1,120,10|0,0:0|0:0,0:0:0:0:
26,61,12759,5,10,0:0:0:0:
116,93,12909,1,10,0:0:0:0:
151,91,12984,1,8,0:0:0:0:
184,76,13059,1,8,0:0:0:0:
208,48,13134,1,8,0:0:0:0:
213,12,13209,1,10,0:0:0:0:
116,93,13359,2,0,P|99:163|129:214,1,120,2|0,0:0|0:0,0:0:0:0:
331,239,13659,2,0,L|197:236,1,120,10|0,0:0|0:0,0:0:0:0:
473,304,13959,1,10,0:0:0:0:
389,302,14109,1,8,0:0:0:0:
331,239,14259,6,0,P|320:166|360:104,1,150,6|2,0:0|0:0,0:0:0:0:
485,63,14559,22,0,P|441:103|351:100,1,143.999995605469,6|0,0:0|0:0,0:0:0:0:
203,33,15009,2,0,P|271:9|368:40,1,143.999995605469,2|0,0:0|0:0,0:0:0:0:
302,203,15459,2,0,P|284:169|286:131,1,71.9999978027344,10|0,0:0|0:0,0:0:0:0:
400,168,15759,2,0,P|427:166|464:176,2,47.9999985351563,2|2|2,0:0|0:0|0:0,0:0:0:0:
284,136,16059,2,0,L|202:147,1,71.9999978027344,2|0,0:0|0:0,0:0:0:0:
24,16,16359,5,2,0:0:0:0:
24,16,16509,2,0,L|120:24,1,71.9999978027344,2|0,0:0|0:0,0:0:0:0:
129,109,16809,1,0,0:0:0:0:
129,109,16959,2,0,L|49:117,1,71.9999978027344,2|0,0:0|0:0,0:0:0:0:
256,28,17259,1,10,0:0:0:0:
300,32,17409,1,8,0:0:0:0:
344,36,17559,1,8,0:0:0:0:
388,40,17709,1,8,0:0:0:0:
432,44,17859,2,0,P|476:72|492:104,1,71.9999978027344,2|0,0:0|0:0,0:0:0:0:
412,192,18159,6,2,P|420:224|432:256,2,35.9999989013672
420,120,18459,1,0,0:0:0:0:
352,259,18609,2,0,P|316:188|236:140,1,143.999995605469,2|0,0:3|0:0,0:0:0:0:
244,68,19059,2,2,P|268:36|284:24,2,35.9999989013672,2|0|2,0:0|0:0|0:0,0:0:0:0:
184,196,19359,2,8,L|176:100,1,71.9999978027344,10|0,0:0|0:0,0:0:0:0:
92,116,19659,2,0,L|100:24,1,71.9999978027344,10|0,0:0|0:0,0:0:0:0:
24,220,19959,5,2,0:0:0:0:
24,220,20109,2,0,L|32:296,1,71.9999978027344,2|0,0:0|0:0,0:0:0:0:
96,348,20409,2,0,P|124:288|192:228,1,143.999995605469,2|0,0:3|0:3,0:3:0:0:
112,120,20859,2,0,L|105:191,1,71.9999978027344,10|8,0:0|0:0,0:0:0:0:
260,212,21159,1,8,0:0:0:0:
256,168,21309,1,8,0:0:0:0:
252,124,21459,1,2,0:0:0:0:
248,80,21609,1,2,0:0:0:0:
244,36,21759,70,0,P|316:20|400:28,1,143.999995605469,4|0,0:0|0:0,0:0:0:0:
464,68,22209,2,0,L|460:144,1,71.9999978027344,2|0,0:3|0:0,0:0:0:0:
385,24,22509,1,0,0:0:0:0:
352,160,22659,1,10,0:0:0:0:
352,160,22959,2,0,L|364:240,1,71.9999978027344,2|8,0:0|0:0,0:0:0:0:
444,308,23259,2,0,L|448:236,1,71.9999978027344,2|0,0:0|0:0,0:0:0:0:
372,372,23559,6,0,P|300:376|230:360,1,143.999995605469,2|0,0:0|0:0,0:0:0:0:
156,316,24009,1,2,0:0:0:0:
156,316,24159,2,0,L|72:324,1,71.9999978027344,8|2,0:0|0:0,0:0:0:0:
312,256,24459,1,10,0:0:0:0:
224,256,24609,1,8,0:0:0:0:
80,208,24759,2,0,L|172:204,1,71.9999978027344,2|8,0:0|0:0,0:0:0:0:
344,168,25059,2,0,L|272:168,1,71.9999978027344,2|0,0:0|0:0,0:0:0:0:
16,88,25359,6,0,P|116:84|180:88,1,143.999995605469,6|2,0:0|0:0,0:0:0:0:
232,40,25809,2,0,P|328:64|396:100,1,143.999995605469,2|0,0:0|0:0,0:0:0:0:
468,132,26259,2,0,P|433:141|401:158,1,71.9999978027344,10|0,0:0|0:0,0:0:0:0:
324,0,26559,2,0,P|300:72|300:168,1,143.999995605469,2|2,0:0|0:0,0:0:0:0:
252,216,27009,2,0,P|284:264|316:292,1,71.9999978027344,2|0,0:0|0:0,0:0:0:0:
160,108,27309,6,0,L|76:116,1,71.9999978027344,2|0,0:0|0:0,0:0:0:0:
88,114,27609,1,2,0:0:0:0:
152,20,27759,1,2,0:0:0:0:
196,24,27909,1,0,0:0:0:0:
252,124,28059,1,8,0:0:0:0:
296,128,28209,1,10,0:0:0:0:
224,244,28359,1,8,0:0:0:0:
180,248,28509,1,10,0:0:0:0:
112,348,28659,2,0,P|156:360|192:396,1,71.9999978027344,8|0,0:0|0:0,0:0:0:0:
224,244,28959,69,2,0:0:0:0:
348,200,29279,1,2,0:0:0:0:
444,256,29612,1,2,0:0:0:0:
440,340,29992,1,2,0:0:0:0:
380,376,30416,1,2,0:0:0:0:
336,368,30916,1,2,0:0:0:0:
336,368,31916,54,0,L|428:372,1,71.9999978027344,2|0,0:0|0:0,0:0:0:0:
480,300,32216,2,0,L|408:296,1,71.9999978027344
328,236,32516,2,0,L|256:232,1,71.9999978027344,2|0,0:0|0:0,0:0:0:0:
404,100,32816,1,2,0:0:0:0:
24,176,33716,6,0,L|172:168,1,143.999995605469,2|0,0:0|0:0,0:0:0:0:
296,104,34166,1,2,0:0:0:0:
296,104,34316,2,0,L|224:104,1,71.9999978027344,2|0,0:0|0:0,0:0:0:0:
40,36,34616,2,0,L|112:36,1,71.9999978027344,2|0,0:0|0:0,0:0:0:0:
112,36,35216,1,2,0:0:0:0:
196,24,35366,1,2,0:0:0:0:
296,104,35516,6,0,L|224:104,1,71.9999978027344,2|0,0:0|0:0,0:0:0:0:
364,48,35816,1,2,0:0:0:0:
448,48,35966,1,2,0:0:0:0:
324,180,36116,2,0,L|396:180,1,71.9999978027344,2|0,0:0|0:0,0:0:0:0:
256,236,36416,1,0,0:0:0:0:
172,236,36716,1,2,0:0:0:0:
296,368,37016,2,0,L|196:368,1,71.9999978027344,2|0,0:0|0:0,0:0:0:0:
364,312,37316,1,2,0:0:0:0:
448,312,37616,1,0,0:0:0:0:
296,256,37916,1,2,0:0:0:0:
296,256,38216,6,0,L|204:256,1,71.9999978027344
44,192,38516,2,0,P|28:148|40:104,1,71.9999978027344,2|0,0:0|0:0,0:0:0:0:
100,16,38816,2,0,P|116:60|104:104,1,71.9999978027344,2|0,0:0|0:0,0:0:0:0:
244,152,39116,2,0,L|164:152,1,71.9999978027344,2|0,0:0|0:0,0:0:0:0:
204,40,39416,2,0,P|276:52|372:92,1,143.999995605469,0|2,0:0|0:0,0:0:0:0:
412,24,40016,1,2,0:0:0:0:
412,24,40616,70,0,P|392:64|384:112,1,71.9999978027344,2|0,0:0|0:0,0:0:0:0:
328,12,40916,2,0,P|264:64|216:136,1,143.999995605469,2|0,0:0|0:0,0:0:0:0:
64,108,41366,1,0,0:0:0:0:
64,108,41516,1,2,0:0:0:0:
144,88,41666,1,2,0:0:0:0:
227,113,41816,2,0,P|292:148|384:152,1,143.999995605469,2|0,0:0|0:0,0:0:0:0:
512,128,42416,5,2,0:0:0:0:
428,100,42566,1,2,0:0:0:0:
336,256,42716,2,0,P|327:185|344:116,1,143.999995605469,2|2,0:0|0:0,0:0:0:0:
192,36,43166,1,0,0:0:0:0:
344,115,43316,2,0,L|433:111,1,71.9999978027344,2|0,0:0|0:0,0:0:0:0:
508,196,43616,2,0,L|412:192,1,71.9999978027344,2|0,0:0|0:0,0:0:0:0:
264,261,43916,2,0,L|336:256,1,71.9999978027344,2|0,0:0|0:0,0:0:0:0:
440,344,44216,2,0,L|368:341,1,71.9999978027344,2|0,0:0|0:0,0:0:0:0:
144,356,44516,6,0,P|100:292|8:272,1,143.999995605469,2|0,0:0|0:0,0:0:0:0:
256,192,45116,1,8,0:3:0:0:
472,114,45416,5,4,0:0:0:0:
360,4,45566,1,2,0:0:0:0:
364,24,45641,1,0,0:0:0:0:
368,44,45716,1,4,0:0:0:0:
372,64,45791,1,4,0:0:0:0:
376,84,45866,1,4,0:0:0:0:
276,80,46016,1,2,0:0:0:0:
192,136,46166,1,2,0:0:0:0:
0,48,46316,70,0,P|75:64|171:35,1,144,4|0,0:0|0:0,0:0:0:0:
117,140,46616,2,0,P|194:135|278:81,1,144
294,28,46916,2,0,L|394:32,1,96,2|0,0:0|0:0,0:0:0:0:
460,190,47216,1,6,0:0:0:0:
389,31,47366,1,0,0:0:0:0:
389,31,47516,1,2,0:0:0:0:
480,96,47666,1,2,0:0:0:0:
480,96,47741,1,0,0:0:0:0:
480,96,47816,2,0,L|370:121,1,96
260,328,48116,5,2,0:0:0:0:
260,328,48266,2,0,L|156:324,1,96,8|0,0:0|0:0,0:0:0:0:
0,248,48566,1,2,0:0:0:0:
0,248,48716,2,0,P|96:240|204:240,1,192,0|6,0:0|0:0,0:0:0:0:
191,239,49166,1,0,0:0:0:0:
368,304,49316,1,2,0:0:0:0:
260,328,49466,1,2,0:0:0:0:
260,328,49541,1,0,0:0:0:0:
260,328,49616,1,2,0:0:0:0:
191,239,49766,1,2,0:0:0:0:
28,136,49916,6,0,P|139:130|240:136,1,192,6|0,0:0|0:0,0:0:0:0:
219,134,50366,1,4,0:0:0:0:
444,336,50516,2,0,P|384:344|324:332,1,96,2|0,0:0|0:0,0:0:0:0:
256,352,50816,2,0,P|268:268|332:164,1,192,10|0,0:0|0:0,0:0:0:0:
320,175,51266,1,0,0:0:0:0:
144,24,51416,2,0,L|24:32,1,96,2|0,0:0|0:0,0:0:0:0:
88,116,51716,5,2,0:0:0:0:
160,176,51866,2,0,P|160:228|172:252,2,48,10|0|2,0:0|0:0|0:0,0:0:0:0:
212,96,52166,1,2,0:0:0:0:
212,96,52316,1,0,0:0:0:0:
308,100,52466,1,2,0:0:0:0:
404,104,52616,1,4,0:0:0:0:
404,104,52916,69,8,0:0:0:0:
432,144,53066,1,8,0:0:0:0:
448,188,53216,1,10,0:0:0:0:
452,236,53366,1,10,0:0:0:0:
444,284,53516,6,0,P|376:300|316:364,1,144,6|0,0:0|0:0,0:0:0:0:
248,380,53816,2,0,P|212:320|220:268,1,96,0|4,0:0|0:0,0:0:0:0:
40,256,54116,2,0,L|160:252,1,96,2|0,0:0|0:0,0:0:0:0:
360,60,54416,5,2,0:0:0:0:
360,60,54566,2,0,P|252:60|136:68,1,192,4|0,0:0|0:0,0:0:0:0:
100,132,55016,2,0,P|56:104|20:64,1,96,2|0,0:0|0:0,0:0:0:0:
196,164,55316,6,0,P|196:252|132:364,1,192,10|0,0:0|0:0,0:0:0:0:
151,343,55766,1,2,0:0:0:0:
88,272,55916,1,2,0:0:0:0:
244,368,56066,1,2,0:0:0:0:
244,368,56216,2,0,P|344:380|444:364,1,192,10|0,0:0|0:0,0:0:0:0:
336,268,56666,1,4,0:0:0:0:
383,265,56816,1,2,0:0:0:0:
430,263,56966,1,2,0:0:0:0:
480,260,57116,70,0,P|456:172|488:72,1,192,2|0,0:0|0:0,0:0:0:0:
484,77,57566,1,4,0:0:0:0:
424,4,57716,2,0,P|364:16|328:60,1,96,2|0,0:0|0:0,0:0:0:0:
72,136,58016,1,2,0:0:0:0:
72,136,58166,2,0,L|60:20,1,96,4|2,0:0|0:0,0:0:0:0:
168,212,58466,1,0,0:0:0:0:
168,212,58616,2,0,L|174:116,1,96,6|0,0:0|0:0,0:0:0:0:
40,268,58916,5,2,0:0:0:0:
40,268,59066,2,0,L|48:400,1,96,4|0,0:0|0:0,0:0:0:0:
173,195,59366,1,0,0:3:0:0:
173,195,59516,1,10,0:0:0:0:
168,272,59666,1,0,0:0:0:0:
312,224,59816,1,6,0:0:0:0:
308,148,59966,1,8,0:0:0:0:
456,72,60116,1,2,0:0:0:0:
456,148,60266,1,2,0:3:0:0:
340,24,60416,2,0,P|280:28|240:44,1,96,2|0,0:0|0:0,0:0:0:0:
36,188,60716,6,0,P|24:124|32:64,1,120,4|0,0:0|0:0,0:0:0:0:
104,48,61316,2,0,P|100:32|80:0,1,40,2|0,0:0|0:0,0:0:0:0:
236,268,61616,2,0,P|244:220|260:188,1,80,4|8,0:0|0:0,0:0:0:0:
257,192,62066,1,8,0:0:0:0:
172,308,62216,2,0,P|164:276|156:260,1,40,10|0,0:0|0:0,0:0:0:0:
48,92,62516,6,0,L|156:87,1,96,6|0,0:0|0:0,0:0:0:0:
200,12,62816,1,2,0:0:0:0:
336,180,62966,2,0,L|136:184,1,192,8|6,0:0|0:0,0:0:0:0:
48,92,63416,1,6,0:0:0:0:
432,272,63716,1,8,0:0:0:0:
357,228,63866,1,2,0:0:0:0:
320,150,64016,1,0,0:0:0:0:
357,72,64166,1,2,0:0:0:0:
432,28,64316,70,0,P|440:120|424:218,1,192,6|0,0:0|0:0,0:0:0:0:
172,188,64766,1,8,0:0:0:0:
255,197,64916,1,4,0:0:0:0:
339,207,65067,1,2,0:0:0:0:
292,376,65216,6,0,P|284:320|296:256,1,96,2|0,0:0|0:0,0:0:0:0:
38,311,65516,1,10,0:0:0:0:
121,301,65666,1,4,0:0:0:0:
204,291,65816,2,0,P|196:224|176:188,1,96,2|0,0:0|0:0,0:0:0:0:
16,40,66116,6,0,P|112:32|224:40,1,192,6|0,0:0|0:0,0:0:0:0:
427,12,66566,1,8,0:0:0:0:
375,92,66716,1,2,0:0:0:0:
279,104,66867,1,4,0:0:0:0:
207,37,67016,1,2,0:0:0:0:
496,264,67316,5,8,0:0:0:0:
448,312,67466,1,2,0:0:0:0:
380,320,67616,1,0,0:0:0:0:
324,280,67766,1,2,0:0:0:0:
312,212,67916,70,0,L|328:164,7,32
196,248,68366,1,4,0:0:0:0:
196,248,68516,2,0,L|80:252,1,96,2|0,0:0|0:0,0:0:0:0:
8,104,68816,2,0,L|108:104,1,96,2|0,0:0|0:0,0:0:0:0:
384,44,69116,2,0,L|284:44,1,96,10|0,0:0|0:0,0:0:0:0:
52,9,69416,1,2,0:0:0:0:
147,5,69566,1,2,0:0:0:0:
24,184,69716,6,0,P|128:184|224:208,1,192,6|2,0:0|0:0,0:0:0:0:
392,264,70166,1,4,0:0:0:0:
295,256,70316,2,0,P|306:302|337:338,1,96,2|0,0:0|0:0,0:0:0:0:
436,164,70616,2,0,L|336:164,1,96,6|2,0:0|0:0,0:0:0:0:
512,96,70916,1,8,0:0:0:0:
436,164,71066,1,2,0:0:0:0:
340,164,71216,1,4,0:0:0:0:
272,96,71366,1,2,0:0:0:0:
167,9,71516,6,0,P|75:40|45:133,1,192,2|0,0:0|0:0,0:0:0:0:
214,332,71966,2,0,P|249:247|194:172,1,192,4|0,0:0|0:0,0:0:0:0:
39,266,72416,6,0,L|158:258,1,120,2|0,0:0|0:0,0:0:0:0:
426,168,72716,2,0,L|299:165,1,120,0|4,0:0|0:0,0:0:0:0:
79,100,73016,1,2,0:0:0:0:
168,92,73166,1,2,0:0:0:0:
344,36,73316,6,0,P|376:96|456:96,1,125.999996154785,6|0,0:0|0:0,0:0:0:0:
508,160,73616,2,0,P|472:204|388:212,1,116.999994644165,10|0,0:0|0:0,0:0:0:0:
344,292,73916,2,0,P|328:252|328:208,1,71.9999978027344,10|0,0:0|0:0,0:0:0:0:
428,106,74216,5,12,0:0:0:0:
415,218,74366,1,12,0:0:0:0:
344,292,74516,1,8,0:0:0:0:
252,312,74666,1,8,0:0:0:0:
172,308,74816,1,8,0:0:0:0:
112,284,74966,1,8,0:0:0:0:
80,264,75116,6,0,P|64:240|56:200,1,48,6|0,0:0|0:0,0:0:0:0:
76,156,75416,1,2,0:0:0:0:
93,90,75716,5,2,0:0:0:0:
256,36,76016,2,0,P|280:44|320:40,1,48,2|0,0:0|0:0,0:0:0:0:
368,36,76316,1,0,0:0:0:0:
433,27,76616,70,0,P|448:64|448:92,1,48,2|0,0:0|0:0,0:0:0:0:
352,196,76916,2,0,L|252:192,1,96,2|0,0:0|0:0,0:0:0:0:
72,320,77516,5,2,0:0:0:0:
140,332,77666,1,2,0:0:0:0:
208,344,77816,2,0,L|324:340,1,96,2|2,0:0|0:0,0:0:0:0:
256,192,78416,1,2,0:0:0:0:
208,40,78716,6,0,L|276:44,1,48,2|0,0:0|0:0,0:0:0:0:
168,100,79016,2,0,L|100:104,1,48
16,40,79316,1,2,0:0:0:0:
84,44,79466,1,2,0:0:0:0:
72,156,79616,5,2,0:0:0:0:
132,192,79916,1,2,0:0:0:0:
376,108,80216,69,2,0:0:0:0:
316,72,80516,1,2,0:0:0:0:
256,36,80816,6,0,P|236:64|204:76,1,48,2|0,0:0|0:0,0:0:0:0:
8,140,81116,1,2,0:0:0:0:
96,144,81266,1,2,0:0:0:0:
184,148,81416,5,8,0:0:0:0:
464,112,81716,1,2,0:0:0:0:
376,108,81866,2,0,L|357:74,4,24,8|8|8|8|8,0:0|0:0|0:0|0:0|0:0,0:0:0:0:
360,336,82316,22,0,P|432:344|488:288,1,144,6|0,0:0|0:0,0:0:0:0:
372,260,82616,2,0,P|300:252|244:308,1,144,4|0,0:0|0:0,0:0:0:0:
232,372,82916,2,0,L|136:372,1,96,2|0,0:0|0:0,0:0:0:0:
56,192,83216,6,0,P|92:144|80:56,1,144,2|0,0:0|0:0,0:0:0:0:
168,24,83516,2,0,L|272:24,1,96,10|0,0:0|0:0,0:0:0:0:
440,68,83816,2,0,L|344:68,1,96,2|4,0:0|0:0,0:0:0:0:
56,192,84116,6,0,P|120:200|252:180,1,192,2|4,0:0|0:0,0:0:0:0:
204,104,84566,1,8,0:0:0:0:
200,276,84716,2,0,L|300:284,1,96,6|0,0:0|0:0,0:0:0:0:
484,184,85016,2,0,L|388:192,1,96,6|0,0:0|0:0,0:0:0:0:
324,377,85316,2,0,L|448:377,1,96,2|0,0:0|0:0,0:0:0:0:
388,191,85616,1,2,0:0:0:0:
404,284,85766,1,2,0:0:0:0:
480,92,85916,6,0,P|384:100|284:96,1,192,6|0,0:0|0:0,0:0:0:0:
288,96,86366,1,4,0:0:0:0:
216,32,86516,2,0,P|168:88|148:136,1,96,2|0,0:0|0:0,0:0:0:0:
96,220,86816,2,0,P|60:116|60:28,1,192,6|10,0:0|0:0,0:0:0:0:
59,34,87266,1,0,0:0:0:0:
192,200,87416,2,0,P|185:247|168:292,1,96,6|0,0:0|0:0,0:0:0:0:
56,320,87716,6,0,P|161:372|275:344,1,240,6|4,0:0|0:0,0:0:0:0:
392,316,88166,1,8,0:0:0:0:
392,316,88316,2,0,L|545:325,1,120,2|0,0:0|0:0,0:0:0:0:
366,221,88616,6,0,P|271:243|167:304,1,180,6|0,0:0|0:0,0:0:0:0:
109,226,88916,2,0,P|137:132|136:12,1,180,2|0,0:0|0:0,0:0:0:0:
233,13,89216,2,0,P|299:84|404:143,1,180,8|0,0:0|0:0,0:0:0:0:
412,28,89516,6,0,P|476:24|496:32,2,71.9999978027344,6|2|2,0:0|0:0|0:0,0:0:0:0:
432,100,89966,1,2,0:0:0:0:
256,84,90116,2,0,L|328:84,1,71.9999978027344,6|0,0:0|0:0,0:0:0:0:
184,56,90416,2,4,L|144:64,4,35.9999989013672,6|4|4|4|6,0:0|0:0|0:0|0:0|0:0,0:0:0:0:
256,84,90866,1,8,0:0:0:0:
60,112,91016,1,8,0:0:0:0:
132,140,91166,1,8,0:0:0:0:
16,288,91316,6,0,P|12:236|24:200,1,71.9999978027344,2|2,0:0|0:0,0:0:0:0:
96,288,91616,2,0,P|100:340|88:376,1,71.9999978027344,2|0,0:0|0:0,0:0:0:0:
140,224,91916,2,0,L|212:228,1,71.9999978027344,6|0,0:0|0:0,0:0:0:0:
380,192,92216,1,10,0:0:0:0:
296,208,92366,1,8,0:0:0:0:
268,288,92516,1,10,0:0:0:0:
444,256,92666,1,8,0:0:0:0:
444,256,92816,2,0,P|468:216|468:172,1,71.9999978027344,2|0,0:0|0:0,0:0:0:0:
504,32,93116,6,0,P|420:56|400:164,1,192,10|0,0:0|0:0,0:0:0:0:
394,148,93566,1,4,0:0:0:0:
228,120,93716,1,2,0:0:0:0:
228,120,93866,1,8,0:0:0:0:
320,88,94016,1,8,0:0:0:0:
154,60,94166,1,10,0:0:0:0:
154,60,94241,1,0,0:0:0:0:
154,60,94316,2,0,L|50:72,1,96,10|0,0:0|0:0,0:0:0:0:
4,176,94616,2,0,L|116:176,1,96,6|0,0:0|0:0,0:0:0:0:
249,56,94916,5,2,0:0:0:0:
249,56,95066,2,0,P|153:60|58:71,1,192,4|2,0:0|0:0,0:0:0:0:
100,176,95516,2,0,P|172:176|216:172,1,96,4|0,0:0|0:0,0:0:0:0:
388,4,95816,6,0,P|464:120|480:196,1,180,6|0,0:0|0:0,0:0:0:0:
388,312,96116,2,0,P|368:204|396:112,1,180,10|0,0:0|0:0,0:0:0:0:
296,128,96416,2,0,P|216:120|156:136,1,120,10|0,0:0|0:0,0:0:0:0:
52,40,96716,21,6,0:0:0:0:
87,178,96866,2,0,L|100:108,1,71.9999978027344,2|0,0:0|0:0,0:0:0:0:
16,120,97166,1,2,0:0:0:0:
177,127,97316,2,0,L|189:56,1,71.9999978027344,6|2,0:0|0:0,0:0:0:0:
304,188,97616,2,0,L|322:81,1,107.999996704102,10|0,0:0|0:0,0:0:0:0:
400,136,97916,2,0,L|418:29,1,107.999996704102,10|0,0:0|0:0,0:0:0:0:
488,122,98216,2,0,L|474:192,1,71.9999978027344,4|0,0:0|0:0,0:0:0:0:
392,352,98516,5,2,0:0:0:0:
308,315,98666,2,0,P|365:274|436:271,1,143.999995605469,2|0,0:0|0:0,0:0:0:0:
264,240,99116,2,0,L|188:248,1,71.9999978027344,6|0,0:0|0:0,0:0:0:0:
316,168,99416,1,10,0:0:0:0:
400,176,99566,1,8,0:0:0:0:
256,100,99716,1,10,0:0:0:0:
172,108,99866,1,8,0:0:0:0:
72,296,100016,2,0,L|143:303,1,71.9999978027344,2|0,0:0|0:0,0:0:0:0:
227,351,100316,38,0,P|224:259|147:207,1,192,10|0,0:0|0:0,0:0:0:0:
12,120,100766,2,0,P|104:116|156:39,1,192,2|8,0:0|0:0,0:0:0:0:
364,48,101216,2,0,L|252:48,1,96,6|0,0:0|0:0,0:0:0:0:
512,127,101516,2,0,L|416:132,1,96,2|0,0:0|0:0,0:0:0:0:
200,192,101816,2,0,L|295:186,1,96,6|0,0:0|0:0,0:0:0:0:
60,108,102116,5,2,0:0:0:0:
60,108,102266,2,0,L|176:104,1,96,4|0,0:0|0:0,0:0:0:0:
295,186,102566,1,10,0:0:0:0:
184,280,102716,1,8,0:0:0:0:
184,280,102866,6,0,P|88:280|4:296,1,180,10|0,0:0|0:0,0:0:0:0:
164,368,103166,2,0,P|288:360|364:368,1,180,8|0,0:0|0:0,0:0:0:0:
468,244,103466,2,0,P|388:240|316:248,1,120,8|0,0:0|0:0,0:0:0:0:
468,108,103766,1,2,0:0:0:0:
392,64,103916,21,6,0:0:0:0:
392,64,104066,2,0,P|384:104|392:152,1,71.9999978027344,2|2,0:0|0:0,0:0:0:0:
228,140,104366,1,2,0:0:0:0:
308,168,104516,1,6,0:0:0:0:
228,140,104666,1,2,0:0:0:0:
76,120,104816,2,0,P|132:92|204:76,1,107.999996704102,10|0,0:0|0:0,0:0:0:0:
296,32,105116,2,0,P|248:12|168:8,1,107.999996704102,10|0,0:0|0:0,0:0:0:0:
392,64,105416,2,0,P|360:88|320:100,1,71.9999978027344,4|0,0:0|0:0,0:0:0:0:
112,192,105716,6,0,P|104:236|116:280,1,71.9999978027344,2|0,0:0|0:0,0:0:0:0:
140,344,106016,2,0,L|36:340,1,71.9999978027344,2|2,0:0|0:0,0:0:0:0:
268,272,106316,2,0,L|184:282,1,71.9999978027344,6|0,0:0|0:0,0:0:0:0:
339,332,106616,5,10,0:0:0:0:
293,185,106766,1,8,0:0:0:0:
441,219,106916,1,10,0:0:0:0:
395,72,107066,5,10,0:0:0:0:
313,100,107216,1,6,0:0:0:0:
333,15,107366,1,2,0:0:0:0:
457,129,107516,6,0,P|387:190|283:179,1,192,6|0,0:0|0:0,0:0:0:0:
197,199,107966,1,0,0:0:0:0:
197,199,108116,2,0,P|200:152|228:114,1,96,6|0,0:0|0:0,0:0:0:0:
279,276,108416,1,2,0:0:0:0:
189,309,108566,1,8,0:0:0:0:
189,309,108641,1,0,0:0:0:0:
189,309,108716,2,0,L|76:307,1,96,10|0,0:0|0:0,0:0:0:0:
4,173,109016,1,10,0:0:0:0:
94,206,109166,1,2,0:0:0:0:
10,363,109316,5,2,0:0:0:0:
10,363,109466,2,0,P|19:272|73:154,1,192,0|2,0:0|0:0,0:0:0:0:
140,196,109916,2,0,P|184:148|240:124,1,96,0|2,0:0|0:0,0:0:0:0:
188,272,110216,5,10,0:0:0:0:
104,280,110366,1,0,0:0:0:0:
297,345,110516,1,10,0:0:0:0:
213,353,110666,1,0,0:0:0:0:
453,231,110816,1,10,0:0:0:0:
369,239,110966,1,0,0:0:0:0:
327,58,111116,22,0,L|256:64,1,71.9999978027344,6|2,0:0|0:0,0:0:0:0:
108,25,111416,2,0,L|180:20,1,71.9999978027344,0|2,0:0|0:0,0:0:0:0:
296,140,111716,2,0,L|224:145,1,71.9999978027344,6|2,0:0|0:0,0:0:0:0:
108,332,112016,6,0,L|179:326,1,71.9999978027344,10|0,0:0|0:0,0:0:0:0:
21,340,112316,1,10,0:0:0:0:
108,332,112466,1,8,0:0:0:0:
257,363,112616,1,8,0:0:0:0:
343,354,112766,1,8,0:0:0:0:
455,262,112916,5,2,0:0:0:0:
455,262,113066,2,0,L|380:272,1,71.9999978027344,2|2,0:0|0:0,0:0:0:0:
232,224,113366,1,2,0:0:0:0:
232,224,113516,2,0,L|303:218,1,71.9999978027344,6|0,0:0|0:0,0:0:0:0:
404,52,113816,6,0,L|333:58,1,71.9999978027344,10|8,0:0|0:0,0:0:0:0:
491,44,114116,1,10,0:0:0:0:
404,52,114266,1,8,0:0:0:0:
255,21,114416,1,10,0:0:0:0:
169,30,114566,1,10,0:0:0:0:
40,100,114716,6,0,P|32:176|52:320,1,192,2|0,0:0|0:0,0:0:0:0:
128,372,115166,2,0,P|160:324|212:296,1,96,2|4,0:0|0:0,0:0:0:0:
324,312,115466,1,2,0:0:0:0:
124,180,115616,6,0,P|200:192|252:216,1,96,6|0,0:0|0:0,0:0:0:0:
408,128,115916,2,0,L|304:124,1,96,10|8,0:0|0:0,0:0:0:0:
40,100,116216,2,0,P|52:40|84:4,1,96,2|0,0:0|0:0,0:0:0:0:
256,192,116516,5,4,0:0:0:0:
256,192,116591,12,4,117416,0:0:0:0:
