osu file format v14

[General]
AudioFilename: audio.mp3
AudioLeadIn: 0
PreviewTime: 89516
Countdown: 0
SampleSet: Soft
StackLeniency: 0.7
Mode: 0
LetterboxInBreaks: 0
WidescreenStoryboard: 1

[Editor]
DistanceSpacing: 0.5
BeatDivisor: 4
GridSize: 32
TimelineZoom: 2.9

[Metadata]
Title:Byakuya Gensoutan
TitleUnicode:白夜幻想譚
Artist:Shimotsuki Haruka
ArtistUnicode:霜月はるか
Creator:Chaoslitz
Version:Gaia's Extra
Source:イリスのアトリエ エターナルマナ
Tags:Atelier Iris Eternal Mana Pending cup #5 Suzuki_1112 Kibbleru yf_bmp Gust 1112deng Irreversible Gaia sahuang Pata-Mon
BeatmapID:1427202
BeatmapSetID:667097

[Difficulty]
HPDrainRate:6
CircleSize:4.2
OverallDifficulty:8
ApproachRate:9
SliderMultiplier:1.6
SliderTickRate:1

[Events]
//Background and Video events
0,0,"bg.jpg",0,0
//Break Periods
2,75316,81266
//Storyboard Layer 0 (Background)
//Storyboard Layer 1 (Fail)
//Storyboard Layer 2 (Pass)
//Storyboard Layer 3 (Foreground)
//Storyboard Sound Samples

[TimingPoints]
159,300,6,2,80,50,1,0
159,-142.857142857143,6,2,80,50,0,0
459,-142.857142857143,6,2,80,20,0,0
609,-142.857142857143,6,2,80,50,0,0
909,-142.857142857143,6,2,80,20,0,0
1059,-142.857142857143,6,2,80,50,0,0
1209,-142.857142857143,6,2,80,10,0,0
1359,-142.857142857143,6,2,80,50,0,0
1509,-142.857142857143,6,2,80,10,0,0
1659,-142.857142857143,6,2,80,50,0,0
1809,-142.857142857143,6,2,80,10,0,0
1959,-142.857142857143,6,2,80,50,0,0
2259,-142.857142857143,6,2,80,20,0,0
2409,-142.857142857143,6,2,80,50,0,0
3009,-142.857142857143,6,2,80,30,0,0
3159,-142.857142857143,6,2,80,50,0,0
3309,-142.857142857143,6,2,80,30,0,0
3459,-142.857142857143,6,2,80,50,0,0
3609,-142.857142857143,6,2,80,30,0,0
3759,-111.111111111111,6,2,80,50,0,0
4059,-111.111111111111,6,2,80,20,0,0
4209,-111.111111111111,6,2,80,50,0,0
4509,-111.111111111111,6,2,80,20,0,0
4659,-111.111111111111,6,2,80,50,0,0
4809,-111.111111111111,6,2,80,30,0,0
4959,-111.111111111111,6,2,80,50,0,0
5109,-111.111111111111,6,2,80,30,0,0
5259,-111.111111111111,6,2,80,50,0,0
5409,-111.111111111111,6,2,80,30,0,0
5559,-111.111111111111,6,2,80,50,0,0
5709,-111.111111111111,6,2,80,30,0,0
7159,-85.4700854700855,6,2,80,30,0,0
7246,-85.4700854700855,6,2,80,20,0,0
7359,-111.111111111111,6,2,80,50,0,0
7959,-90.9090909090909,6,2,80,30,0,0
8559,-111.111111111111,6,2,80,50,0,0
9459,-111.111111111111,6,2,80,30,0,0
9759,-111.111111111111,6,2,80,50,0,0
10209,-111.111111111111,6,2,80,30,0,0
10359,-71.4285714285714,6,2,80,30,0,0
10959,-111.111111111111,6,2,80,50,0,0
11409,-111.111111111111,6,2,80,30,0,0
11559,-83.3333333333333,6,2,80,30,0,0
11859,-100,6,2,80,40,0,0
12159,-100,6,2,80,50,0,0
13809,-100,6,2,80,60,0,0
28959,320,6,2,80,50,1,0
29279,333.333333333333,6,2,80,40,1,0
29612,380.952380952381,6,2,80,30,1,0
29992,424.778761061947,6,2,80,20,1,0
30416,500,6,2,80,10,1,0
31666,-100,6,2,80,5,0,0
31916,300,6,2,92,40,1,0
31916,-166.666666666667,6,2,92,40,0,0
32066,-166.666666666667,6,2,92,5,0,0
32216,-166.666666666667,6,2,92,40,0,0
32366,-166.666666666667,6,2,92,5,0,0
32516,-166.666666666667,6,2,92,40,0,0
32666,-166.666666666667,6,2,92,5,0,0
32816,-833.333333333333,6,2,92,40,0,0
32891,-833.333333333333,6,2,92,20,0,0
33566,-833.333333333333,6,2,92,5,0,0
33716,-166.666666666667,6,2,92,40,0,0
33866,-166.666666666667,6,2,92,5,0,0
34016,-166.666666666667,6,2,92,40,0,0
34166,-166.666666666667,6,2,92,5,0,0
34316,-166.666666666667,6,2,92,40,0,0
34466,-166.666666666667,6,2,92,5,0,0
34616,-666.666666666667,6,2,92,40,0,0
34691,-666.666666666667,6,2,92,20,0,0
35216,-666.666666666667,6,2,92,40,0,0
35516,-166.666666666667,6,2,92,40,0,0
35666,-166.666666666667,6,2,92,5,0,0
35816,-166.666666666667,6,2,92,40,0,0
36566,-166.666666666667,6,2,92,5,0,0
36716,-166.666666666667,6,2,92,40,0,0
37466,-166.666666666667,6,2,92,5,0,0
37616,-166.666666666667,6,2,92,40,0,0
38366,-166.666666666667,6,2,92,5,0,0
38516,-166.666666666667,6,2,92,40,0,0
39266,-166.666666666667,6,2,92,5,0,0
39416,-166.666666666667,6,2,92,40,0,0
39566,-166.666666666667,6,2,92,5,0,0
39716,-166.666666666667,6,2,92,40,0,0
39866,-166.666666666667,6,2,92,5,0,0
40016,-833.333333333333,6,2,92,40,0,0
40091,-833.333333333333,6,2,92,20,0,0
40766,-833.333333333333,6,2,92,5,0,0
40916,-166.666666666667,6,2,92,40,0,0
41066,-166.666666666667,6,2,92,5,0,0
41216,-166.666666666667,6,2,92,40,0,0
41366,-166.666666666667,6,2,92,5,0,0
41516,-166.666666666667,6,2,92,40,0,0
41666,-166.666666666667,6,2,92,5,0,0
41816,-666.666666666667,6,2,92,40,0,0
41891,-666.666666666667,6,2,92,20,0,0
42416,-666.666666666667,6,2,92,40,0,0
42716,-166.666666666667,6,2,92,40,0,0
42866,-166.666666666667,6,2,92,5,0,0
43016,-166.666666666667,6,2,92,40,0,0
43766,-166.666666666667,6,2,92,5,0,0
43916,-166.666666666667,6,2,92,40,0,0
44666,-166.666666666667,6,2,92,5,0,0
44816,-166.666666666667,6,2,92,40,0,0
45416,-166.666666666667,6,2,80,40,0,0
46316,-111.111111111111,6,2,80,60,0,0
59516,-111.111111111111,6,2,81,40,0,0
59666,-111.111111111111,6,2,80,60,0,0
59816,-111.111111111111,6,2,81,40,0,0
59966,-111.111111111111,6,2,80,60,0,0
60116,-111.111111111111,6,2,81,40,0,0
60266,-111.111111111111,6,2,80,60,0,0
60416,-111.111111111111,6,2,81,40,0,0
60566,-111.111111111111,6,2,80,60,0,0
60716,-111.111111111111,6,2,81,60,0,0
61616,-111.111111111111,6,2,80,60,0,0
61916,-111.111111111111,6,2,80,30,0,0
62216,-111.111111111111,6,2,80,60,0,0
62816,-111.111111111111,6,2,80,40,0,0
63716,-111.111111111111,6,2,80,30,0,0
63866,-111.111111111111,6,2,80,50,0,0
64016,-111.111111111111,6,2,80,40,0,0
64316,-111.111111111111,6,2,80,60,0,0
65216,-111.111111111111,6,2,80,30,0,0
65516,-111.111111111111,6,2,80,60,0,0
67016,-111.111111111111,6,2,80,30,0,0
67316,-111.111111111111,6,2,80,60,0,0
67916,-111.111111111111,6,2,81,40,0,0
68016,-111.111111111111,6,2,80,60,0,0
68816,-111.111111111111,6,2,81,40,0,0
68891,-111.111111111111,6,2,80,60,0,0
69716,-111.111111111111,6,2,81,40,0,0
69866,-111.111111111111,6,2,80,60,0,0
70616,-111.111111111111,6,2,81,40,0,0
70766,-111.111111111111,6,2,80,60,0,0
71516,-111.111111111111,6,2,81,40,0,0
71591,-111.111111111111,6,2,80,60,0,0
72416,-111.111111111111,6,2,81,40,0,0
72491,-111.111111111111,6,2,80,60,0,0
73316,-111.111111111111,6,2,82,50,0,0
73391,-111.111111111111,6,2,80,60,0,0
75116,-111.111111111111,6,2,80,70,0,0
81866,-111.111111111111,6,2,80,50,0,0
82316,-111.111111111111,6,2,80,70,0,0
89516,-100,6,2,80,80,0,0

[Colours]
Combo1 : 232,232,232
Combo2 : 128,255,255
Combo3 : 255,128,128
Combo4 : 128,128,255
Combo5 : 117,255,117

[HitObjects]
159,81,159,6,0,P|171:139|178:204,1,111.999996582031,4|4,3:0|3:0,0:0:0:0:
286,178,609,2,0,P|273:236|267:301,1,111.999996582031,4|4,3:0|3:0,0:0:0:0:
171,283,1059,6,0,P|145:273|106:272,1,55.9999982910157,4|0,3:0|0:0,0:0:0:0:
359,247,1359,2,0,P|386:244|413:235,1,55.9999982910157,4|0,3:0|0:0,0:0:0:0:
171,283,1659,2,0,P|145:273|106:272,1,55.9999982910157,4|0,3:0|0:0,0:0:0:0:
276,323,1959,5,4,3:0:0:0:
203,202,2109,1,2,0:0:0:0:
271,347,2259,1,4,3:0:0:0:
359,247,2409,1,4,3:0:0:0:
412,342,2559,1,2,0:0:0:0:
276,323,2709,1,4,3:0:0:0:
376,155,2859,6,0,L|365:228,1,55.9999982910157,4|2,3:0|0:0,0:0:0:0:
171,283,3159,2,0,L|179:227,1,55.9999982910157,4|2,3:0|0:0,0:0:0:0:
376,155,3459,2,0,L|365:228,1,55.9999982910157,4|2,3:0|0:0,0:0:0:0:
246,177,3759,22,0,P|187:187|93:200,1,143.999995605469,4|4,3:2|3:3,0:0:0:0:
47,60,4209,2,0,P|136:54|145:122,1,143.999995605469,4|4,3:0|3:0,0:0:0:0:
308,98,4659,6,0,P|278:94|229:84,1,71.9999978027344,12|2,3:0|0:0,0:0:0:0:
100,294,4959,2,0,P|129:290|179:280,1,71.9999978027344,4|2,3:0|0:0,0:0:0:0:
308,98,5259,2,0,P|278:94|229:84,1,71.9999978027344,4|2,3:0|0:0,0:0:0:0:
363,205,5559,5,4,3:0:0:0:
273,212,5709,1,4,3:0:0:0:
277,247,5784,1,4,3:0:0:0:
297,277,5859,1,4,3:0:0:0:
328,294,5934,1,4,3:0:0:0:
363,296,6009,2,0,L|425:287,1,47.9999985351563,4|4,3:0|3:0,0:0:0:0:
491,273,6159,5,4,3:0:0:0:
388,65,6309,1,4,3:0:0:0:
363,205,6459,1,4,3:0:0:0:
504,151,6609,2,0,L|443:145,1,47.9999985351563,4|4,3:0|3:0,0:0:0:0:
296,64,6759,22,0,P|302:95|311:120,1,47.9999985351563,4|4,3:0|3:0,0:0:0:0:
351,349,6946,2,0,P|357:317|367:285,1,53.9999983520508,4|4,3:0|3:0,0:0:0:0:
273,212,7159,2,0,L|209:203,1,53.9999983520508,4|4,3:0|3:0,0:0:0:0:
125,198,7359,5,4,3:0:0:0:
243,296,7509,1,2,0:0:0:0:
307,110,7659,2,0,P|267:118|215:122,1,71.9999978027344,4|2,3:0|0:0,0:0:0:0:
122,62,7959,2,0,L|132:2,2,44.0000013427735,4|4|4,3:0|3:0|3:0,0:0:0:0:
15,127,8259,6,0,L|1:76,2,44.0000013427735,4|4|4,3:0|3:0|3:0,0:0:0:0:
125,198,8559,2,0,P|166:216|206:218,1,71.9999978027344,4|2,3:0|0:0,0:0:0:0:
437,324,8859,2,0,P|401:329|369:345,1,71.9999978027344,4|2,3:0|0:0,0:0:0:0:
221,319,9159,5,4,3:0:0:0:
386,252,9309,1,2,0:0:0:0:
236,160,9459,2,0,P|225:196|224:236,2,47.9999985351563,4|4|4,3:0|3:0|3:0,0:0:0:0:
250,47,9759,2,0,P|191:94|105:70,1,143.999995605469,4|4,3:0|3:0,0:0:0:0:
113,54,10134,1,0,0:0:0:0:
113,54,10209,1,4,3:0:0:0:
125,198,10359,22,0,P|143:243|144:282,1,55.9999982910157,4|4,3:0|3:0,0:0:0:0:
99,353,10509,1,4,3:0:0:0:
251,205,10659,6,0,P|281:166|314:146,1,55.9999982910157,4|4,3:0|3:0,0:0:0:0:
398,150,10809,1,4,3:0:0:0:
195,104,10959,6,0,P|139:92|105:73,1,71.9999978027344,4|2,3:0|0:0,0:0:0:0:
190,6,11259,1,4,3:0:0:0:
125,198,11409,1,4,3:0:0:0:
296,126,11559,2,0,L|279:50,2,63.9999980468751,4|4|4,3:0|3:0|3:0,0:0:0:0:
424,238,11859,6,0,P|377:243|331:258,1,80,4|2,3:0|0:0,0:0:0:0:
46,183,12159,2,0,P|84:193|124:197,1,80,4|2,3:0|0:0,0:0:0:0:
424,238,12459,2,0,P|377:243|331:258,1,80,4|2,3:0|0:0,0:0:0:0:
230,335,12759,21,4,3:0:0:0:
286,166,12909,1,2,0:0:0:0:
400,324,13059,1,4,3:0:0:0:
214,306,13209,1,2,0:0:0:0:
375,142,13359,2,0,L|359:238,1,80,4|2,3:0|0:0,0:0:0:0:
214,306,13659,5,4,3:0:0:0:
100,301,13809,1,2,3:2:0:0:
282,218,13959,5,0,3:2:0:0:
396,213,14109,1,2,3:2:0:0:
219,116,14259,5,8,3:3:0:0:
105,111,14409,1,8,3:3:0:0:
287,28,14559,21,6,3:2:0:0:
375,142,14709,2,0,P|363:246|354:321,1,160,2|2,0:0|0:0,0:0:0:0:
353,325,15084,1,2,0:0:0:0:
353,325,15159,1,2,3:2:0:0:
282,218,15309,1,2,3:2:0:0:
454,268,15459,5,2,3:2:0:0:
205,279,15609,1,2,0:0:0:0:
189,258,15684,1,2,0:0:0:0:
185,230,15759,1,2,3:2:0:0:
238,102,15909,1,2,3:2:0:0:
282,218,16059,1,2,3:2:0:0:
109,149,16209,1,2,3:2:0:0:
354,145,16359,5,10,3:2:0:0:
205,279,16509,2,0,P|133:273|27:257,1,160,10|2,0:0|0:0,0:0:0:0:
304,229,16959,2,0,P|311:269|313:323,1,80,8|2,3:2|3:2,0:0:0:0:
231,141,17259,6,0,L|240:87,2,40,2|2|2,3:2|0:0|3:2,0:0:0:0:
223,282,17559,1,10,3:2:0:0:
360,166,17709,1,10,3:2:0:0:
139,116,17859,1,2,3:2:0:0:
282,218,18009,1,2,3:2:0:0:
107,301,18159,22,0,L|117:344,2,40,14|2|2,3:2|0:0|0:0,0:0:0:0:
29,161,18459,2,0,L|121:147,1,80,0|2,0:0|0:0,0:0:0:0:
262,30,18759,2,0,P|236:74|241:114,1,80,0|2,3:2|3:2,0:0:0:0:
365,248,19059,5,2,3:2:0:0:
327,95,19209,1,2,0:0:0:0:
486,171,19359,2,0,L|394:157,1,80,2|2,3:2|3:2,0:0:0:0:
350,337,19659,2,0,P|380:338|427:306,1,80,2|2,3:2|3:2,0:0:0:0:
399,127,19959,5,10,3:2:0:0:
282,218,20109,2,0,P|303:303|311:383,1,160,10|2,0:0|0:0,0:0:0:0:
202,282,20559,2,0,P|202:320|182:371,1,80,0|2,3:2|3:2,0:0:0:0:
107,301,20859,5,2,3:2:0:0:
274,198,21009,1,2,3:2:0:0:
130,50,21159,1,10,3:2:0:0:
172,183,21309,1,10,3:2:0:0:
399,127,21459,1,2,3:2:0:0:
377,106,21534,1,2,0:0:0:0:
350,94,21609,1,2,3:2:0:0:
320,92,21684,1,2,0:0:0:0:
292,102,21759,22,0,P|408:86|454:72,1,160,6|0,3:2|0:0,0:0:0:0:
345,252,22209,2,0,P|267:231|188:223,1,160,2|2,3:2|3:2,0:0:0:0:
53,193,22659,2,0,P|59:232|59:272,1,80,2|0,3:2|0:0,0:0:0:0:
139,362,22959,1,2,3:2:0:0:
165,223,23109,1,2,3:2:0:0:
32,295,23259,1,2,3:2:0:0:
248,323,23409,1,2,3:2:0:0:
263,142,23559,5,10,3:2:0:0:
165,223,23709,2,0,P|201:261|333:239,1,160,10|2,0:0|0:0,0:0:0:0:
414,101,24159,2,0,P|384:131|376:178,1,80,0|2,3:2|3:2,0:0:0:0:
451,297,24459,5,2,3:2:0:0:
480,185,24609,1,2,3:2:0:0:
263,142,24759,5,2,3:2:0:0:
292,254,24909,1,2,3:2:0:0:
387,175,25059,21,2,3:2:0:0:
160,214,25209,1,2,3:2:0:0:
348,344,25359,6,0,P|296:296|208:322,1,160,6|0,3:2|0:0,0:0:0:0:
75,160,25809,1,2,0:0:0:0:
0,234,25959,2,0,P|35:256|97:255,1,80,0|2,3:2|3:2,0:0:0:0:
249,63,26259,6,0,L|267:172,1,80,2|0,3:2|0:0,0:0:0:0:
452,298,26559,2,0,L|465:219,1,80,2|2,3:2|3:2,0:0:0:0:
352,90,26859,1,2,3:2:0:0:
371,253,27009,1,2,3:2:0:0:
176,129,27159,5,10,3:2:0:0:
306,202,27309,2,0,P|381:214|475:218,1,160,10|2,0:0|3:2,0:0:0:0:
348,344,27759,2,0,P|304:355|259:354,1,80,0|2,3:2|3:2,0:0:0:0:
136,233,28059,21,6,3:2:0:0:
241,347,28209,1,2,3:2:0:0:
301,187,28359,1,10,3:2:0:0:
111,252,28509,1,10,3:2:0:0:
211,141,28659,1,2,3:2:0:0:
215,111,28734,1,2,0:0:0:0:
219,81,28809,1,2,3:2:0:0:
224,51,28884,1,2,0:0:0:0:
228,22,28959,53,2,0:0:0:0:
256,192,29039,12,0,31666,0:0:0:0:
254,42,31916,6,0,P|269:67|276:96,1,47.9999985351563,2|0,0:3|0:0,0:0:0:0:
220,159,32216,2,0,P|210:186|191:210,1,47.9999985351563,2|0,0:0|0:0,0:0:0:0:
110,227,32516,2,0,P|81:237|52:239,1,47.9999985351563,4|0,0:0|0:0,0:0:0:0:
49,255,32816,54,0,P|72:258|94:267,1,47.9999985351563,8|0,0:0|0:0,0:0:0:0:
222,367,33716,6,0,P|207:342|200:313,1,47.9999985351563,4|0,0:3|0:0,0:0:0:0:
256,250,34016,2,0,P|266:223|285:199,1,47.9999985351563,2|0,0:3|0:0,0:0:0:0:
366,182,34316,2,0,P|395:172|424:170,1,47.9999985351563,2|0,0:0|0:0,0:0:0:0:
427,154,34616,54,0,P|404:151|382:142,1,47.9999985351563,4|8,0:0|0:3,0:0:0:0:
268,77,35516,6,0,L|258:147,1,47.9999985351563,2|0,0:0|0:0,0:0:0:0:
356,118,35816,1,8,0:3:0:0:
171,91,36116,1,8,0:0:0:0:
275,221,36416,6,0,L|205:211,1,47.9999985351563,2|0,0:3|0:0,0:0:0:0:
234,309,36716,1,8,0:0:0:0:
261,124,37016,1,4,0:1:0:0:
384,263,37316,6,0,L|394:193,1,47.9999985351563,2|0,0:3|0:0,0:0:0:0:
296,222,37616,1,4,0:0:0:0:
481,249,37916,1,8,0:0:0:0:
376,118,38216,6,0,L|446:128,1,47.9999985351563,4|0,0:3|0:0,0:0:0:0:
417,30,38516,1,2,0:0:0:0:
390,215,38816,1,4,0:0:0:0:
268,77,39116,22,0,L|258:147,1,47.9999985351563,2|0,0:3|0:0,0:0:0:0:
152,142,39416,2,0,L|183:205,1,47.9999985351563,2|0,0:0|0:0,0:0:0:0:
111,261,39716,2,0,L|173:294,1,47.9999985351563,4|0,0:0|0:0,0:0:0:0:
177,297,40016,54,0,L|114:330,1,47.9999985351563,8|0,0:0|0:0,0:0:0:0:
285,338,40916,6,0,L|295:268,1,47.9999985351563,4|0,0:3|0:0,0:0:0:0:
401,273,41216,2,0,L|369:209,1,47.9999985351563,2|0,0:3|0:0,0:0:0:0:
442,154,41516,2,0,L|379:120,1,47.9999985351563,2|0,0:0|0:0,0:0:0:0:
376,118,41816,54,0,L|438:84,1,47.9999985351563,4|8,0:0|0:0,0:0:0:0:
191,39,42716,6,0,L|201:105,1,47.9999985351563,2|0,0:3|0:0,0:0:0:0:
290,153,43016,1,4,0:0:0:0:
114,143,43316,1,2,0:0:0:0:
290,153,43616,6,0,L|280:219,1,47.9999985351563,4|0,0:3|0:0,0:0:0:0:
191,267,43916,1,2,0:0:0:0:
367,257,44216,1,4,0:0:0:0:
191,267,44516,6,0,L|201:333,1,47.9999985351563,2|0,0:3|0:0,0:0:0:0:
290,381,44816,1,4,0:1:0:0:
114,371,45116,1,8,0:0:0:0:
290,381,45416,5,8,0:3:0:0:
201,327,45566,1,2,0:0:0:0:
201,327,45641,1,2,0:0:0:0:
201,327,45716,1,2,0:0:0:0:
367,257,45866,1,0,3:2:0:0:
293,353,46016,1,2,0:0:0:0:
164,160,46166,1,2,0:0:0:0:
253,228,46316,22,0,P|206:273|112:262,1,143.999995605469,6|0,3:2|3:2,0:0:0:0:
30,175,46766,1,0,3:2:0:0:
175,88,46916,2,0,L|163:163,1,71.9999978027344,2|2,0:0|0:0,0:0:0:0:
191,358,47216,5,8,3:2:0:0:
119,248,47366,1,10,3:2:0:0:
326,219,47516,2,0,P|298:215|251:204,1,71.9999978027344,2|2,0:0|0:0,0:0:0:0:
7,102,47816,2,0,P|34:98|82:87,1,71.9999978027344,8|2,3:2|0:0,0:0:0:0:
300,49,48116,6,0,L|310:122,2,47.9999985351563,2|2|2,3:2|0:0|0:0,0:0:0:0:
404,75,48416,2,0,L|393:160,1,71.9999978027344,8|8,3:2|3:2,0:0:0:0:
191,358,48716,2,0,L|200:286,1,71.9999978027344,2|10,0:0|3:2,0:0:0:0:
335,237,49016,5,10,3:2:0:0:
335,237,49091,1,2,0:0:0:0:
335,237,49166,1,2,0:0:0:0:
163,150,49316,1,2,0:0:0:0:
220,278,49466,1,2,0:0:0:0:
314,104,49616,1,2,0:0:0:0:
200,286,49766,1,2,3:2:0:0:
75,113,49916,22,0,L|68:160,2,47.9999985351563,2|2|2,3:2|0:0|0:0,0:0:0:0:
163,150,50216,2,0,L|245:134,1,71.9999978027344,2|2,0:0|3:2,0:0:0:0:
491,172,50516,2,0,L|420:158,1,71.9999978027344,2|2,0:0|0:0,0:0:0:0:
243,154,50816,5,8,3:2:0:0:
357,95,50966,2,0,P|372:159|383:254,1,143.999995605469,10|10,3:2|3:2,0:0:0:0:
357,355,51416,2,0,P|389:342|447:333,1,71.9999978027344,2|2,3:2|0:0,0:0:0:0:
257,265,51716,6,0,L|195:253,2,47.9999985351563,0|2|2,3:2|0:0|0:0,0:0:0:0:
361,252,52016,1,8,3:2:0:0:
220,346,52166,1,8,3:2:0:0:
261,173,52316,1,2,0:0:0:0:
339,268,52466,1,10,3:2:0:0:
118,225,52616,6,0,P|119:267|133:318,1,71.9999978027344,10|2,3:2|0:0,0:0:0:0:
238,158,52916,1,2,0:0:0:0:
43,94,53066,1,2,0:0:0:0:
194,23,53216,1,2,0:0:0:0:
205,147,53366,1,2,3:2:0:0:
357,95,53516,22,0,P|341:165|336:245,1,143.999995605469,6|2,3:2|0:0,0:0:0:0:
431,190,53966,1,2,3:2:0:0:
238,158,54116,2,0,P|245:203|258:245,1,71.9999978027344,2|2,0:0|0:0,0:0:0:0:
390,367,54416,5,8,3:2:0:0:
468,290,54566,2,0,P|423:258|325:278,1,143.999995605469,10|10,3:2|3:2,0:0:0:0:
139,315,55016,2,0,P|172:327|234:331,1,71.9999978027344,2|2,3:2|0:0,0:0:0:0:
252,228,55316,6,0,L|240:170,2,47.9999985351563,0|2|2,3:2|0:0|0:0,0:0:0:0:
142,206,55616,1,8,3:2:0:0:
321,133,55766,2,0,P|256:126|175:111,1,143.999995605469,8|10,3:2|3:2,0:0:0:0:
277,35,56216,6,0,L|271:-9,2,35.9999989013672,10|2|2,3:2|0:0|0:0,0:0:0:0:
252,228,56516,1,2,0:0:0:0:
155,103,56666,1,2,0:0:0:0:
366,27,56816,1,2,0:0:0:0:
178,111,56966,1,2,3:2:0:0:
414,183,57116,22,0,L|426:112,2,47.9999985351563,2|2|2,3:2|0:0|0:0,0:0:0:0:
321,133,57416,1,2,0:0:0:0:
365,262,57566,2,0,P|399:228|500:220,1,143.999995605469,2|2,3:2|0:0,0:0:0:0:
446,384,58016,6,0,L|454:313,1,71.9999978027344,8|10,3:2|3:2,0:0:0:0:
321,133,58316,2,0,L|313:204,1,71.9999978027344,2|10,0:0|3:2,0:0:0:0:
153,365,58616,2,0,L|160:293,1,71.9999978027344,2|2,3:2|0:0,0:0:0:0:
215,172,58916,6,0,P|187:183|150:187,2,47.9999985351563,0|2|2,3:2|0:0|0:0,0:0:0:0:
168,82,59216,1,10,3:2:0:0:
174,280,59366,1,10,3:2:0:0:
312,204,59516,1,2,3:2:0:0:
62,237,59666,1,2,3:2:0:0:
168,55,59816,5,4,3:2:0:0:
192,265,59966,1,2,3:2:0:0:
294,20,60116,1,2,3:2:0:0:
303,224,60266,1,2,3:2:0:0:
421,39,60416,1,8,3:2:0:0:
427,259,60566,1,2,3:2:0:0:
372,138,60716,5,6,0:1:0:0:
376,142,61616,5,6,0:0:0:0:
376,142,61916,1,4,3:0:0:0:
272,76,62066,1,4,3:0:0:0:
303,224,62216,1,2,0:0:0:0:
308,259,62291,1,2,0:0:0:0:
314,295,62366,1,2,0:0:0:0:
319,330,62441,1,2,0:0:0:0:
325,366,62516,5,2,0:0:0:0:
325,366,62816,1,0,3:2:0:0:
194,310,62966,2,0,P|170:265|227:181,1,143.999995605469,8|8,0:3|0:3,0:0:0:0:
372,138,63416,6,0,P|337:148|288:153,1,71.9999978027344,0|0,3:2|0:0,0:0:0:0:
224,42,63716,1,4,3:0:0:0:
220,59,63866,1,2,0:0:0:0:
117,77,64016,1,8,0:3:0:0:
113,94,64166,1,8,0:3:0:0:
10,112,64316,6,0,P|18:168|28:260,1,143.999995605469,0|0,3:2|3:2,0:0:0:0:
9,377,64766,2,0,P|37:366|82:355,2,71.9999978027344,8|0|0,0:3|3:2|3:2,0:0:0:0:
140,259,65216,22,0,P|187:273|214:299,1,71.9999978027344,4|0,3:0|0:0,0:0:0:0:
334,373,65516,2,0,P|323:324|331:288,1,71.9999978027344,8|8,0:3|0:3,0:0:0:0:
372,138,65816,2,0,P|335:171|300:182,1,71.9999978027344,0|0,3:2|3:2,0:0:0:0:
176,101,66116,6,0,P|196:181|206:267,1,143.999995605469,0|0,3:2|3:2,0:0:0:0:
62,148,66566,2,0,P|59:184|49:238,1,71.9999978027344,8|0,0:3|3:2,0:0:0:0:
9,377,66866,1,0,3:2:0:0:
178,268,67016,6,0,P|184:303|186:339,1,71.9999978027344,4|0,3:0|0:0,0:0:0:0:
53,237,67316,1,8,0:3:0:0:
283,186,67466,1,0,0:0:0:0:
144,78,67616,1,0,3:2:0:0:
204,241,67766,1,0,3:2:0:0:
299,83,67916,6,0,L|310:23,2,47.9999985351563,2|8|8,3:1|0:3|0:3,0:0:0:0:
283,186,68216,1,8,0:3:0:0:
181,71,68366,1,8,0:3:0:0:
389,88,68516,2,0,P|399:117|406:175,1,71.9999978027344,8|0,3:2|0:0,0:0:0:0:
357,279,68816,22,0,P|390:265|439:259,1,71.9999978027344,4|0,3:2|0:0,0:0:0:0:
214,166,69116,2,0,P|247:179|282:185,1,71.9999978027344,8|8,0:3|3:2,0:0:0:0:
125,316,69416,1,0,3:2:0:0:
14,233,69566,1,0,0:0:0:0:
125,316,69716,6,0,P|178:293|275:283,1,143.999995605469,4|0,3:0|3:2,0:0:0:0:
406,158,70166,1,8,0:3:0:0:
282,185,70316,2,0,P|247:179|214:166,1,71.9999978027344,8|0,3:2|3:2,0:0:0:0:
85,68,70616,6,0,P|104:118|116:237,1,143.999995605469,2|8,3:0|0:3,0:0:0:0:
16,160,71066,1,0,3:2:0:0:
206,83,71216,2,0,P|213:121|212:167,1,71.9999978027344,8|8,0:3|3:2,0:0:0:0:
337,67,71516,6,0,P|316:131|322:238,1,143.999995605469,8|0,3:1|3:2,0:0:0:0:
419,356,71966,1,8,0:3:0:0:
471,272,72116,2,0,P|445:262|393:259,1,71.9999978027344,8|0,3:2|3:2,0:0:0:0:
276,367,72416,22,0,P|293:340|295:286,1,71.9999978027344,10|0,0:3|3:2,0:0:0:0:
135,141,72716,2,0,P|124:163|122:217,1,71.9999978027344,8|8,0:3|3:2,0:0:0:0:
293,219,73016,1,8,0:3:0:0:
79,298,73166,1,0,3:2:0:0:
218,160,73316,6,0,P|292:174|372:180,1,143.999995605469,14|8,3:2|3:2,0:0:0:0:
396,45,73766,1,0,0:0:0:0:
304,19,73916,2,0,P|304:61|319:99,1,71.9999978027344,8|0,3:2|0:0,0:0:0:0:
455,163,74216,5,8,3:2:0:0:
120,115,74366,1,4,0:0:0:0:
214,258,74516,1,8,3:2:0:0:
295,102,74666,1,0,3:2:0:0:
99,252,74816,1,0,3:2:0:0:
280,356,74966,1,0,3:2:0:0:
231,173,75116,21,6,3:2:0:0:
162,148,81866,5,0,3:2:0:0:
164,165,81941,1,0,3:2:0:0:
167,183,82016,1,0,3:2:0:0:
306,258,82166,1,0,3:2:0:0:
393,129,82316,6,0,P|318:145|222:158,1,143.999995605469,6|8,3:2|3:2,0:0:0:0:
47,170,82766,1,4,3:0:0:0:
155,112,82916,2,0,P|162:146|168:202,1,71.9999978027344,8|2,3:2|0:0,0:0:0:0:
136,319,83216,6,0,L|225:297,1,71.9999978027344,0|2,3:2|0:0,0:0:0:0:
307,51,83516,2,0,L|237:68,1,71.9999978027344,0|10,3:2|0:0,0:0:0:0:
150,207,83816,1,0,3:2:0:0:
234,84,83966,1,2,0:0:0:0:
306,253,84116,6,0,P|317:288|318:336,1,71.9999978027344,0|2,3:2|3:2,0:0:0:0:
205,301,84416,1,0,3:2:0:0:
427,238,84566,1,4,3:0:0:0:
299,157,84716,2,0,L|252:171,2,35.9999989013672,8|8|10,0:0|0:0|0:0,0:0:0:0:
411,35,85016,22,0,P|400:70|399:118,1,71.9999978027344,8|2,3:2|3:2,0:0:0:0:
445,223,85316,1,0,3:2:0:0:
485,90,85466,1,2,0:0:0:0:
303,62,85616,1,0,3:2:0:0:
395,132,85766,1,2,3:2:0:0:
234,173,85916,6,0,P|161:165|84:151,1,143.999995605469,0|0,3:2|3:2,0:0:0:0:
182,59,86366,1,4,3:0:0:0:
178,264,86516,2,0,P|143:273|92:278,1,71.9999978027344,8|2,0:0|0:0,0:0:0:0:
283,185,86816,6,0,P|298:212|305:267,1,71.9999978027344,8|2,0:0|0:0,0:0:0:0:
159,126,87116,2,0,P|165:90|181:58,1,71.9999978027344,0|10,3:2|0:0,0:0:0:0:
373,48,87416,2,0,P|338:56|302:61,1,71.9999978027344,2|10,3:2|0:0,0:0:0:0:
15,112,87716,6,0,P|84:114|179:130,1,143.999995605469,0|2,3:2|0:0,0:0:0:0:
283,185,88166,1,4,3:0:0:0:
197,287,88316,1,0,3:2:0:0:
179,141,88466,1,2,3:2:0:0:
266,353,88616,21,4,3:2:0:0:
295,170,88766,1,2,3:2:0:0:
379,268,88916,2,0,P|414:263|454:252,1,71.9999978027344,0|2,3:2|3:2,0:0:0:0:
115,220,89216,2,0,P|79:215|44:205,1,71.9999978027344,2|2,3:2|3:2,0:0:0:0:
308,154,89516,5,6,3:2:0:0:
205,105,89666,2,0,L|226:264,1,160,2|2,0:0|0:0,0:0:0:0:
367,353,90116,1,0,3:2:0:0:
308,154,90266,1,2,3:2:0:0:
197,287,90416,6,0,L|115:275,2,53.3333333333333,2|2|2,3:2|0:0|0:0,0:0:0:0:
295,170,90716,1,2,3:2:0:0:
266,353,90866,1,2,3:2:0:0:
91,195,91016,2,0,L|171:183,1,80,2|2,3:2|3:2,0:0:0:0:
398,97,91316,5,10,3:2:0:0:
289,29,91466,2,0,P|259:92|305:176,1,160,10|2,0:0|0:0,0:0:0:0:
459,175,91916,2,0,L|448:268,1,80,0|2,3:2|3:2,0:0:0:0:
367,353,92216,21,2,3:2:0:0:
476,257,92366,1,2,3:2:0:0:
373,119,92516,1,2,3:2:0:0:
346,333,92666,1,2,3:2:0:0:
276,185,92816,1,2,3:2:0:0:
163,343,92966,1,2,3:2:0:0:
98,228,93116,6,0,P|169:219|259:204,1,160,6|0,3:2|0:0,0:0:0:0:
398,97,93566,1,2,0:0:0:0:
278,36,93716,2,0,P|266:77|268:139,1,80,0|2,3:2|3:2,0:0:0:0:
449,254,94016,6,0,P|446:214|435:175,1,80,2|0,3:2|0:0,0:0:0:0:
273,127,94316,1,2,3:2:0:0:
365,227,94466,1,2,3:2:0:0:
399,68,94616,1,2,3:2:0:0:
165,75,94766,1,2,3:2:0:0:
264,297,94916,5,10,3:2:0:0:
365,227,95066,2,0,P|316:186|204:194,1,160,10|2,0:0|0:0,0:0:0:0:
61,316,95516,2,0,P|103:317|148:291,1,80,0|2,3:2|3:2,0:0:0:0:
130,83,95816,21,2,3:2:0:0:
88,221,95966,1,2,3:2:0:0:
264,297,96116,5,10,3:2:0:0:
222,159,96266,1,10,3:2:0:0:
390,69,96416,5,2,3:2:0:0:
384,108,96491,1,2,0:0:0:0:
378,148,96566,1,2,3:2:0:0:
372,187,96641,1,2,0:0:0:0:
365,227,96716,5,6,3:2:0:0:
222,159,96866,2,0,P|157:148|54:138,1,160,2|2,0:0|0:0,0:0:0:0:
149,240,97316,2,0,P|109:243|42:256,1,80,0|2,3:2|3:2,0:0:0:0:
125,333,97616,22,0,L|139:384,2,53.3333333333333,2|2|2,3:2|0:0|0:0,0:0:0:0:
183,237,97916,1,2,3:2:0:0:
51,271,98066,1,2,3:2:0:0:
231,347,98216,2,0,P|277:344|313:331,1,80,2|2,3:2|3:2,0:0:0:0:
455,169,98516,5,10,3:2:0:0:
494,288,98666,2,0,P|421:288|345:230,1,160,10|2,0:0|0:0,0:0:0:0:
298,79,99116,2,0,P|297:117|283:179,1,80,0|2,3:2|3:2,0:0:0:0:
183,237,99416,5,2,3:2:0:0:
356,216,99566,1,2,3:2:0:0:
204,107,99716,1,2,3:2:0:0:
256,307,99866,1,2,3:2:0:0:
444,190,100016,1,2,3:2:0:0:
274,175,100166,1,2,3:2:0:0:
334,355,100316,6,0,P|255:342|174:339,1,160,6|0,3:2|0:0,0:0:0:0:
23,370,100766,1,2,0:0:0:0:
163,313,100916,2,0,P|177:276|181:223,1,80,0|2,3:2|3:2,0:0:0:0:
25,104,101216,22,0,P|37:136|44:204,1,80,2|0,3:2|0:0,0:0:0:0:
158,122,101516,1,2,3:2:0:0:
159,108,101591,1,0,0:0:0:0:
160,96,101666,1,2,3:2:0:0:
274,175,101816,2,0,P|287:137|293:97,1,80,2|2,3:2|3:2,0:0:0:0:
158,122,102116,5,10,3:2:0:0:
265,282,102266,2,0,P|306:274|348:254,1,80,10|0,0:0|0:0,0:0:0:0:
429,79,102566,1,2,3:2:0:0:
279,189,102716,1,0,3:2:0:0:
432,272,102866,1,2,3:2:0:0:
366,125,103016,5,6,3:2:0:0:
141,245,103166,2,0,P|130:292|127:346,1,80,2|10,3:2|3:2,0:0:0:0:
274,175,103466,2,0,P|269:135|260:96,1,80,10|2,3:2|3:2,0:0:0:0:
177,156,103766,1,2,3:2:0:0:
398,102,103916,5,6,3:2:0:0:
436,216,104066,2,0,P|366:199|264:188,1,160,2|2,0:0|0:0,0:0:0:0:
227,327,104516,1,0,3:2:0:0:
356,286,104666,1,2,3:2:0:0:
197,162,104816,22,0,L|209:228,2,53.3333333333333,2|2|2,3:2|0:0|0:0,0:0:0:0:
109,83,105116,1,2,3:2:0:0:
296,194,105266,1,2,3:2:0:0:
105,210,105416,2,0,L|15:195,1,80,2|2,3:2|3:2,0:0:0:0:
157,384,105716,5,10,3:2:0:0:
263,308,105866,2,0,P|313:283|437:289,1,160,10|2,0:0|0:0,0:0:0:0:
306,176,106316,2,0,P|276:130|273:76,1,80,0|2,3:2|3:2,0:0:0:0:
404,59,106616,5,2,3:2:0:0:
398,74,106691,1,0,0:0:0:0:
394,89,106766,1,2,3:2:0:0:
173,151,106916,1,2,3:2:0:0:
352,252,107066,1,2,3:2:0:0:
256,80,107216,1,2,3:2:0:0:
263,308,107366,1,2,3:2:0:0:
454,213,107516,6,0,P|373:208|280:189,1,160,6|0,3:2|0:0,0:0:0:0:
56,135,107966,1,2,0:0:0:0:
157,73,108116,2,0,P|171:115|171:164,1,80,0|2,3:2|3:2,0:0:0:0:
119,363,108416,21,2,3:2:0:0:
248,275,108566,1,0,0:0:0:0:
97,219,108716,1,2,3:2:0:0:
87,236,108791,1,0,0:0:0:0:
87,256,108866,1,2,3:2:0:0:
263,308,109016,1,2,3:2:0:0:
256,80,109166,1,2,3:2:0:0:
188,192,109316,5,10,3:2:0:0:
337,148,109466,2,0,P|364:89|317:-9,1,160,10|2,0:0|0:0,0:0:0:0:
150,25,109916,2,0,P|131:76|146:119,1,80,0|2,3:2|3:2,0:0:0:0:
260,258,110216,5,2,3:2:0:0:
256,80,110366,1,2,3:2:0:0:
68,166,110516,1,10,3:2:0:0:
311,163,110666,1,10,3:2:0:0:
160,291,110816,1,2,3:2:0:0:
120,295,110891,1,2,0:0:0:0:
80,300,110966,1,2,3:2:0:0:
40,304,111041,1,2,0:0:0:0:
1,309,111116,5,6,3:2:0:0:
68,166,111266,2,0,P|88:111|14:37,1,160,2|2,0:0|0:0,0:0:0:0:
191,22,111716,2,0,P|179:61|173:109,1,80,0|2,3:2|3:2,0:0:0:0:
260,258,112016,22,0,L|332:242,2,53.3333333333333,2|2|2,3:2|0:0|0:0,0:0:0:0:
153,197,112316,1,2,3:2:0:0:
346,165,112466,1,2,3:2:0:0:
286,351,112616,2,0,P|252:347|200:340,1,80,2|2,3:2|3:2,0:0:0:0:
413,285,112916,5,10,3:2:0:0:
260,258,113066,2,0,P|235:198|245:91,1,160,10|2,0:0|0:0,0:0:0:0:
43,92,113516,2,0,P|63:128|63:185,1,80,0|2,3:2|3:2,0:0:0:0:
28,352,113816,5,2,3:2:0:0:
97,172,113966,1,2,3:2:0:0:
206,341,114116,1,2,3:2:0:0:
62,263,114266,1,2,3:2:0:0:
312,246,114416,2,0,L|407:229,1,80,2|2,3:2|3:2,0:0:0:0:
394,22,114716,6,0,P|337:56|340:162,1,160,6|0,3:2|0:0,0:0:0:0:
241,344,115166,1,2,0:0:0:0:
349,353,115316,2,0,P|348:315|319:265,1,80,0|2,3:2|3:2,0:0:0:0:
131,180,115616,22,0,P|164:198|222:198,1,80,2|0,3:2|0:0,0:0:0:0:
414,115,115916,1,2,3:2:0:0:
199,104,116066,1,2,3:2:0:0:
217,300,116216,1,2,3:2:0:0:
324,168,116366,1,2,3:2:0:0:
90,196,116516,5,6,3:2:0:0:
191,119,116666,1,2,3:2:0:0:
214,251,116816,1,2,3:2:0:0:
51,216,116966,1,6,3:2:0:0:
51,216,117266,5,2,3:2:0:0:
416,195,117416,1,6,3:2:0:0:
