osu file format v14

[General]
AudioFilename: audio.mp3
AudioLeadIn: 0
PreviewTime: 89516
Countdown: 0
SampleSet: Soft
StackLeniency: 0.7
Mode: 0
LetterboxInBreaks: 0
WidescreenStoryboard: 1

[Editor]
Bookmarks: -41,14559,46316,60716,70616,73691,75116,89516,103916,110516
DistanceSpacing: 1.3
BeatDivisor: 4
GridSize: 4
TimelineZoom: 1.8

[Metadata]
Title:Byakuya Gensoutan
TitleUnicode:白夜幻想譚
Artist:Shimotsuki Haruka
ArtistUnicode:霜月はるか
Creator:Chaoslitz
Version:Hard
Source:イリスのアトリエ エターナルマナ
Tags:Atelier Iris Eternal Mana Pending cup #5 Suzuki_1112 Kibbleru yf_bmp Gust 1112deng Irreversible Gaia sahuang Pata-Mon
BeatmapID:1425926
BeatmapSetID:667097

[Difficulty]
HPDrainRate:5
CircleSize:4
OverallDifficulty:6
ApproachRate:7.5
SliderMultiplier:1.6
SliderTickRate:1

[Events]
//Background and Video events
0,0,"bg.jpg",0,0
//Break Periods
//Storyboard Layer 0 (Background)
//Storyboard Layer 1 (Fail)
//Storyboard Layer 2 (Pass)
//Storyboard Layer 3 (Foreground)
//Storyboard Sound Samples

[TimingPoints]
159,300,6,2,1,70,1,0
159,-166.666666666667,6,2,1,70,0,0
1059,-166.666666666667,6,2,1,70,0,0
1359,-166.666666666667,6,2,1,70,0,0
1659,-166.666666666667,6,2,1,70,0,0
1959,-166.666666666667,6,2,1,70,0,0
1996,-166.666666666667,6,2,1,10,0,0
2109,-166.666666666667,6,2,1,70,0,0
2146,-166.666666666667,6,2,1,10,0,0
2259,-166.666666666667,6,2,1,70,0,0
2559,-166.666666666667,6,2,10,70,0,0
2709,-166.666666666667,6,2,1,70,0,0
2746,-166.666666666667,6,2,1,10,0,0
2859,-166.666666666667,6,2,1,70,0,0
3759,-166.666666666667,6,2,10,70,0,0
3909,-166.666666666667,6,2,1,10,0,0
4059,-166.666666666667,6,2,1,70,0,0
4659,-166.666666666667,6,2,1,70,0,0
4959,-166.666666666667,6,2,1,70,0,0
5259,-166.666666666667,6,2,1,70,0,0
5559,-166.666666666667,6,2,1,60,0,0
6196,-166.666666666667,6,2,1,10,0,0
6309,-166.666666666667,6,2,1,60,0,0
6346,-166.666666666667,6,2,1,10,0,0
6459,-166.666666666667,6,2,1,60,0,0
7359,-125,6,2,1,70,0,0
8259,-125,6,2,1,70,0,0
8859,-125,6,2,1,70,0,0
9159,-125,6,2,1,70,0,0
9759,-125,6,2,10,70,0,0
10059,-125,6,2,1,70,0,0
11859,-125,6,2,1,70,0,0
12459,-125,6,2,1,70,0,0
13059,-125,6,2,1,70,0,0
13359,-125,6,2,1,70,0,0
13659,-125,6,2,1,70,0,0
13959,-125,6,2,1,70,0,0
14259,-125,6,2,11,85,0,0
14559,-142.857142857143,6,2,2,80,0,0
19059,-142.857142857143,6,2,2,80,0,0
19959,-142.857142857143,6,2,2,80,0,0
21759,-142.857142857143,6,2,3,85,0,0
21777,-142.857142857143,6,2,2,85,0,0
28959,320,6,2,2,70,1,0
29279,333.333333333333,6,2,31,40,1,0
29612,380.952380952381,6,2,32,35,1,0
29992,424.778761061947,6,2,33,30,1,0
30416,500,6,2,34,25,1,0
30916,-100,6,2,35,15,0,0
31916,300,6,2,2,50,1,0
31916,-166.666666666667,6,2,2,50,0,0
32966,-166.666666666667,6,2,2,10,0,0
33716,-166.666666666667,6,2,2,50,0,0
34766,-166.666666666667,6,2,2,10,0,0
35216,-166.666666666667,6,2,2,50,0,0
35516,-166.666666666667,6,2,2,50,0,0
37316,-166.666666666667,6,2,2,50,0,0
37466,-166.666666666667,6,2,2,10,0,0
37616,-166.666666666667,6,2,2,50,0,0
38366,-166.666666666667,6,2,2,10,0,0
38516,-166.666666666667,6,2,2,50,0,0
40166,-166.666666666667,6,2,2,10,0,0
40616,-166.666666666667,6,2,2,50,0,0
41966,-166.666666666667,6,2,2,10,0,0
42416,-166.666666666667,6,2,2,50,0,0
45116,-166.666666666667,6,2,1,50,0,0
45153,-166.666666666667,6,2,2,10,0,0
45416,-166.666666666667,6,2,1,60,0,0
45566,-166.666666666667,6,2,2,60,0,0
45866,-166.666666666667,6,2,1,60,0,0
46316,-142.857142857143,6,2,2,70,0,0
59516,-142.857142857143,6,2,20,70,0,0
59816,-142.857142857143,6,2,21,75,0,0
60116,-142.857142857143,6,2,20,70,0,0
60416,-142.857142857143,6,2,22,65,0,0
60566,-142.857142857143,6,2,24,65,0,0
60716,-142.857142857143,6,2,23,60,0,0
60791,-100,6,2,2,10,0,0
61316,-142.857142857143,6,2,2,70,0,0
63716,-142.857142857143,6,2,3,70,0,0
64016,-142.857142857143,6,2,2,70,0,0
64766,-142.857142857143,6,2,3,70,0,0
64916,-142.857142857143,6,2,2,70,0,0
65516,-142.857142857143,6,2,3,70,0,0
65816,-142.857142857143,6,2,2,70,0,0
66566,-142.857142857143,6,2,3,70,0,0
66716,-142.857142857143,6,2,2,70,0,0
67391,-142.857142857143,6,2,2,10,0,0
67616,-142.857142857143,6,2,2,70,0,0
69116,-142.857142857143,6,2,3,70,0,0
69266,-142.857142857143,6,2,2,70,0,0
69416,-142.857142857143,6,2,2,70,0,0
70166,-142.857142857143,6,2,3,70,0,0
70316,-142.857142857143,6,2,2,70,0,0
72716,-142.857142857143,6,2,3,70,0,0
72866,-142.857142857143,6,2,2,70,0,0
73316,-125,6,2,2,80,0,0
74216,-142.857142857143,6,2,2,80,0,0
74366,-142.857142857143,6,2,2,75,0,0
74516,-166.666666666667,6,2,2,70,0,0
74666,-142.857142857143,6,2,2,65,0,0
74816,-142.857142857143,6,2,2,60,0,0
75116,-166.666666666667,6,2,2,40,0,0
80516,-166.666666666667,6,2,2,50,0,0
81041,-166.666666666667,6,2,2,10,0,0
81116,-166.666666666667,6,2,2,40,0,0
81716,-166.666666666667,6,2,1,55,0,0
81866,-166.666666666667,6,2,2,55,0,0
82316,-142.857142857143,6,2,2,70,0,0
84716,-142.857142857143,6,2,10,70,0,0
84791,-142.857142857143,6,2,2,70,0,0
87716,-142.857142857143,6,2,2,70,0,0
88616,-142.857142857143,6,2,2,75,0,0
88766,-142.857142857143,6,2,2,80,0,0
88916,-142.857142857143,6,2,2,85,0,0
89066,-142.857142857143,6,2,2,90,0,0
89216,-142.857142857143,6,2,2,80,0,0
89516,-125,6,2,2,90,0,1
90116,-125,6,2,3,90,0,1
90266,-125,6,2,2,90,0,1
90416,-125,6,2,2,90,0,1
90716,-125,6,2,2,90,0,1
91016,-125,6,2,2,90,0,1
91316,-125,6,2,2,90,0,1
91916,-125,6,2,3,90,0,1
92066,-125,6,2,2,90,0,1
92216,-125,6,2,3,90,0,1
92441,-125,6,2,3,10,0,1
92516,-125,6,2,3,90,0,1
92816,-125,6,2,2,90,0,1
93116,-125,6,2,2,90,0,1
93716,-125,6,2,3,90,0,1
94016,-125,6,2,2,90,0,1
96716,-125,6,2,2,90,0,1
97316,-125,6,2,3,90,0,1
97466,-125,6,2,2,90,0,1
97616,-125,6,2,2,90,0,1
97916,-125,6,2,2,90,0,1
98216,-125,6,2,2,90,0,1
98516,-125,6,2,2,90,0,1
99116,-125,6,2,3,90,0,1
99266,-125,6,2,2,90,0,1
99416,-125,6,2,3,90,0,1
100016,-125,6,2,2,90,0,1
100916,-125,6,2,3,90,0,1
101066,-125,6,2,2,90,0,1
101516,-125,6,2,3,90,0,1
101666,-125,6,2,2,90,0,1
102116,-125,6,2,2,90,0,1
103166,-125,6,2,2,90,0,1
103466,-125,6,2,2,90,0,1
103841,-125,6,2,2,90,0,0
103916,-125,6,2,2,90,0,1
104516,-125,6,2,3,90,0,1
104666,-125,6,2,2,90,0,1
104816,-125,6,2,2,90,0,1
105116,-125,6,2,2,90,0,1
105416,-125,6,2,2,90,0,1
105716,-125,6,2,2,90,0,1
106316,-125,6,2,3,90,0,1
106466,-125,6,2,2,90,0,1
106616,-125,6,2,3,90,0,1
106841,-125,6,2,3,10,0,1
106916,-125,6,2,3,90,0,1
107216,-125,6,2,2,90,0,1
107516,-125,6,2,2,90,0,1
108116,-125,6,2,3,90,0,1
108416,-125,6,2,2,90,0,1
111116,-125,6,2,2,90,0,1
111716,-125,6,2,3,90,0,1
111866,-125,6,2,2,90,0,1
112016,-125,6,2,2,90,0,1
112316,-125,6,2,2,90,0,1
112616,-125,6,2,2,90,0,1
112916,-125,6,2,2,90,0,1
113516,-125,6,2,3,90,0,1
113666,-125,6,2,2,90,0,1
113816,-125,6,2,3,90,0,1
114416,-125,6,2,2,90,0,1
114716,-125,6,2,2,90,0,1
115166,-125,6,2,2,90,0,1
115616,-125,6,2,2,90,0,1
116216,-125,6,2,2,90,0,1
116516,-125,6,2,2,90,0,1
117416,-125,6,2,3,95,0,0

[Colours]
Combo1 : 231,148,248
Combo2 : 242,126,184
Combo3 : 252,155,84
Combo4 : 255,255,142
Combo5 : 143,242,130
Combo6 : 151,220,248

[HitObjects]
1,133,159,6,0,L|111:122,1,95.9999970703126,8|0,0:1|1:0,0:0:0:0:
143,191,609,2,0,L|238:181,1,95.9999970703126,8|8,0:1|0:1,0:0:0:0:
312,145,1059,2,0,L|321:49,2,95.9999970703126,2|8|8,0:3|0:0|0:1,0:0:0:0:
471,177,1959,6,0,L|466:224,1,47.9999985351563,8|2,0:0|0:0,0:0:0:0:
387,203,2259,2,0,L|382:250,1,47.9999985351563,0|0,1:0|0:0,0:0:0:0:
303,229,2559,2,0,L|298:276,1,47.9999985351563,2|2,0:3|0:0,0:0:0:0:
315,356,2859,2,0,L|219:365,1,95.9999970703126,2|8,0:3|0:0,0:0:0:0:
140,343,3309,1,0,0:0:0:0:
140,343,3459,1,8,0:0:0:0:
13,239,3759,6,0,B|0:285|0:285|22:327,2,95.9999970703126,4|0|8,0:0|1:0|0:1,0:0:0:0:
33,159,4509,1,8,0:1:0:0:
92,217,4659,2,0,L|187:207,1,95.9999970703126,2|8,0:3|0:0,0:0:0:0:
267,230,5109,1,8,0:1:0:0:
267,230,5259,1,8,0:0:0:0:
425,192,5559,5,0,1:0:0:0:
425,192,5709,2,0,L|430:145,2,47.9999985351563,0|0|0,1:0|1:0|1:0,0:0:0:0:
454,267,6159,2,0,L|449:314,1,47.9999985351563,0|0,1:0|1:0,0:0:0:0:
388,370,6459,2,0,L|341:365,1,47.9999985351563,0|4,1:0|0:3,0:0:0:0:
266,341,6759,6,0,L|263:372,2,31.9999990234375,0|4|2,1:0|1:3|1:3,0:0:0:0:
246,301,7059,2,0,L|219:282,2,31.9999990234375,0|8|8,1:0|1:1|0:1,0:0:0:0:
290,303,7359,5,2,0:3:0:0:
290,303,7509,2,0,B|324:285|324:285|329:185,1,128,2|2,0:3|0:3,0:0:0:0:
319,112,7959,2,0,P|289:100|258:103,1,64,2|8,0:3|0:1,0:0:0:0:
194,156,8259,2,0,P|138:170|84:131,2,128,2|2|2,0:3|0:3|0:3,0:0:0:0:
266,17,9159,5,0,1:0:0:0:
266,17,9309,2,0,L|393:7,1,128,2|0,0:0|0:0,0:0:0:0:
474,28,9759,2,0,P|491:70|483:105,1,64,2|0,0:3|0:0,0:0:0:0:
463,166,10059,2,0,P|434:221|470:300,2,128,0|0|0,1:0|1:0|1:0,0:0:0:0:
307,104,10959,5,2,0:3:0:0:
307,104,11109,2,0,L|318:260,1,128,2|2,0:3|0:3,0:0:0:0:
356,304,11559,2,0,P|337:334|322:364,1,64,2|0,1:3|0:0,0:0:0:0:
240,369,11859,2,0,P|211:336|122:347,2,128,2|2|2,3:0|0:3|0:3,0:0:0:0:
233,202,12759,5,2,1:3:0:0:
233,202,12909,2,0,L|77:213,1,128,2|0,0:3|0:0,0:0:0:0:
26,237,13359,2,0,L|17:168,1,64,2|0,0:3|0:0,0:0:0:0:
0,92,13659,2,0,P|51:49|107:66,1,128,2|0,0:3|1:0,0:0:0:0:
160,127,14109,1,8,0:1:0:0:
223,77,14259,2,0,P|227:45|229:13,1,64,10|0,0:0|0:0,0:0:0:0:
234,156,14559,6,0,P|291:169|344:134,1,111.999996582031,4|0,0:0|0:0,0:0:0:0:
383,75,15009,2,0,P|436:62|484:88,1,111.999996582031,2|0,0:0|0:0,0:0:0:0:
509,168,15459,2,0,L|500:295,1,111.999996582031,2|4,0:1|0:1,0:0:0:0:
499,363,15909,1,0,0:0:0:0:
499,363,16059,2,0,P|467:349|437:342,1,55.9999982910157,2|0,0:0|0:0,0:0:0:0:
362,348,16359,6,0,P|318:373|255:295,1,167.999994873047,8|2,0:0|0:0,0:0:0:0:
301,227,16959,2,0,L|295:162,1,55.9999982910157,8|0,0:0|0:0,0:0:0:0:
288,87,17259,1,4,0:1:0:0:
288,87,17409,1,0,0:0:0:0:
219,135,17559,2,0,L|154:141,1,55.9999982910157,0|0,3:0|3:0,0:0:0:0:
107,203,17859,1,2,0:0:0:0:
62,131,18009,1,0,0:0:0:0:
6,193,18159,6,0,P|15:248|23:303,1,111.999996582031,4|0,0:0|0:0,0:0:0:0:
88,357,18609,2,0,P|141:369|189:343,1,111.999996582031,2|0,0:0|0:0,0:0:0:0:
239,275,19059,2,0,P|266:275|293:284,1,55.9999982910157,4|2,0:1|0:0,0:0:0:0:
339,354,19359,2,0,P|366:349|394:347,1,55.9999982910157,0|0,3:0|3:0,0:0:0:0:
475,370,19659,2,0,L|483:304,1,55.9999982910157,2|0,0:1|0:0,0:0:0:0:
508,234,19959,6,0,P|484:176|418:172,1,111.999996582031,8|0,0:0|3:0,0:0:0:0:
362,195,20409,2,0,L|232:186,1,111.999996582031,2|2,0:1|0:0,0:0:0:0:
184,134,20859,2,0,L|115:139,1,55.9999982910157,12|4,0:1|0:1,0:0:0:0:
78,206,21159,1,4,0:1:0:0:
78,206,21309,1,4,0:1:0:0:
14,151,21459,2,0,P|9:112|6:84,1,55.9999982910157,4|2,0:1|0:0,0:0:0:0:
45,20,21759,6,0,B|84:46|84:46|148:41,1,111.999996582031,6|0,0:1|0:0,0:0:0:0:
230,62,22209,2,0,P|281:46|336:88,1,111.999996582031,2|0,0:1|0:0,0:0:0:0:
387,134,22659,2,0,L|378:199,1,55.9999982910157,6|0,0:1|0:0,0:0:0:0:
434,252,22959,2,0,L|425:317,1,55.9999982910157,2|0,0:1|0:0,0:0:0:0:
368,368,23259,2,0,L|303:359,1,55.9999982910157,4|2,0:1|0:0,0:0:0:0:
229,369,23559,6,0,P|198:328|129:322,1,111.999996582031,8|0,0:0|3:0,0:0:0:0:
62,349,24009,2,0,P|57:293|52:237,1,111.999996582031,2|2,0:0|0:0,0:0:0:0:
17,160,24459,2,0,P|41:147|69:145,1,55.9999982910157,6|4,0:1|0:1,0:0:0:0:
136,194,24759,2,0,L|196:190,1,55.9999982910157,12|4,0:1|0:1,0:0:0:0:
256,136,25059,1,4,0:1:0:0:
283,215,25209,1,2,0:0:0:0:
347,160,25359,6,0,L|463:152,1,111.999996582031,4|0,0:0|0:0,0:0:0:0:
512,218,25809,2,0,P|518:278|473:321,1,111.999996582031,2|0,0:1|0:0,0:0:0:0:
412,274,26259,2,0,P|407:302|402:329,1,55.9999982910157,6|0,0:1|0:0,0:0:0:0:
327,368,26559,2,0,P|294:353|261:346,1,55.9999982910157,2|0,0:0|0:0,0:0:0:0:
194,325,26859,2,0,P|160:329|125:332,1,55.9999982910157,12|2,0:1|0:0,0:0:0:0:
58,357,27159,6,0,P|26:307|45:241,1,111.999996582031,8|0,0:0|3:0,0:0:0:0:
104,212,27609,2,0,L|99:151,1,55.9999982910157,2|0,0:0|3:0,0:0:0:0:
44,92,27909,1,2,0:0:0:0:
113,45,28059,2,0,L|224:34,1,111.999996582031,4|8,0:1|0:0,0:0:0:0:
303,63,28509,1,8,0:0:0:0:
303,63,28659,2,0,L|298:118,1,55.9999982910157,4|2,0:1|0:0,0:0:0:0:
256,192,28959,12,0,30916,0:0:0:0:
212,147,31916,6,0,L|202:258,2,95.9999970703126,4|2|2,0:1|0:0|0:0,0:0:0:0:
160,54,32816,1,2,0:0:0:0:
31,300,33716,6,0,P|82:280|149:329,1,143.999995605469,4|0,0:1|0:0,0:0:0:0:
166,364,34316,1,2,0:0:0:0:
256,307,34616,1,2,0:0:0:0:
458,363,35216,2,0,L|464:315,1,47.9999985351563,2|0,0:0|0:0,0:0:0:0:
470,277,35516,6,0,L|374:287,2,95.9999970703126,4|0|2,0:1|0:0|0:0,0:0:0:0:
411,188,36416,2,0,L|315:198,2,95.9999970703126,4|0|2,0:1|0:0|0:0,0:0:0:0:
352,99,37316,6,0,L|256:109,1,95.9999970703126,4|0,0:1|0:0,0:0:0:0:
174,42,37916,1,2,0:0:0:0:
83,96,38216,2,0,P|79:138|72:193,1,95.9999970703126,4|0,0:1|0:0,0:0:0:0:
1,269,38816,1,2,0:0:0:0:
75,344,39116,6,0,B|163:311|169:387|261:354,1,191.999994140625,4|0,0:1|0:0,0:0:0:0:
343,288,40016,2,0,P|430:290|402:372,1,191.999994140625,2|2,0:0|0:0,0:0:0:0:
343,288,40916,6,0,L|354:176,1,95.9999970703126,4|0,0:1|0:0,0:0:0:0:
356,154,41366,1,2,0:0:0:0:
356,154,41516,2,0,L|351:106,2,47.9999985351563,2|0|2,0:0|0:0|0:0,0:0:0:0:
166,247,42416,2,0,L|161:294,1,47.9999985351563,2|0,0:0|0:0,0:0:0:0:
156,333,42716,6,0,P|64:351|62:269,1,191.999994140625,4|2,0:1|0:0,0:0:0:0:
166,247,43616,2,0,L|176:151,1,95.9999970703126,4|2,0:1|0:0,0:0:0:0:
116,64,44216,1,2,0:0:0:0:
221,55,44516,6,0,L|334:46,2,95.9999970703126,4|0|2,0:1|0:0|0:3,0:0:0:0:
176,151,45416,2,0,L|223:147,1,47.9999985351563,0|0,1:0|0:0,0:0:0:0:
299,178,45716,2,0,L|346:174,1,47.9999985351563,0|8,3:0|0:1,0:0:0:0:
422,205,46016,1,0,0:0:0:0:
422,205,46166,1,2,0:0:0:0:
422,205,46316,6,0,L|434:70,1,111.999996582031,4|2,0:0|0:0,0:0:0:0:
386,22,46766,1,0,0:0:0:0:
312,67,46916,2,0,L|256:71,1,55.9999982910157,2|0,0:0|0:0,0:0:0:0:
172,63,47216,2,0,P|111:50|66:138,1,167.999994873047,8|0,0:0|0:0,0:0:0:0:
103,205,47816,2,0,L|98:260,1,55.9999982910157,12|0,0:1|0:0,0:0:0:0:
88,344,48116,6,0,P|151:362|199:323,1,111.999996582031,0|2,3:0|0:0,0:0:0:0:
256,290,48566,1,0,0:0:0:0:
323,340,48716,2,0,P|347:355|374:360,1,55.9999982910157,2|0,0:0|0:0,0:0:0:0:
457,370,49016,2,0,P|462:315|468:259,1,111.999996582031,8|0,0:0|0:0,0:0:0:0:
502,182,49466,1,2,0:0:0:0:
485,99,49616,2,0,P|457:94|430:101,1,55.9999982910157,0|2,0:0|0:0,0:0:0:0:
360,148,49916,6,0,P|304:204|220:173,1,167.999994873047,0|0,3:0|0:0,0:0:0:0:
156,135,50516,2,0,P|145:161|142:188,1,55.9999982910157,2|0,0:0|0:0,0:0:0:0:
191,256,50816,2,0,P|153:232|52:298,1,167.999994873047,8|0,0:0|0:0,0:0:0:0:
80,365,51416,1,4,0:1:0:0:
247,373,51716,6,0,L|253:318,1,55.9999982910157,0|0,3:0|0:0,0:0:0:0:
330,349,52016,2,0,L|336:294,1,55.9999982910157,2|0,0:0|0:0,0:0:0:0:
413,325,52316,2,0,L|419:270,1,55.9999982910157,2|0,0:0|0:0,0:0:0:0:
483,215,52616,2,0,B|491:144|491:144|472:107,1,111.999996582031,8|4,0:0|3:1,0:0:0:0:
433,33,53066,1,4,0:1:0:0:
364,81,53216,2,0,P|336:84|308:87,1,55.9999982910157,4|4,0:1|0:1,0:0:0:0:
229,58,53516,6,0,P|174:37|111:128,1,167.999994873047,4|0,0:0|0:0,0:0:0:0:
151,181,54116,2,0,P|157:216|158:238,1,55.9999982910157,2|0,0:0|0:0,0:0:0:0:
85,279,54416,2,0,P|151:261|214:329,1,167.999994873047,8|0,0:0|0:0,0:0:0:0:
288,365,55016,2,0,P|326:358|361:355,1,55.9999982910157,12|0,0:1|0:0,0:0:0:0:
426,370,55316,6,0,P|461:353|467:236,1,167.999994873047,0|0,3:0|0:0,0:0:0:0:
399,190,55916,1,2,0:0:0:0:
340,249,56066,1,0,0:0:0:0:
270,200,56216,2,0,L|276:145,2,55.9999982910157,8|0|4,0:0|0:0|3:1,0:0:0:0:
126,288,56816,2,0,P|99:282|71:278,1,55.9999982910157,4|4,0:1|0:1,0:0:0:0:
2,230,57116,6,0,P|-12:172|74:116,1,167.999994873047,0|0,3:0|0:0,0:0:0:0:
138,157,57716,2,0,P|165:153|193:150,1,55.9999982910157,2|0,0:0|0:0,0:0:0:0:
276,144,58016,2,0,L|287:32,2,111.999996582031,10|2|12,0:0|3:2|0:1,0:0:0:0:
240,218,58766,1,0,0:0:0:0:
280,291,58916,6,0,L|342:284,1,55.9999982910157,0|0,3:0|0:0,0:0:0:0:
320,364,59216,2,0,L|382:357,1,55.9999982910157,10|8,0:0|0:0,0:0:0:0:
458,373,59516,6,0,P|461:345|466:317,1,55.9999982910157,8|8,0:0|0:0,0:0:0:0:
506,243,59816,5,2,0:0:0:0:
506,243,59966,1,2,0:0:0:0:
431,204,60116,5,8,0:0:0:0:
431,204,60266,1,8,0:0:0:0:
485,139,60416,6,0,P|481:111|476:83,2,55.9999982910157,8|8|4,0:0|0:0|0:0,0:0:0:0:
375,357,61316,5,2,0:0:0:0:
213,309,61616,2,0,L|90:320,1,111.999996582031,2|4,0:0|0:1,0:0:0:0:
36,371,62066,1,4,0:1:0:0:
4,292,62216,2,0,P|7:265|10:237,1,55.9999982910157,2|0,3:2|0:0,0:0:0:0:
2,152,62516,6,0,P|45:120|99:129,1,111.999996582031,12|0,0:1|0:0,0:0:0:0:
164,183,62966,1,2,0:0:0:0:
240,147,63116,2,0,P|243:119|246:91,1,55.9999982910157,0|4,0:0|0:1,0:0:0:0:
309,36,63416,2,0,P|362:26|406:58,2,111.999996582031,12|8|4,0:1|0:0|0:1,0:0:0:0:
300,203,64316,6,0,L|411:193,1,111.999996582031,12|0,0:1|0:0,0:0:0:0:
494,205,64766,1,8,0:0:0:0:
456,280,64916,2,0,L|446:335,1,55.9999982910157,4|0,0:1|0:0,0:0:0:0:
365,357,65216,2,0,P|317:326|249:345,2,111.999996582031,4|8|12,0:1|0:0|0:1,0:0:0:0:
411,193,66116,6,0,L|300:203,1,111.999996582031,12|4,0:1|0:1,0:0:0:0:
226,244,66566,1,8,0:0:0:0:
175,176,66716,2,0,L|119:180,1,55.9999982910157,0|2,0:0|0:0,0:0:0:0:
39,210,67016,2,0,P|14:258|29:311,1,111.999996582031,4|2,0:1|3:2,0:0:0:0:
186,370,67616,1,4,0:1:0:0:
256,325,67766,1,12,0:1:0:0:
326,370,67916,6,0,P|353:365|381:362,1,55.9999982910157,12|4,0:1|0:1,0:0:0:0:
465,367,68216,2,0,L|471:307,1,55.9999982910157,4|4,0:1|0:1,0:0:0:0:
501,232,68516,2,0,P|479:217|449:210,1,55.9999982910157,8|0,0:0|0:0,0:0:0:0:
370,183,68816,2,0,P|326:212|257:190,1,111.999996582031,2|8,0:0|0:0,0:0:0:0:
197,159,69266,1,8,0:0:0:0:
147,227,69416,2,0,P|119:229|91:232,1,55.9999982910157,4|2,0:1|0:0,0:0:0:0:
14,193,69716,6,0,P|-5:143|12:91,1,111.999996582031,4|4,0:1|0:1,0:0:0:0:
73,33,70166,1,10,0:0:0:0:
146,73,70316,2,0,L|201:67,1,55.9999982910157,8|4,0:0|0:1,0:0:0:0:
272,21,70616,2,0,L|327:26,1,55.9999982910157,8|8,0:0|0:0,0:0:0:0:
411,19,70916,2,0,P|419:46|424:80,1,55.9999982910157,0|4,3:0|0:1,0:0:0:0:
481,135,71216,1,4,0:1:0:0:
413,185,71366,1,12,0:1:0:0:
465,250,71516,6,0,P|478:297|431:355,1,111.999996582031,12|4,0:1|0:1,0:0:0:0:
364,369,71966,1,4,0:1:0:0:
293,323,72116,2,0,P|265:326|236:330,1,55.9999982910157,8|0,0:0|0:0,0:0:0:0:
163,370,72416,2,0,P|122:337|54:348,1,111.999996582031,4|10,0:1|0:0,0:0:0:0:
7,280,72866,1,8,0:0:0:0:
51,208,73016,2,0,P|78:209|105:200,1,55.9999982910157,0|2,0:0|0:0,0:0:0:0:
175,154,73316,6,0,L|162:15,2,128,12|8|8,0:0|0:0|0:0,0:0:0:0:
337,154,74216,6,0,L|331:219,1,55.9999982910157,10|2,0:0|0:0,0:0:0:0:
412,195,74516,2,0,L|407:242,1,47.9999985351563,4|4,0:1|0:1,0:0:0:0:
482,275,74816,1,10,3:2:0:0:
393,363,75116,6,0,P|355:334|294:339,1,95.9999970703126,4|2,0:0|0:0,0:0:0:0:
208,368,75716,1,2,0:0:0:0:
118,312,76016,2,0,P|114:264|110:216,1,95.9999970703126,2|2,0:0|0:0,0:0:0:0:
37,139,76616,1,2,0:0:0:0:
87,46,76916,6,0,P|129:26|176:33,1,95.9999970703126,2|2,0:0|0:0,0:0:0:0:
256,101,77516,2,0,L|250:154,1,47.9999985351563,2|0,0:0|0:0,0:0:0:0:
236,182,77816,2,0,B|332:155|322:232|419:202,1,191.999994140625,2|2,0:0|0:0,0:0:0:0:
510,148,78716,6,0,P|501:219|491:290,1,143.999995605469,2|0,0:0|0:0,0:0:0:0:
455,306,79316,2,0,P|458:329|460:353,1,47.9999985351563,2|0,0:0|0:0,0:0:0:0:
426,372,79616,2,0,P|380:381|336:363,1,95.9999970703126,2|2,0:0|0:0,0:0:0:0:
256,293,80216,1,2,0:0:0:0:
176,363,80516,6,0,P|132:381|86:372,1,95.9999970703126,2|2,0:0|0:0,0:0:0:0:
26,284,81116,2,0,L|21:232,1,47.9999985351563,0|2,0:0|0:0,0:0:0:0:
13,198,81416,2,0,P|41:160|87:156,1,95.9999970703126,8|2,0:0|0:3,0:0:0:0:
121,175,81866,1,4,0:1:0:0:
121,175,82016,2,0,L|173:170,1,47.9999985351563,4|12,0:1|0:1,0:0:0:0:
195,141,82316,6,0,P|244:164|297:151,1,111.999996582031,4|0,0:0|0:0,0:0:0:0:
353,88,82766,1,4,0:1:0:0:
353,88,82916,2,0,P|394:84|420:83,1,55.9999982910157,2|0,0:0|0:0,0:0:0:0:
483,122,83216,2,0,P|505:172|488:224,1,111.999996582031,0|2,3:0|0:0,0:0:0:0:
420,274,83666,1,8,0:0:0:0:
342,240,83816,2,0,P|314:241|286:244,1,55.9999982910157,4|0,0:1|0:0,0:0:0:0:
209,209,84116,6,0,P|162:183|102:200,1,111.999996582031,12|2,0:1|0:0,0:0:0:0:
32,234,84566,1,0,0:0:0:0:
32,234,84716,2,0,L|39:300,1,55.9999982910157,2|0,0:3|0:0,0:0:0:0:
42,373,85016,2,0,L|153:361,1,111.999996582031,4|2,0:1|0:0,0:0:0:0:
291,265,85616,2,0,L|284:331,1,55.9999982910157,4|12,0:1|0:1,0:0:0:0:
358,361,85916,6,0,L|470:373,2,111.999996582031,0|2|10,3:0|0:0|0:0,0:0:0:0:
212,279,86816,2,0,L|218:224,1,55.9999982910157,12|0,0:1|0:0,0:0:0:0:
160,163,87116,2,0,P|111:138|58:153,1,111.999996582031,4|4,0:1|0:1,0:0:0:0:
44,321,87716,6,0,P|92:345|145:330,1,111.999996582031,4|0,0:1|0:0,0:0:0:0:
212,279,88166,1,4,0:3:0:0:
264,344,88316,2,0,P|294:340|324:338,1,55.9999982910157,0|4,0:0|0:3,0:0:0:0:
398,366,88616,2,0,P|403:339|405:311,1,55.9999982910157,2|4,3:2|0:1,0:0:0:0:
452,240,88916,2,0,P|448:213|445:185,1,55.9999982910157,12|4,0:1|0:1,0:0:0:0:
471,105,89216,1,2,0:1:0:0:
322,30,89516,5,12,0:0:0:0:
322,30,89666,2,0,L|187:38,1,128,2|0,0:0|0:0,0:0:0:0:
113,55,90116,2,0,P|108:86|103:118,1,64,10|4,0:0|0:1,0:0:0:0:
31,160,90416,2,0,P|-1:213|15:273,2,128,2|2|4,3:1|0:1|0:1,0:0:0:0:
194,130,91316,5,10,0:0:0:0:
253,187,91466,2,0,P|248:218|243:250,1,64,10|0,0:0|0:0,0:0:0:0:
163,276,91766,1,0,0:0:0:0:
163,276,91916,2,0,P|167:307|172:339,1,64,10|0,0:0|0:0,0:0:0:0:
250,369,92216,2,0,P|287:333|373:341,1,128,4|4,0:0|0:0,0:0:0:0:
505,253,92816,6,0,P|474:257|442:261,1,64,4|2,0:1|0:0,0:0:0:0:
369,219,93116,2,0,P|342:167|431:93,1,192,2|4,0:0|0:1,0:0:0:0:
500,135,93716,2,0,P|509:105|509:73,1,64,8|0,0:0|0:0,0:0:0:0:
459,6,94016,2,0,P|428:8|396:11,1,64,0|2,3:0|0:0,0:0:0:0:
312,12,94316,2,0,P|274:60|213:57,1,128,4|4,0:1|0:1,0:0:0:0:
147,4,94766,1,12,0:1:0:0:
95,69,94916,5,8,0:0:0:0:
95,69,95066,2,0,P|70:75|33:80,1,64,8|0,0:0|0:0,0:0:0:0:
5,159,95366,2,0,P|51:161|99:232,1,128,2|2,0:0|0:0,0:0:0:0:
168,267,95816,2,0,P|161:298|153:329,1,64,2|4,3:2|0:1,0:0:0:0:
223,375,96116,2,0,P|253:364|284:356,1,64,2|4,3:2|3:1,0:0:0:0:
289,273,96416,2,0,P|265:251|242:229,1,64,4|2,0:1|0:0,0:0:0:0:
172,184,96716,5,12,0:0:0:0:
172,184,96866,2,0,P|173:113|222:83,1,128,2|0,0:0|0:0,0:0:0:0:
289,124,97316,2,0,P|320:121|352:118,1,64,10|4,0:0|0:1,0:0:0:0:
395,46,97616,2,0,P|443:13|514:36,2,128,8|2|4,3:2|0:1|0:1,0:0:0:0:
356,207,98516,5,10,0:0:0:0:
356,207,98666,2,0,P|362:270|367:334,1,128,10|0,0:0|0:0,0:0:0:0:
290,368,99116,2,0,P|259:371|230:359,1,64,10|0,0:0|0:0,0:0:0:0:
167,302,99416,2,0,P|108:286|56:321,1,128,4|4,0:0|0:0,0:0:0:0:
5,165,100016,2,0,P|46:161|76:158,1,64,4|2,0:1|0:0,0:0:0:0:
144,192,100316,6,0,P|203:208|255:173,1,128,8|0,0:0|0:0,0:0:0:0:
282,94,100766,2,0,P|333:60|393:76,1,128,2|4,0:0|0:1,0:0:0:0:
442,144,101216,2,0,P|448:80|453:16,2,128,12|10|12,0:1|0:0|0:1,0:0:0:0:
464,308,102116,6,0,P|432:312|400:315,1,64,12|4,0:1|0:1,0:0:0:0:
334,366,102416,1,4,0:1:0:0:
293,293,102566,2,0,P|230:274|179:312,1,128,8|12,0:3|0:1,0:0:0:0:
123,366,103016,1,0,3:0:0:0:
123,366,103166,2,0,P|79:357|52:353,1,64,4|0,0:3|0:0,0:0:0:0:
8,288,103466,2,0,P|-2:257|1:226,1,64,8|4,0:3|0:1,0:0:0:0:
39,151,103766,1,2,0:0:0:0:
104,202,103916,5,12,0:0:0:0:
104,202,104066,2,0,P|157:218|226:171,1,128,2|0,0:0|0:0,0:0:0:0:
263,115,104516,2,0,P|261:91|255:48,1,64,10|4,0:0|0:1,0:0:0:0:
179,17,104816,2,0,P|126:25|102:109,2,128,2|2|4,3:1|0:1|0:1,0:0:0:0:
337,69,105716,5,10,0:0:0:0:
337,68,105866,2,0,P|368:67|400:64,1,64,10|0,0:0|0:0,0:0:0:0:
481,41,106166,1,0,0:0:0:0:
459,121,106316,2,0,P|451:152|454:185,1,64,10|0,0:0|0:0,0:0:0:0:
487,259,106616,2,0,P|495:323|439:373,1,128,4|4,0:0|0:0,0:0:0:0:
316,274,107216,1,4,0:1:0:0:
256,331,107366,1,2,0:0:0:0:
196,274,107516,6,0,P|145:279|68:289,1,128,2|0,0:0|0:0,0:0:0:0:
9,230,107966,1,4,0:1:0:0:
53,159,108116,2,0,P|84:161|113:148,1,64,8|0,0:0|0:0,0:0:0:0:
158,78,108416,2,0,P|189:75|218:88,1,64,0|2,3:0|0:0,0:0:0:0:
273,151,108716,2,0,P|309:188|396:151,1,128,4|4,0:1|0:1,0:0:0:0:
435,114,109166,1,12,0:1:0:0:
481,183,109316,6,0,P|476:221|472:252,1,64,8|8,0:0|0:0,0:0:0:0:
502,323,109616,1,0,0:0:0:0:
502,323,109766,2,0,P|475:296|376:321,1,128,2|2,0:0|0:0,0:0:0:0:
331,360,110216,2,0,P|299:355|267:352,1,64,2|4,3:2|0:1,0:0:0:0:
187,375,110516,2,0,P|173:345|162:316,1,64,2|4,3:2|3:1,0:0:0:0:
102,257,110816,2,0,P|120:230|140:205,1,64,4|2,0:1|0:0,0:0:0:0:
161,124,111116,5,12,0:0:0:0:
161,124,111266,2,0,P|220:139|271:104,1,128,2|0,0:0|0:0,0:0:0:0:
325,40,111716,2,0,P|359:41|395:62,1,64,10|4,0:0|0:1,0:0:0:0:
402,134,112016,2,0,P|414:74|469:45,2,128,8|2|4,3:2|0:1|0:1,0:0:0:0:
489,278,112916,5,10,0:0:0:0:
489,278,113066,2,0,P|424:285|358:293,1,128,10|0,0:0|0:0,0:0:0:0:
318,363,113516,2,0,P|282:347|241:342,1,64,10|0,0:0|0:0,0:0:0:0:
178,317,113816,2,0,P|144:355|60:329,1,128,4|4,0:0|0:0,0:0:0:0:
5,295,114266,1,0,0:0:0:0:
61,234,114416,2,0,P|56:188|50:159,1,64,4|2,0:1|0:0,0:0:0:0:
19,93,114716,6,0,P|59:54|143:80,1,128,4|0,0:1|0:0,0:0:0:0:
183,123,115166,2,0,L|324:112,1,128,2|12,0:0|0:1,0:0:0:0:
379,66,115616,2,0,P|439:55|486:96,2,128,2|0|12,3:2|3:0|0:1,0:0:0:0:
280,200,116516,6,0,P|283:231|286:263,1,64,6|4,0:1|0:1,0:0:0:0:
273,345,116816,1,4,0:1:0:0:
273,345,116966,2,0,P|304:341|336:338,1,64,6|4,0:1|0:1,0:0:0:0:
415,363,117266,1,12,0:1:0:0:
464,296,117416,1,6,0:1:0:0:
