osu file format v14

[General]
AudioFilename: audio.mp3
AudioLeadIn: 0
PreviewTime: 89516
Countdown: 0
SampleSet: Soft
StackLeniency: 0.7
Mode: 0
LetterboxInBreaks: 0
WidescreenStoryboard: 1

[Editor]
Bookmarks: -41,14559,46316,60716,75116,89516,103916
DistanceSpacing: 0.5
BeatDivisor: 4
GridSize: 4
TimelineZoom: 1.8

[Metadata]
Title:Byakuya Gensoutan
TitleUnicode:白夜幻想譚
Artist:Shimotsuki Haruka
ArtistUnicode:霜月はるか
Creator:Chaoslitz
Version:Extra (Winner!)
Source:イリスのアトリエ エターナルマナ
Tags:Atelier Iris Eternal Mana Pending cup #5 Suzuki_1112 Kibbleru yf_bmp Gust 1112deng Irreversible Gaia sahuang Pata-Mon
BeatmapID:1411645
BeatmapSetID:667097

[Difficulty]
HPDrainRate:6
CircleSize:4.3
OverallDifficulty:8
ApproachRate:9.3
SliderMultiplier:2
SliderTickRate:1

[Events]
//Background and Video events
0,0,"bg.jpg",0,0
//Break Periods
//Storyboard Layer 0 (Background)
//Storyboard Layer 1 (Fail)
//Storyboard Layer 2 (Pass)
//Storyboard Layer 3 (Foreground)
//Storyboard Sound Samples

[TimingPoints]
159,300,6,2,1,70,1,0
159,-125,6,2,1,70,0,0
1059,-100,6,2,1,70,0,0
1359,-125,6,2,1,70,0,0
1659,-142.857142857143,6,2,1,70,0,0
1959,-100,6,2,1,70,0,0
1996,-100,6,2,1,10,0,0
2109,-100,6,2,1,70,0,0
2146,-100,6,2,1,10,0,0
2259,-100,6,2,1,70,0,0
2559,-125,6,2,10,70,0,0
2709,-125,6,2,1,70,0,0
2746,-125,6,2,1,10,0,0
2859,-125,6,2,1,70,0,0
3759,-40,6,2,10,70,0,0
3909,-50,6,2,1,10,0,0
4059,-200,6,2,1,70,0,0
4659,-66.6666666666667,6,2,1,70,0,0
4959,-66.6666666666667,6,2,1,70,0,0
5259,-200,6,2,1,70,0,0
5559,-100,6,2,1,60,0,0
6196,-100,6,2,1,10,0,0
6309,-100,6,2,1,60,0,0
6346,-100,6,2,1,10,0,0
6459,-100,6,2,1,60,0,0
7359,-100,6,2,1,70,0,0
8259,-83.3333333333333,6,2,1,70,0,0
8859,-200,6,2,1,70,0,0
9159,-100,6,2,1,70,0,0
9759,-100,6,2,10,70,0,0
10059,-100,6,2,1,70,0,0
11859,-83.3333333333333,6,2,1,70,0,0
12459,-200,6,2,1,70,0,0
13059,-166.666666666667,6,2,1,70,0,0
13359,-142.857142857143,6,2,1,70,0,0
13659,-125,6,2,1,70,0,0
13959,-100,6,2,1,70,0,0
14259,-66.6666666666667,6,2,11,85,0,0
14559,-153.846153846154,6,2,2,80,0,0
19059,-142.857142857143,6,2,2,80,0,0
19959,-153.846153846154,6,2,2,80,0,0
21759,-142.857142857143,6,2,3,85,0,0
21777,-142.857142857143,6,2,2,85,0,0
28959,320,6,2,2,70,1,0
29279,333.333333333333,6,2,31,40,1,0
29612,380.952380952381,6,2,32,35,1,0
29992,424.778761061947,6,2,33,30,1,0
30416,500,6,2,34,25,1,0
30916,-100,6,2,35,15,0,0
31916,300,6,2,2,50,1,0
31916,-250,6,2,2,50,0,0
32966,-250,6,2,2,10,0,0
33716,-250,6,2,2,50,0,0
34766,-250,6,2,2,10,0,0
35216,-250,6,2,2,50,0,0
35516,-220,6,2,2,50,0,0
37316,-250,6,2,2,50,0,0
37466,-250,6,2,2,10,0,0
37616,-250,6,2,2,50,0,0
38366,-250,6,2,2,10,0,0
38516,-250,6,2,2,50,0,0
40166,-250,6,2,2,10,0,0
40616,-250,6,2,2,50,0,0
41966,-250,6,2,2,10,0,0
42416,-250,6,2,2,50,0,0
45116,-250,6,2,1,50,0,0
45153,-250,6,2,2,10,0,0
45416,-250,6,2,1,60,0,0
45566,-142.857142857143,6,2,2,60,0,0
45866,-142.857142857143,6,2,1,60,0,0
46316,-166.666666666667,6,2,2,70,0,0
59516,-166.666666666667,6,2,20,70,0,0
59816,-125,6,2,21,75,0,0
60116,-125,6,2,20,70,0,0
60416,-125,6,2,22,65,0,0
60566,-125,6,2,24,65,0,0
60716,-125,6,2,23,60,0,0
60791,-125,6,2,2,10,0,0
61316,-142.857142857143,6,2,2,70,0,0
63716,-142.857142857143,6,2,3,70,0,0
64016,-142.857142857143,6,2,2,70,0,0
64766,-142.857142857143,6,2,3,70,0,0
64916,-142.857142857143,6,2,2,70,0,0
65516,-142.857142857143,6,2,3,70,0,0
65816,-142.857142857143,6,2,2,70,0,0
66566,-142.857142857143,6,2,3,70,0,0
66716,-142.857142857143,6,2,2,70,0,0
67391,-142.857142857143,6,2,2,10,0,0
67616,-142.857142857143,6,2,2,70,0,0
69116,-142.857142857143,6,2,3,70,0,0
69266,-142.857142857143,6,2,2,70,0,0
69416,-142.857142857143,6,2,2,70,0,0
70166,-142.857142857143,6,2,3,70,0,0
70316,-142.857142857143,6,2,2,70,0,0
72716,-125,6,2,3,70,0,0
72866,-125,6,2,2,70,0,0
73316,-100,6,2,2,80,0,0
74366,-100,6,2,2,75,0,0
74516,-100,6,2,2,70,0,0
74666,-100,6,2,2,65,0,0
74816,-166.666666666667,6,2,2,60,0,0
75116,-250,6,2,2,40,0,0
80516,-250,6,2,2,50,0,0
81041,-250,6,2,2,10,0,0
81116,-250,6,2,2,40,0,0
81716,-250,6,2,1,55,0,0
81866,-250,6,2,2,55,0,0
82316,-142.857142857143,6,2,2,70,0,0
84716,-142.857142857143,6,2,10,70,0,0
84791,-142.857142857143,6,2,2,70,0,0
87716,-133.333333333333,6,2,2,70,0,0
88616,-133.333333333333,6,2,2,75,0,0
88766,-133.333333333333,6,2,2,80,0,0
88916,-133.333333333333,6,2,2,85,0,0
89066,-133.333333333333,6,2,2,90,0,0
89216,-200,6,2,2,80,0,0
89516,-100,6,2,2,90,0,1
90116,-100,6,2,3,90,0,1
90266,-100,6,2,2,90,0,1
90416,-83.3333333333333,6,2,2,90,0,1
90716,-83.3333333333333,6,2,2,90,0,1
91016,-90.9090909090909,6,2,2,90,0,1
91316,-100,6,2,2,90,0,1
91916,-100,6,2,3,90,0,1
92066,-100,6,2,2,90,0,1
92216,-83.3333333333333,6,2,3,90,0,1
92441,-83.3333333333333,6,2,3,10,0,1
92516,-83.3333333333333,6,2,3,90,0,1
92816,-83.3333333333333,6,2,2,90,0,1
93116,-125,6,2,2,90,0,1
93716,-125,6,2,3,90,0,1
94016,-125,6,2,2,90,0,1
96716,-100,6,2,2,90,0,1
97316,-100,6,2,3,90,0,1
97466,-100,6,2,2,90,0,1
97616,-100,6,2,2,90,0,1
97916,-83.3333333333333,6,2,2,90,0,1
98216,-90.9090909090909,6,2,2,90,0,1
98516,-100,6,2,2,90,0,1
99116,-100,6,2,3,90,0,1
99266,-100,6,2,2,90,0,1
99416,-83.3333333333333,6,2,3,90,0,1
100016,-125,6,2,2,90,0,1
100916,-125,6,2,3,90,0,1
101066,-125,6,2,2,90,0,1
101516,-125,6,2,3,90,0,1
101666,-125,6,2,2,90,0,1
102116,-142.857142857143,6,2,2,90,0,1
103166,-166.666666666667,6,2,2,90,0,1
103466,-200,6,2,2,90,0,1
103841,-200,6,2,2,90,0,0
103916,-100,6,2,2,90,0,1
104516,-100,6,2,3,90,0,1
104666,-100,6,2,2,90,0,1
104816,-83.3333333333333,6,2,2,90,0,1
105116,-83.3333333333333,6,2,2,90,0,1
105416,-90.9090909090909,6,2,2,90,0,1
105716,-100,6,2,2,90,0,1
106316,-100,6,2,3,90,0,1
106466,-100,6,2,2,90,0,1
106616,-83.3333333333333,6,2,3,90,0,1
106841,-100,6,2,3,10,0,1
106916,-83.3333333333333,6,2,3,90,0,1
107216,-100,6,2,2,90,0,1
107516,-125,6,2,2,90,0,1
108116,-125,6,2,3,90,0,1
108416,-125,6,2,2,90,0,1
111116,-100,6,2,2,90,0,1
111716,-100,6,2,3,90,0,1
111866,-100,6,2,2,90,0,1
112016,-100,6,2,2,90,0,1
112316,-83.3333333333333,6,2,2,90,0,1
112616,-90.9090909090909,6,2,2,90,0,1
112916,-100,6,2,2,90,0,1
113516,-100,6,2,3,90,0,1
113666,-100,6,2,2,90,0,1
113816,-83.3333333333333,6,2,3,90,0,1
114416,-100,6,2,2,90,0,1
114716,-125,6,2,2,90,0,1
115166,-100,6,2,2,90,0,1
115616,-125,6,2,2,90,0,1
116216,-100,6,2,2,90,0,1
116516,-125,6,2,2,90,0,1
117416,-125,6,2,3,95,0,0

[Colours]
Combo1 : 231,148,248
Combo2 : 242,126,184
Combo3 : 252,155,84
Combo4 : 255,255,142
Combo5 : 143,242,130
Combo6 : 151,220,248

[HitObjects]
119,196,159,6,0,L|39:202,1,80,8|0,0:1|0:0,0:0:0:0:
119,196,459,1,0,1:0:0:0:
256,263,609,2,0,L|176:269,2,80,8|0|8,0:1|0:0|0:1,0:0:0:0:
108,383,1059,6,0,P|87:314|17:297,1,150,2|0,0:3|0:0,0:0:0:0:
14,306,1359,6,0,P|53:306|83:281,1,80,8|0,0:0|0:0,0:0:0:0:
119,196,1659,6,0,L|109:91,1,104.999996795654,8|0,0:1|0:0,0:0:0:0:
29,59,1959,6,0,L|39:81,1,25,8|0,0:0|0:0,0:0:0:0:
181,42,2109,2,0,L|175:65,1,25,2|0,0:0|0:0,0:0:0:0:
294,115,2259,1,0,1:0:0:0:
340,232,2409,1,0,0:0:0:0:
316,347,2559,5,2,0:3:0:0:
452,192,2709,2,0,L|472:190,1,20,2|0,0:0|0:0,0:0:0:0:
340,232,2859,1,2,0:3:0:0:
329,238,2934,2,0,L|309:240,2,20
460,362,3159,1,8,0:0:0:0:
460,362,3309,1,0,0:0:0:0:
460,362,3459,2,0,L|465:282,1,80,8|0,0:0|0:0,0:0:0:0:
485,11,3759,6,0,B|472:191|472:191|452:117,1,250,4|0,0:0|0:0,0:0:0:0:
357,29,4059,6,0,L|406:22,1,50,0|0,1:0|0:0,0:0:0:0:
485,11,4359,1,8,0:1:0:0:
485,11,4509,1,8,0:1:0:0:
215,49,4659,6,0,B|237:58|237:58|257:43|257:43|357:28,1,150.000005722046,2|0,0:3|0:0,0:0:0:0:
485,11,4959,1,8,0:0:0:0:
485,11,5109,1,8,0:1:0:0:
485,11,5259,6,0,L|480:85,1,75,8|0,0:0|0:0,0:0:0:0:
473,163,5559,5,0,1:0:0:0:
365,243,5709,1,0,1:0:0:0:
326,250,5784,1,0,1:0:0:0:
291,232,5859,1,0,1:0:0:0:
275,196,5934,1,0,1:0:0:0:
283,157,6009,1,0,1:0:0:0:
314,133,6084,1,0,1:0:0:0:
354,133,6159,6,0,L|351:168,1,25,0|0,1:0|0:0,0:0:0:0:
365,243,6309,2,0,L|362:278,1,25,0|0,1:0|0:0,0:0:0:0:
376,353,6459,1,0,1:0:0:0:
442,298,6609,1,4,0:3:0:0:
296,322,6759,5,0,1:0:0:0:
238,367,6859,1,4,1:3:0:0:
171,338,6959,1,2,1:3:0:0:
129,304,7059,5,0,1:0:0:0:
82,308,7159,1,8,1:1:0:0:
51,333,7259,1,8,0:1:0:0:
43,351,7359,5,2,0:3:0:0:
2,203,7509,2,0,L|101:192,2,100,2|8|2,0:3|0:1|0:3,0:0:0:0:
33,119,7959,1,2,0:3:0:0:
179,229,8109,1,8,0:1:0:0:
179,229,8184,1,8,0:1:0:0:
179,229,8259,6,0,B|185:179|185:179|164:135|164:135|175:40,1,179.999994506836,2|0,0:3|0:0,0:0:0:0:
86,22,8559,2,0,B|209:10|209:10|173:54,1,179.999994506836,2|0,0:3|0:0,0:0:0:0:
242,82,8859,6,0,B|237:121|237:121|253:152,1,75,2|0,0:3|0:0,0:0:0:0:
311,110,9159,5,0,1:0:0:0:
480,173,9309,1,2,0:0:0:0:
311,110,9459,5,8,1:3:0:0:
341,43,9559,1,4,1:3:0:0:
415,37,9659,1,4,1:1:0:0:
457,97,9759,2,0,L|444:246,1,150,2|0,0:3|0:0,0:0:0:0:
481,313,10059,5,0,1:0:0:0:
449,322,10159,1,8,0:1:0:0:
416,317,10259,1,8,0:1:0:0:
369,258,10359,5,0,1:0:0:0:
343,250,10459,1,8,0:1:0:0:
317,252,10559,1,8,0:1:0:0:
255,296,10659,5,0,1:0:0:0:
235,300,10759,1,8,0:1:0:0:
215,299,10859,1,8,0:1:0:0:
140,277,10959,5,2,0:3:0:0:
25,368,11109,2,0,B|2:339|2:339|13:272,1,100,2|8,0:3|0:1,0:0:0:0:
28,188,11409,1,2,0:3:0:0:
0,66,11559,5,2,1:3:0:0:
62,103,11659,1,8,0:1:0:0:
107,45,11759,1,8,0:1:0:0:
169,82,11859,6,0,B|206:103|206:103|251:61|251:61|340:52,1,179.999994506836,2|0,3:0|0:0,0:0:0:0:
364,125,12159,2,0,B|349:2|349:2|326:53,1,179.999994506836,2|0,0:3|0:0,0:0:0:0:
288,136,12459,6,0,L|293:185,1,50,2|0,0:3|0:0,0:0:0:0:
480,272,12759,6,0,L|483:251,6,12.5,2|0|0|0|2|0|0,1:3|0:0|0:0|0:0|0:3|0:0|0:0,0:0:0:0:
419,326,13059,2,0,L|392:335,6,14.9999995422363,8|0|0|0|0|0|0,0:1|0:0|0:0|0:0|0:0|0:0|0:0,0:0:0:0:
497,352,13359,2,0,L|517:368,6,17.4999994659424,2|0|0|0|0|0|0,0:3|0:0|0:0|0:0|0:0|0:0|0:0,0:0:0:0:
480,272,13659,6,0,P|490:211|498:148,1,120,2|0,0:3|0:0,0:0:0:0:
500,139,13959,6,0,P|488:164|468:183,1,50,0|0,1:0|0:0,0:0:0:0:
414,67,14109,2,0,P|421:90|422:115,1,50,8|0,0:1|0:0,0:0:0:0:
345,243,14259,6,0,P|293:263|240:242,1,100.000003814697,10|0,0:0|0:0,0:0:0:0:
192,192,14459,1,0,0:0:0:0:
41,284,14559,6,0,L|171:274,1,129.999994049073,4|0,0:0|0:0,0:0:0:0:
252,378,15009,2,0,B|263:293|263:293|252:251,1,129.999994049073,2|0,0:0|0:0,0:0:0:0:
181,100,15459,2,0,P|173:147|191:191,1,97.4999955368044,2|0,0:1|0:0,0:0:0:0:
258,138,15759,6,0,L|310:133,2,43.3333313496908,4|2|0,0:1|0:0|0:0,0:0:0:0:
274,156,16059,2,0,L|379:146,1,97.4999955368044,2|0,0:0|0:0,0:0:0:0:
430,94,16359,6,0,L|450:49,1,32.4999985122681,8|0,0:0|0:0,0:0:0:0:
446,171,16509,2,0,L|474:211,1,32.4999985122681,8|0,0:0|0:0,0:0:0:0:
495,271,16659,2,0,L|492:296,2,21.6666656748454,0|0|0,3:0|0:0|0:0,0:0:0:0:
505,263,16809,1,2,0:0:0:0:
450,362,16959,2,0,P|409:339|361:345,1,97.4999955368044,8|0,0:0|0:0,0:0:0:0:
351,352,17259,6,0,P|331:361|309:363,2,43.3333313496908,4|2|0,0:1|0:1|0:0,0:0:0:0:
314,287,17559,1,0,3:0:0:0:
314,287,17709,1,0,3:0:0:0:
246,322,17859,1,2,0:0:0:0:
169,309,18009,1,0,0:0:0:0:
74,258,18159,6,0,P|95:252|117:250,1,43.3333313496908,4|2,0:0|0:0,0:0:0:0:
136,231,18309,2,0,P|151:170|116:118,1,129.999994049073,0|2,0:0|0:0,0:0:0:0:
9,199,18759,1,0,3:0:0:0:
9,199,18909,1,0,0:0:0:0:
14,36,19059,2,0,P|18:70|21:105,1,69.9999978637696,4|2,0:1|0:0,0:0:0:0:
9,199,19359,1,0,3:0:0:0:
9,199,19509,1,0,3:0:0:0:
115,116,19659,2,0,P|165:107|212:129,1,104.999996795654,2|0,0:1|0:0,0:0:0:0:
265,189,19959,6,0,L|260:224,1,32.4999985122681,8|0,0:0|0:0,0:0:0:0:
290,114,20109,2,0,L|322:100,1,32.4999985122681,8|0,0:0|0:0,0:0:0:0:
345,26,20259,1,0,3:0:0:0:
472,127,20409,2,0,L|399:122,1,64.9999970245363,2|0,0:1|3:0,0:0:0:0:
290,114,20709,1,2,0:0:0:0:
430,207,20859,5,12,0:1:0:0:
388,287,21009,1,4,0:1:0:0:
346,367,21159,1,4,0:1:0:0:
346,367,21309,1,4,0:1:0:0:
479,284,21459,5,4,0:1:0:0:
339,210,21609,1,2,0:0:0:0:
256,344,21759,6,0,P|196:376|130:356,1,139.999995727539,6|0,0:1|0:0,0:0:0:0:
117,218,22209,2,0,P|177:186|243:206,1,139.999995727539,2|0,0:1|0:0,0:0:0:0:
346,367,22659,2,0,L|415:359,1,69.9999978637696,6|0,0:1|0:0,0:0:0:0:
492,221,22959,2,0,L|422:228,1,69.9999978637696,2|0,0:1|0:0,0:0:0:0:
290,128,23259,2,0,L|359:120,1,69.9999978637696,4|2,0:1|0:0,0:0:0:0:
456,1,23559,6,0,L|451:45,1,34.9999989318848,8|0,0:0|0:0,0:0:0:0:
474,111,23709,2,0,L|470:145,1,34.9999989318848,8|0,0:0|0:0,0:0:0:0:
492,221,23859,1,0,3:0:0:0:
339,280,24009,2,0,L|332:211,1,69.9999978637696,2|4,0:0|0:1,0:0:0:0:
346,367,24309,1,2,0:0:0:0:
204,168,24459,5,6,0:1:0:0:
119,240,24609,1,4,0:1:0:0:
25,188,24759,1,12,0:1:0:0:
25,188,24909,1,4,0:1:0:0:
185,160,25059,5,4,0:1:0:0:
117,218,25209,1,2,0:0:0:0:
38,176,25359,6,0,P|3:117|24:52,1,139.999995727539,4|0,0:0|0:0,0:0:0:0:
172,36,25809,2,0,P|206:95|185:160,1,139.999995727539,2|0,0:1|0:0,0:0:0:0:
42,266,26259,2,0,P|38:298|50:335,1,69.9999978637696,6|0,0:1|0:0,0:0:0:0:
162,364,26559,2,0,P|214:360|266:356,1,104.999996795654,2|0,0:0|0:0,0:0:0:0:
288,365,26859,1,12,0:1:0:0:
308,242,27009,1,2,0:0:0:0:
435,312,27159,6,0,L|438:353,1,34.9999989318848,8|0,0:0|0:0,0:0:0:0:
362,339,27309,2,0,L|365:380,1,34.9999989318848,8|0,0:0|0:0,0:0:0:0:
288,365,27459,1,0,3:0:0:0:
308,242,27609,1,2,0:0:0:0:
329,119,27759,1,0,3:0:0:0:
329,119,27909,1,2,0:0:0:0:
379,191,28059,6,0,L|425:187,2,34.9999989318848,4|4|4,0:1|0:1|0:3,0:0:0:0:
308,242,28359,1,8,0:0:0:0:
257,170,28509,1,8,0:0:0:0:
186,220,28659,1,4,0:1:0:0:
169,225,28734,1,0,0:0:0:0:
151,224,28809,1,2,0:0:0:0:
15,187,28959,5,2,0:1:0:0:
19,207,29279,5,8,0:0:0:0:
17,223,29612,5,8,0:0:0:0:
21,241,29992,5,8,0:0:0:0:
19,254,30416,5,8,0:0:0:0:
23,271,30916,5,8,0:0:0:0:
97,369,31916,6,0,L|176:361,2,80,4|2|2,0:1|0:0|0:0,0:0:0:0:
15,303,32816,2,0,L|71:297,1,40,2|0,0:0|0:0,0:0:0:0:
256,371,33716,6,0,B|266:240,1,120,4|0,0:1|0:0,0:0:0:0:
249,172,34316,1,2,0:0:0:0:
363,201,34616,2,0,L|324:197,1,40,2|0,0:0|0:0,0:0:0:0:
393,331,35216,1,2,0:0:0:0:
441,273,35366,1,0,0:0:0:0:
467,343,35516,6,0,P|401:358|340:270,1,181.818181818182,4|2,0:1|0:0,0:0:0:0:
384,161,36416,2,0,L|239:172,1,136.363636363636,4|0,0:1|0:0,0:0:0:0:
248,171,37016,1,2,0:0:0:0:
54,158,37316,6,0,L|59:197,1,40,4|0,0:1|0:0,0:0:0:0:
10,265,37616,1,0,0:0:0:0:
54,158,37916,1,2,0:0:0:0:
123,250,38216,6,0,L|118:289,1,40,4|0,0:1|0:0,0:0:0:0:
167,356,38516,1,0,0:0:0:0:
123,250,38816,1,2,0:0:0:0:
236,264,39116,6,0,L|322:258,2,80,4|0|0,0:1|0:0|0:0,0:0:0:0:
167,356,40016,2,0,L|172:307,1,40,2|0,0:0|0:0,0:0:0:0:
171,316,40616,1,2,0:0:0:0:
103,205,40916,6,0,B|78:167|78:167|88:80,1,120,4|2,0:1|0:0,0:0:0:0:
56,20,41516,2,0,L|95:16,1,40,2|0,0:0|0:0,0:0:0:0:
157,64,41816,2,0,L|196:60,1,40,2|0,0:0|0:0,0:0:0:0:
356,44,42416,1,2,0:0:0:0:
393,110,42566,1,0,0:0:0:0:
365,181,42716,6,0,P|300:222|224:204,1,160,4|2,0:1|0:0,0:0:0:0:
138,153,43616,1,4,0:1:0:0:
46,193,43916,1,2,0:0:0:0:
25,291,44216,1,2,0:0:0:0:
92,366,44516,6,0,P|133:362|179:359,1,80,4|0,0:1|0:0,0:0:0:0:
256,302,45116,2,0,L|256:319,1,10,2|0,0:3|0:0,0:0:0:0:
420,366,45416,1,0,1:0:0:0:
368,312,45566,5,0,0:0:0:0:
388,297,45641,1,0,0:0:0:0:
411,291,45716,1,0,3:0:0:0:
435,292,45791,1,0,0:0:0:0:
458,301,45866,2,0,P|472:311|482:324,1,34.9999989318848,8|0,0:1|0:0,0:0:0:0:
420,366,46016,5,0,0:0:0:0:
437,212,46166,1,2,0:0:0:0:
453,57,46316,6,0,P|393:62|334:68,1,119.999996337891,4|2,0:0|0:0,0:0:0:0:
334,68,46766,1,0,0:0:0:0:
220,39,46916,2,0,P|225:83|229:128,1,89.9999972534181,2|0,0:0|0:0,0:0:0:0:
234,145,47216,6,0,P|248:153|260:162,1,29.9999990844727,8|0,0:0|0:0,0:0:0:0:
203,214,47366,2,0,P|190:221|176:227,1,29.9999990844727,8|0,0:0|0:0,0:0:0:0:
276,237,47516,2,0,L|269:296,1,59.9999981689454,2|0,3:2|0:0,0:0:0:0:
226,364,47816,1,12,0:1:0:0:
226,364,47966,1,0,0:0:0:0:
142,308,48116,6,0,P|121:310|94:314,2,39.9999987792969,0|0|0,3:0|0:0|0:0,0:0:0:0:
162,314,48416,1,2,0:0:0:0:
28,362,48566,1,0,0:0:0:0:
28,362,48716,2,0,P|24:332|20:302,1,59.9999981689454,2|0,0:0|0:0,0:0:0:0:
70,206,49016,2,0,L|66:235,2,29.9999990844727,8|0|0,0:0|0:0|0:0,0:0:0:0:
90,58,49316,2,0,L|83:117,1,59.9999981689454,0|2,0:0|0:0,0:0:0:0:
70,206,49616,1,0,0:0:0:0:
0,150,49766,1,2,0:0:0:0:
171,183,49916,6,0,P|190:180|210:178,2,39.9999987792969,0|0|0,3:0|0:0|0:0,0:0:0:0:
153,173,50216,2,0,P|159:202|155:232,1,59.9999981689454,2|0,0:0|0:0,0:0:0:0:
15,307,50516,2,0,L|104:296,1,89.9999972534181,2|0,0:0|0:0,0:0:0:0:
117,307,50816,6,0,L|108:342,1,29.9999990844727,8|0,0:0|0:0,0:0:0:0:
187,343,50966,2,0,L|194:377,1,29.9999990844727,8|0,0:0|0:0,0:0:0:0:
266,354,51116,2,0,L|325:347,1,59.9999981689454,0|0,3:0|0:0,0:0:0:0:
444,370,51416,2,0,P|450:325|456:280,1,89.9999972534181,4|0,0:1|0:0,0:0:0:0:
453,205,51716,6,0,P|472:205|491:212,2,39.9999987792969,0|0|2,3:0|0:0|0:0,0:0:0:0:
433,210,52016,1,2,0:0:0:0:
336,256,52166,1,0,0:0:0:0:
336,256,52316,2,0,P|340:226|344:196,1,59.9999981689454,2|0,0:0|0:0,0:0:0:0:
353,77,52616,2,0,L|355:106,2,29.9999990844727,8|0|0,0:0|0:0|0:0,0:0:0:0:
309,10,52916,1,4,3:1:0:0:
437,68,53066,1,4,0:1:0:0:
273,144,53216,1,4,0:1:0:0:
299,16,53366,1,4,0:1:0:0:
182,105,53516,6,0,P|122:110|62:115,1,119.999996337891,4|2,0:0|0:0,0:0:0:0:
62,114,53966,1,0,0:0:0:0:
24,239,54116,2,0,L|113:230,1,89.9999972534181,2|0,0:0|0:0,0:0:0:0:
130,229,54416,6,0,L|135:258,1,29.9999990844727,8|0,0:0|0:0,0:0:0:0:
213,258,54566,2,0,P|210:272|207:287,1,29.9999990844727,8|0,0:0|0:0,0:0:0:0:
180,369,54716,2,0,P|210:366|239:363,1,59.9999981689454,2|0,3:2|0:0,0:0:0:0:
321,357,55016,1,12,0:1:0:0:
321,357,55166,1,0,0:0:0:0:
410,298,55316,6,0,P|429:299|449:302,2,39.9999987792969,0|0|0,3:0|0:0|0:0,0:0:0:0:
390,306,55616,1,2,0:0:0:0:
305,228,55766,1,0,0:0:0:0:
305,228,55917,2,0,L|364:223,1,59.9999981689454,2|0,0:0|0:0,0:0:0:0:
465,188,56216,2,0,L|435:184,2,29.9999990844727,8|0|0,0:0|0:0|0:0,0:0:0:0:
512,251,56516,1,4,3:1:0:0:
463,108,56666,1,4,0:1:0:0:
364,222,56816,1,4,0:1:0:0:
466,93,56966,1,4,0:1:0:0:
303,70,57116,6,0,P|284:72|264:74,2,39.9999987792969,0|0|0,3:0|0:0|0:0,0:0:0:0:
324,56,57416,2,0,P|316:86|315:115,1,59.9999981689454,2|0,0:0|0:0,0:0:0:0:
364,222,57716,2,0,P|328:198|283:199,1,89.9999972534181,2|0,0:0|0:0,0:0:0:0:
269,205,58016,6,0,P|254:206|239:208,1,29.9999990844727,10|0,0:0|0:0,0:0:0:0:
176,258,58166,2,0,P|161:257|146:255,1,29.9999990844727,8|0,0:0|0:0,0:0:0:0:
100,187,58316,2,0,P|71:191|41:195,1,59.9999981689454,2|0,3:2|0:0,0:0:0:0:
0,320,58616,2,0,P|43:315|81:339,1,89.9999972534181,12|0,0:1|0:0,0:0:0:0:
165,364,58916,6,0,L|208:359,2,39.9999987792969,0|0|0,3:0|0:0|0:0,0:0:0:0:
150,377,59216,1,10,0:0:0:0:
176,258,59366,1,8,0:0:0:0:
361,376,59516,5,8,0:0:0:0:
361,376,59666,1,8,0:0:0:0:
407,167,59816,5,2,0:0:0:0:
407,167,59966,1,2,0:0:0:0:
324,210,60116,5,8,0:0:0:0:
324,210,60266,1,8,0:0:0:0:
303,300,60416,5,8,0:0:0:0:
361,376,60566,1,8,0:0:0:0:
479,323,60716,6,0,L|439:327,1,39.9999987792969,4|0,0:0|0:0,0:0:0:0:
439,327,61316,1,2,0:0:0:0:
230,355,61616,6,0,B|209:316|209:316|230:198,1,139.999995727539,2|4,0:0|0:1,0:0:0:0:
225,221,62066,1,4,0:1:0:0:
119,274,62216,2,0,P|97:280|74:279,2,46.6666652425131,2|2|2,3:2|0:0|0:0,0:0:0:0:
139,263,62516,6,0,P|96:212|30:224,1,139.999995727539,12|0,0:1|0:0,0:0:0:0:
0,114,62966,1,2,0:0:0:0:
0,114,63041,1,2,0:0:0:0:
0,114,63116,2,0,P|34:110|69:106,1,69.9999978637696,0|4,0:0|0:1,0:0:0:0:
153,23,63416,1,12,0:1:0:0:
154,36,63716,1,8,0:0:0:0:
155,49,64016,1,4,0:1:0:0:
285,143,64316,6,0,P|225:175|159:155,1,139.999995727539,12|0,0:1|0:0,0:0:0:0:
30,223,64766,1,8,0:0:0:0:
30,223,64916,2,0,P|64:218|99:215,1,69.9999978637696,4|0,0:1|0:0,0:0:0:0:
176,254,65216,2,0,P|199:313|157:380,2,139.999995727539,4|8|12,0:1|0:0|0:1,0:0:0:0:
336,254,66116,6,0,P|313:317|348:375,1,139.999995727539,12|4,0:1|0:1,0:0:0:0:
463,302,66566,1,8,0:0:0:0:
463,302,66641,1,2,0:0:0:0:
463,302,66716,2,0,P|428:305|394:310,1,69.9999978637696,0|2,0:0|0:0,0:0:0:0:
415,180,67016,1,4,0:1:0:0:
415,180,67316,2,0,L|411:214,1,34.9999989318848,2|0,3:2|0:0,0:0:0:0:
411,214,67616,1,4,0:1:0:0:
424,92,67766,1,12,0:1:0:0:
236,140,67916,5,12,0:1:0:0:
262,136,67991,1,4,0:1:0:0:
288,134,68066,1,4,0:1:0:0:
317,132,68141,1,4,0:1:0:0:
344,129,68216,1,4,0:1:0:0:
424,92,68366,1,4,0:1:0:0:
411,214,68516,2,0,P|406:251|401:291,1,69.9999978637696,8|0,0:0|0:0,0:0:0:0:
215,359,68816,2,0,P|267:316|333:332,1,139.999995727539,2|8,0:0|0:0,0:0:0:0:
411,369,69266,1,8,0:0:0:0:
489,247,69416,2,0,P|484:282|480:317,1,69.9999978637696,4|2,0:1|0:0,0:0:0:0:
415,180,69716,6,0,L|275:190,1,139.999995727539,4|4,0:1|0:1,0:0:0:0:
135,240,70166,1,10,0:0:0:0:
135,240,70241,1,0,0:0:0:0:
135,240,70316,2,0,P|170:242|205:244,1,69.9999978637696,8|4,0:0|0:1,0:0:0:0:
256,109,70616,1,8,0:0:0:0:
236,103,70766,1,8,0:0:0:0:
306,44,70916,1,0,3:0:0:0:
295,26,71066,1,4,0:1:0:0:
390,10,71216,1,4,0:1:0:0:
473,60,71366,1,12,0:1:0:0:
429,196,71516,5,12,0:1:0:0:
411,197,71591,1,2,0:0:0:0:
394,198,71666,1,2,0:0:0:0:
376,199,71741,1,2,0:0:0:0:
359,201,71816,1,2,0:0:0:0:
275,189,71966,1,4,0:1:0:0:
301,294,72116,2,0,P|305:328|308:367,1,69.9999978637696,8|0,0:0|0:0,0:0:0:0:
118,299,72416,2,0,P|163:273|214:281,1,104.999996795654,4|0,0:1|0:0,0:0:0:0:
225,286,72716,6,0,P|262:300|301:294,1,80,10|8,0:0|0:0,0:0:0:0:
359,201,73016,1,0,0:0:0:0:
405,366,73166,1,2,0:0:0:0:
433,159,73316,6,0,P|349:115|277:177,3,200,12|8|8|10,0:0|0:0|0:0|0:0,0:0:0:0:
225,286,74366,1,2,0:0:0:0:
174,210,74516,1,4,0:1:0:0:
120,271,74666,1,4,0:1:0:0:
0,228,74816,6,0,P|29:225|59:222,1,59.9999981689454,10|0,3:2|0:0,0:0:0:0:
120,271,75116,5,4,0:0:0:0:
119,278,75416,1,2,0:0:0:0:
118,285,75716,1,2,0:0:0:0:
117,292,76016,2,0,B|111:335|111:335|125:370,1,80,2|2,0:0|0:0,0:0:0:0:
191,326,76616,1,2,0:0:0:0:
262,360,76916,6,0,P|301:356|341:353,1,80,2|2,0:0|0:0,0:0:0:0:
428,320,77516,2,0,L|422:366,1,40,2|0,0:0|0:0,0:0:0:0:
430,365,77816,2,0,P|468:371|504:354,2,80,2|2|2,0:0|0:0|0:0,0:0:0:0:
355,262,78716,6,0,L|349:222,2,40,2|2|0,0:0|0:0|0:0,0:0:0:0:
423,184,79316,2,0,L|428:144,1,40,2|0,0:0|0:0,0:0:0:0:
381,82,79616,1,2,0:0:0:0:
380,75,79916,1,2,0:0:0:0:
379,68,80216,1,2,0:0:0:0:
316,17,80516,5,2,0:0:0:0:
235,104,80816,2,0,L|294:98,1,60,2|0,0:0|0:0,0:0:0:0:
304,98,81116,1,0,0:0:0:0:
292,179,81266,1,2,0:0:0:0:
283,299,81416,2,0,P|282:279|280:260,1,40,8|0,0:0|0:0,0:0:0:0:
280,260,81641,1,0,0:0:0:0:
280,260,81716,1,2,0:3:0:0:
262,378,81866,5,4,0:1:0:0:
262,378,81941,1,4,0:1:0:0:
262,378,82016,1,4,0:1:0:0:
340,357,82166,1,12,0:1:0:0:
215,209,82316,6,0,P|160:191|96:240,1,139.999995727539,4|0,0:0|0:0,0:0:0:0:
97,235,82766,1,4,0:1:0:0:
80,362,82916,2,0,P|132:357|184:354,1,104.999996795654,2|0,0:0|0:0,0:0:0:0:
261,331,83216,6,0,P|265:354|261:378,2,46.6666652425131,0|0|0,3:0|0:0|0:0,0:0:0:0:
250,309,83516,1,2,0:0:0:0:
340,357,83666,1,8,0:0:0:0:
340,357,83816,2,0,L|409:351,1,69.9999978637696,4|0,0:1|0:0,0:0:0:0:
502,276,84116,6,0,P|505:223|421:179,1,139.999995727539,12|2,0:1|0:0,0:0:0:0:
439,176,84566,1,0,0:0:0:0:
318,216,84716,1,2,0:3:0:0:
318,216,84791,1,0,0:0:0:0:
318,216,84866,1,0,0:0:0:0:
358,134,85016,2,0,P|356:116|354:97,2,34.9999989318848,4|0|0,0:1|0:0|0:0,0:0:0:0:
318,216,85316,2,0,P|275:246|220:237,1,104.999996795654,2|0,0:0|0:0,0:0:0:0:
211,229,85616,1,4,0:1:0:0:
116,367,85766,1,12,0:1:0:0:
58,253,85916,6,0,P|81:249|104:247,2,46.6666652425131,0|0|0,3:0|0:0|0:0,0:0:0:0:
41,256,86216,2,0,P|27:224|27:189,1,69.9999978637696,2|4,0:0|0:1,0:0:0:0:
27,13,86516,2,0,P|40:62|13:105,1,104.999996795654,10|0,0:0|0:0,0:0:0:0:
1,117,86816,2,0,P|40:113|73:128,1,69.9999978637696,12|0,0:1|0:0,0:0:0:0:
178,44,87116,1,4,0:1:0:0:
154,50,87191,1,2,0:0:0:0:
130,49,87266,1,8,0:0:0:0:
150,180,87416,2,0,P|184:177|219:174,1,69.9999978637696,4|0,0:1|0:0,0:0:0:0:
345,83,87716,6,0,P|336:157|328:232,1,150.000005722046,4|0,0:1|0:0,0:0:0:0:
421,127,88166,2,0,P|416:165|411:202,2,75.0000028610231,4|0|4,0:3|0:0|0:3,0:0:0:0:
497,173,88616,1,2,3:2:0:0:
421,127,88766,1,4,0:1:0:0:
411,202,88916,1,12,0:1:0:0:
345,83,89066,1,4,0:1:0:0:
327,231,89216,6,0,P|322:269|317:306,1,75,2|0,0:1|0:0,0:0:0:0:
361,375,89516,5,12,0:0:0:0:
242,263,89666,1,2,0:0:0:0:
217,265,89741,1,0,0:0:0:0:
192,268,89816,1,2,0:0:0:0:
0,223,89966,1,0,0:0:0:0:
108,214,90116,1,10,0:0:0:0:
165,363,90266,1,4,0:1:0:0:
256,123,90416,6,0,L|176:116,1,79.9999975585938,2|0,3:1|0:0,0:0:0:0:
133,51,90616,1,0,0:0:0:0:
4,106,90716,6,0,B|85:74|92:156|176:116,1,179.999994506836,2|0,0:1|0:0,0:0:0:0:
228,50,91016,2,0,B|268:13|268:13|256:123,1,165.000005035401,4|0,0:1|0:0,0:0:0:0:
206,184,91316,6,0,P|227:197|251:201,1,50,10|0,0:0|0:0,0:0:0:0:
422,157,91466,2,0,P|372:162|322:166,1,100,10|0,0:0|0:0,0:0:0:0:
322,166,91766,1,0,0:0:0:0:
338,364,91916,1,10,0:0:0:0:
470,243,92066,1,0,0:0:0:0:
229,338,92216,6,0,P|312:330|329:247,1,179.999994506836,4|0,0:0|0:0,0:0:0:0:
317,243,92516,2,0,P|348:321|431:314,1,179.999994506836,4|0,0:0|0:0,0:0:0:0:
470,243,92816,1,4,0:1:0:0:
422,157,92966,1,2,0:0:0:0:
475,40,93116,6,0,P|395:46|315:52,1,160,2|0,0:0|0:0,0:0:0:0:
148,118,93566,1,4,0:1:0:0:
88,50,93716,2,0,P|141:26|198:43,1,120,8|0,0:0|0:0,0:0:0:0:
221,57,94016,5,0,3:0:0:0:
157,248,94166,1,2,0:0:0:0:
148,118,94316,1,4,0:1:0:0:
148,118,94466,1,4,0:1:0:0:
237,150,94616,1,4,0:1:0:0:
280,238,94766,1,12,0:1:0:0:
246,330,94916,6,0,L|241:371,1,40,8|0,0:0|0:0,0:0:0:0:
320,364,95066,2,0,L|241:369,1,80,8|0,0:0|0:0,0:0:0:0:
158,256,95366,2,0,P|153:316|147:376,1,120,2|0,0:0|0:0,0:0:0:0:
147,376,95666,1,2,0:0:0:0:
50,305,95816,5,2,3:2:0:0:
50,305,95891,1,0,0:0:0:0:
50,305,95966,1,4,0:1:0:0:
270,209,96116,1,2,3:2:0:0:
147,376,96266,1,4,3:1:0:0:
147,376,96341,1,4,0:1:0:0:
147,376,96416,1,4,0:1:0:0:
174,138,96566,1,2,0:0:0:0:
366,280,96716,5,12,0:0:0:0:
352,92,96866,2,0,B|391:51|391:51|376:194,1,200,2|0,0:0|0:0,0:0:0:0:
366,280,97316,1,10,0:0:0:0:
352,92,97466,1,4,0:1:0:0:
512,265,97616,6,0,L|445:271,1,66.6666666666667,8|0,3:2|0:0,0:0:0:0:
366,280,97816,1,0,0:0:0:0:
461,376,97916,6,0,P|449:293|367:279,1,179.999994506836,2|0,0:1|0:0,0:0:0:0:
301,330,98216,2,0,B|273:364|232:369|203:338|203:338|240:343|267:326,1,165.000005035401,4|0,0:1|0:0,0:0:0:0:
290,252,98516,6,0,P|314:252|338:260,1,50,10|0,0:0|0:0,0:0:0:0:
452,176,98666,2,0,P|405:189|359:172,1,100,10|0,0:0|0:0,0:0:0:0:
359,172,98966,1,0,0:0:0:0:
244,24,99116,1,10,0:0:0:0:
290,252,99266,1,0,0:0:0:0:
332,42,99416,6,0,P|242:49|152:56,1,179.999994506836,4|0,0:0|0:0,0:0:0:0:
141,47,99716,2,0,P|59:63|47:146,1,179.999994506836,4|0,0:0|0:0,0:0:0:0:
84,218,100016,6,0,P|96:255|88:294,1,80,4|2,0:1|0:0,0:0:0:0:
5,334,100316,6,0,P|79:317|133:372,1,160,8|0,0:0|0:0,0:0:0:0:
263,252,100766,1,2,0:0:0:0:
263,252,100916,2,0,L|183:258,1,80,8|4,0:0|0:1,0:0:0:0:
299,338,101216,1,12,0:1:0:0:
360,225,101366,1,4,0:1:0:0:
358,244,101441,1,0,0:0:0:0:
356,264,101516,1,10,0:0:0:0:
299,338,101666,1,4,0:1:0:0:
497,370,101816,2,0,P|449:338|391:349,1,120,12|0,0:1|0:0,0:0:0:0:
379,365,102116,5,12,0:1:0:0:
360,225,102266,1,4,0:1:0:0:
360,225,102416,1,4,0:1:0:0:
512,249,102566,2,0,P|477:252|442:255,1,69.9999978637696,8|4,0:3|0:1,0:0:0:0:
360,225,102866,1,12,0:1:0:0:
404,91,103016,5,0,3:0:0:0:
323,113,103166,2,0,P|325:83|328:53,1,59.9999981689454,4|0,0:3|0:0,0:0:0:0:
200,192,103466,6,0,P|198:168|195:143,1,50,8|4,0:3|0:1,0:0:0:0:
118,177,103766,1,2,0:0:0:0:
256,368,103916,5,12,0:0:0:0:
469,327,104066,2,0,P|397:265|306:294,1,200,2|0,0:0|0:0,0:0:0:0:
256,368,104516,1,10,0:0:0:0:
200,192,104666,1,4,0:1:0:0:
18,334,104816,6,0,L|97:326,1,79.9999975585938,2|0,3:1|0:0,0:0:0:0:
167,365,105016,1,0,0:0:0:0:
86,246,105116,6,0,P|164:280|168:365,1,179.999994506836,2|0,0:1|0:0,0:0:0:0:
97,326,105416,2,0,L|109:161,1,165.000005035401,4|0,0:1|0:0,0:0:0:0:
78,89,105716,6,0,P|101:81|126:83,1,50,10|0,0:0|0:0,0:0:0:0:
284,127,105866,2,0,L|185:137,1,100,10|0,0:0|0:0,0:0:0:0:
185,137,106166,1,0,0:0:0:0:
376,47,106316,1,10,0:0:0:0:
345,237,106466,1,0,0:0:0:0:
248,53,106616,6,0,P|331:61|362:148,1,179.999994506836,4|0,0:0|0:0,0:0:0:0:
357,152,106916,2,0,P|400:78|486:83,1,179.999994506836,4|0,0:0|0:0,0:0:0:0:
512,161,107216,1,4,0:1:0:0:
459,253,107366,1,2,0:0:0:0:
505,361,107516,6,0,P|425:355|345:349,1,160,2|0,0:0|0:0,0:0:0:0:
211,305,107966,1,4,0:1:0:0:
150,372,108116,2,0,P|120:322|130:264,1,120,8|0,0:0|0:0,0:0:0:0:
145,244,108416,5,0,3:0:0:0:
120,80,108566,1,2,0:0:0:0:
56,207,108716,1,4,0:1:0:0:
56,207,108866,1,4,0:1:0:0:
145,244,109016,1,4,0:1:0:0:
216,182,109166,1,12,0:1:0:0:
305,218,109316,6,0,L|353:214,1,40,8|0,0:0|0:0,0:0:0:0:
424,223,109466,2,0,P|384:218|344:214,1,80,8|0,0:0|0:0,0:0:0:0:
245,315,109766,2,0,P|304:309|364:304,1,120,2|0,0:0|0:0,0:0:0:0:
364,304,110066,1,2,0:0:0:0:
512,323,110216,5,2,3:2:0:0:
512,323,110291,1,0,0:0:0:0:
512,323,110366,1,4,0:1:0:0:
454,124,110516,1,2,3:2:0:0:
432,369,110666,1,4,3:1:0:0:
432,369,110741,1,4,0:1:0:0:
432,369,110816,1,4,0:1:0:0:
454,124,110966,1,2,0:0:0:0:
231,228,111116,5,12,0:0:0:0:
415,246,111266,2,0,B|452:204|452:204|309:219,1,200,2|0,0:0|0:0,0:0:0:0:
231,228,111716,1,10,0:0:0:0:
329,56,111866,1,4,0:1:0:0:
164,233,112016,6,0,L|231:228,1,66.6666666666667,8|0,3:2|0:0,0:0:0:0:
309,219,112216,1,0,0:0:0:0:
213,115,112316,6,0,P|295:135|309:218,1,179.999994506836,2|0,0:1|0:0,0:0:0:0:
273,291,112616,2,0,B|254:335|286:370|286:370|340:377|363:334,1,165.000005035401,4|0,0:1|0:0,0:0:0:0:
399,276,112916,6,0,L|394:225,1,50,10|0,0:0|0:0,0:0:0:0:
490,133,113066,2,0,L|479:232,1,100,10|0,0:0|0:0,0:0:0:0:
479,232,113366,1,0,0:0:0:0:
447,49,113516,1,10,0:0:0:0:
308,219,113666,1,0,0:0:0:0:
490,133,113816,6,0,B|400:159|403:93|316:113,1,179.999994506836,4|0,0:0|0:0,0:0:0:0:
305,119,114116,2,0,P|211:143|165:83,1,179.999994506836,4|0,0:0|0:0,0:0:0:0:
152,9,114416,1,4,0:1:0:0:
152,9,114566,1,2,0:0:0:0:
29,164,114716,6,0,L|110:156,2,80,4|0|0,0:1|0:0|0:0,0:0:0:0:
0,277,115166,6,0,P|17:347|86:364,1,150,2|0,0:0|0:0,0:0:0:0:
109,353,115466,1,12,0:1:0:0:
206,294,115616,6,0,P|202:334|199:374,1,80,2|4,3:2|0:1,0:0:0:0:
305,294,115916,2,0,P|309:334|312:374,1,80,0|4,3:0|0:1,0:0:0:0:
512,277,116216,6,0,P|495:346|426:364,1,150,12|0,0:1|0:0,0:0:0:0:
403,353,116516,5,6,0:1:0:0:
419,140,116666,1,4,0:1:0:0:
419,140,116816,1,4,0:1:0:0:
305,294,116966,1,6,0:1:0:0:
421,123,117116,1,4,0:1:0:0:
512,277,117266,1,12,0:1:0:0:
256,192,117416,1,6,0:1:0:0:
