osu file format v14

[General]
AudioFilename: audio.mp3
AudioLeadIn: 0
PreviewTime: 89516
Countdown: 0
SampleSet: Soft
StackLeniency: 0.7
Mode: 0
LetterboxInBreaks: 0
WidescreenStoryboard: 1

[Editor]
Bookmarks: -41,7359,14559,46316,60716,70616,73691,75116,89516,103916,110516
DistanceSpacing: 1.3
BeatDivisor: 4
GridSize: 4
TimelineZoom: 1.8

[Metadata]
Title:Byakuya Gensoutan
TitleUnicode:白夜幻想譚
Artist:Shimotsuki Haruka
ArtistUnicode:霜月はるか
Creator:Chaoslitz
Version:Easy
Source:イリスのアトリエ エターナルマナ
Tags:Atelier Iris Eternal Mana Pending cup #5 Suzuki_1112 Kibbleru yf_bmp Gust 1112deng Irreversible Gaia sahuang Pata-Mon
BeatmapID:1425925
BeatmapSetID:667097

[Difficulty]
HPDrainRate:2
CircleSize:3
OverallDifficulty:2
ApproachRate:3
SliderMultiplier:0.7
SliderTickRate:1

[Events]
//Background and Video events
0,0,"bg.jpg",0,0
//Break Periods
2,75316,80516
//Storyboard Layer 0 (Background)
//Storyboard Layer 1 (Fail)
//Storyboard Layer 2 (Pass)
//Storyboard Layer 3 (Foreground)
//Storyboard Sound Samples

[TimingPoints]
159,300,6,2,1,70,1,0
159,-100,6,2,1,70,0,0
1059,-100,6,2,1,70,0,0
1359,-100,6,2,1,70,0,0
1659,-100,6,2,1,70,0,0
1959,-100,6,2,1,70,0,0
1996,-100,6,2,1,10,0,0
2109,-100,6,2,1,70,0,0
2146,-100,6,2,1,10,0,0
2259,-100,6,2,1,70,0,0
2559,-100,6,2,10,70,0,0
2709,-100,6,2,1,70,0,0
2746,-100,6,2,1,10,0,0
2859,-100,6,2,1,70,0,0
3759,-100,6,2,10,70,0,0
3909,-100,6,2,1,10,0,0
4059,-100,6,2,1,70,0,0
4659,-100,6,2,1,70,0,0
4959,-100,6,2,1,70,0,0
5259,-100,6,2,1,70,0,0
5559,-100,6,2,1,60,0,0
6196,-100,6,2,1,10,0,0
6309,-100,6,2,1,60,0,0
6346,-100,6,2,1,10,0,0
6459,-100,6,2,1,60,0,0
7359,-100,6,2,1,70,0,0
8259,-100,6,2,1,70,0,0
8859,-100,6,2,1,70,0,0
9159,-100,6,2,1,70,0,0
9759,-100,6,2,10,70,0,0
10059,-100,6,2,1,70,0,0
11859,-100,6,2,1,70,0,0
12459,-100,6,2,1,70,0,0
13059,-100,6,2,1,70,0,0
13359,-100,6,2,1,70,0,0
13659,-100,6,2,1,70,0,0
13959,-100,6,2,1,70,0,0
14259,-100,6,2,11,85,0,0
14559,-100,6,2,2,80,0,0
19059,-100,6,2,2,80,0,0
19959,-100,6,2,2,80,0,0
21759,-100,6,2,3,85,0,0
21777,-100,6,2,2,85,0,0
28959,320,6,2,2,70,1,0
29279,333.333333333333,6,2,31,40,1,0
29612,380.952380952381,6,2,32,35,1,0
29992,424.778761061947,6,2,33,30,1,0
30416,500,6,2,34,25,1,0
30916,-100,6,2,35,15,0,0
31916,300,6,2,2,50,1,0
31916,-100,6,2,2,50,0,0
32966,-100,6,2,2,10,0,0
33716,-100,6,2,2,50,0,0
34766,-100,6,2,2,10,0,0
35216,-100,6,2,2,50,0,0
35516,-100,6,2,2,50,0,0
37316,-100,6,2,2,50,0,0
37466,-100,6,2,2,10,0,0
37616,-100,6,2,2,50,0,0
38366,-100,6,2,2,10,0,0
38516,-100,6,2,2,50,0,0
40166,-100,6,2,2,10,0,0
40616,-100,6,2,2,50,0,0
41966,-100,6,2,2,10,0,0
42416,-100,6,2,2,50,0,0
45116,-100,6,2,1,50,0,0
45153,-100,6,2,2,10,0,0
45416,-100,6,2,1,60,0,0
45566,-100,6,2,2,60,0,0
45866,-100,6,2,1,60,0,0
46316,-100,6,2,2,70,0,0
59516,-100,6,2,20,70,0,0
59816,-100,6,2,21,75,0,0
60116,-100,6,2,20,70,0,0
60416,-100,6,2,22,65,0,0
60566,-100,6,2,24,65,0,0
60716,-100,6,2,23,60,0,0
60791,-100,6,2,2,10,0,0
61316,-100,6,2,2,70,0,0
63716,-100,6,2,3,70,0,0
64016,-100,6,2,2,70,0,0
64766,-100,6,2,3,70,0,0
64916,-100,6,2,2,70,0,0
65516,-100,6,2,3,70,0,0
65816,-100,6,2,2,70,0,0
66566,-100,6,2,3,70,0,0
66716,-100,6,2,2,70,0,0
67391,-100,6,2,2,10,0,0
67616,-100,6,2,2,70,0,0
69116,-100,6,2,3,70,0,0
69266,-100,6,2,2,70,0,0
69416,-100,6,2,2,70,0,0
70166,-100,6,2,3,70,0,0
70316,-100,6,2,2,70,0,0
72716,-100,6,2,3,70,0,0
72866,-100,6,2,2,70,0,0
73316,-100,6,2,2,80,0,0
74216,-100,6,2,2,80,0,0
74366,-100,6,2,2,75,0,0
74516,-100,6,2,2,70,0,0
74666,-100,6,2,2,65,0,0
74816,-100,6,2,2,60,0,0
75116,-100,6,2,2,40,0,0
80516,-100,6,2,2,50,0,0
81041,-100,6,2,2,10,0,0
81116,-100,6,2,2,40,0,0
81716,-100,6,2,1,55,0,0
81866,-100,6,2,2,55,0,0
82316,-100,6,2,2,70,0,0
84716,-100,6,2,10,70,0,0
84791,-100,6,2,2,70,0,0
87716,-100,6,2,2,70,0,0
88616,-100,6,2,2,75,0,0
88766,-100,6,2,2,80,0,0
88916,-100,6,2,2,85,0,0
89066,-100,6,2,2,90,0,0
89216,-100,6,2,2,80,0,0
89516,-100,6,2,2,90,0,1
90116,-100,6,2,3,90,0,1
90266,-100,6,2,2,90,0,1
90416,-100,6,2,2,90,0,1
90716,-100,6,2,2,90,0,1
91016,-100,6,2,2,90,0,1
91316,-100,6,2,2,90,0,1
91916,-100,6,2,3,90,0,1
92066,-100,6,2,2,90,0,1
92216,-100,6,2,3,90,0,1
92441,-100,6,2,3,10,0,1
92516,-100,6,2,3,90,0,1
92816,-100,6,2,2,90,0,1
93116,-100,6,2,2,90,0,1
93716,-100,6,2,3,90,0,1
94016,-100,6,2,2,90,0,1
96716,-100,6,2,2,90,0,1
97316,-100,6,2,3,90,0,1
97466,-100,6,2,2,90,0,1
97616,-100,6,2,2,90,0,1
97916,-100,6,2,2,90,0,1
98216,-100,6,2,2,90,0,1
98516,-100,6,2,2,90,0,1
99116,-100,6,2,3,90,0,1
99266,-100,6,2,2,90,0,1
99416,-100,6,2,3,90,0,1
100016,-100,6,2,2,90,0,1
100916,-100,6,2,3,90,0,1
101066,-100,6,2,2,90,0,1
101516,-100,6,2,3,90,0,1
101666,-100,6,2,2,90,0,1
102116,-100,6,2,2,90,0,1
103166,-100,6,2,2,90,0,1
103466,-100,6,2,2,90,0,1
103841,-100,6,2,2,90,0,0
103916,-100,6,2,2,90,0,1
104516,-100,6,2,3,90,0,1
104666,-100,6,2,2,90,0,1
104816,-100,6,2,2,90,0,1
105116,-100,6,2,2,90,0,1
105416,-100,6,2,2,90,0,1
105716,-100,6,2,2,90,0,1
106316,-100,6,2,3,90,0,1
106466,-100,6,2,2,90,0,1
106616,-100,6,2,3,90,0,1
106841,-100,6,2,3,10,0,1
106916,-100,6,2,3,90,0,1
107216,-100,6,2,2,90,0,1
107516,-100,6,2,2,90,0,1
108116,-100,6,2,3,90,0,1
108416,-100,6,2,2,90,0,1
111116,-100,6,2,2,90,0,1
111716,-100,6,2,3,90,0,1
111866,-100,6,2,2,90,0,1
112016,-100,6,2,2,90,0,1
112316,-100,6,2,2,90,0,1
112616,-100,6,2,2,90,0,1
112916,-100,6,2,2,90,0,1
113516,-100,6,2,3,90,0,1
113666,-100,6,2,2,90,0,1
113816,-100,6,2,3,90,0,1
114416,-100,6,2,2,90,0,1
114716,-100,6,2,2,90,0,1
115166,-100,6,2,2,90,0,1
115616,-100,6,2,2,90,0,1
116216,-100,6,2,2,90,0,1
116516,-100,6,2,2,90,0,1
117416,-100,6,2,3,95,0,0

[Colours]
Combo1 : 231,148,248
Combo2 : 242,126,184
Combo3 : 252,155,84
Combo4 : 255,255,142
Combo5 : 143,242,130
Combo6 : 151,220,248

[HitObjects]
27,53,159,6,0,L|131:42,2,105,8|8|2,0:1|0:1|0:3,0:0:0:0:
53,141,1359,2,0,L|122:133,1,70,8|8,0:0|0:1,0:0:0:0:
204,172,1959,2,0,L|196:241,1,70,8|0,0:0|1:0,0:0:0:0:
261,312,2559,1,2,0:3:0:0:
179,351,2859,2,0,L|106:360,2,70,2|8|8,0:3|0:0|0:0,0:0:0:0:
261,312,3759,6,0,B|331:305|331:305|393:335,1,140,4|8,0:0|0:1,0:0:0:0:
477,370,4659,2,0,L|495:225,1,140,2|8,0:3|0:0,0:0:0:0:
504,140,5559,2,0,P|499:105|482:75,2,70,0|0|0,1:0|1:0|1:0,0:0:0:0:
412,136,6459,2,0,L|335:142,1,70,0|0,1:0|1:0,0:0:0:0:
256,173,7059,1,0,1:0:0:0:
169,142,7359,6,0,P|104:123|36:170,1,140,2|2,0:3|0:3,0:0:0:0:
4,237,8259,2,0,P|9:272|12:307,1,70,2|2,0:3|0:3,0:0:0:0:
82,365,8859,1,2,0:3:0:0:
140,296,9159,2,0,P|199:259|266:273,1,140,0|2,1:0|0:3,0:0:0:0:
352,303,10059,2,0,L|342:378,2,70,0|0|0,1:0|1:0|1:0,0:0:0:0:
435,266,10959,6,0,P|471:219|450:139,1,140,2|2,0:3|1:3,0:0:0:0:
400,70,11859,2,0,L|322:78,1,70,2|2,3:0|0:3,0:0:0:0:
256,130,12459,1,2,0:3:0:0:
180,77,12759,2,0,P|115:59|58:95,1,140,2|8,1:3|0:1,0:0:0:0:
22,181,13659,2,0,L|29:257,1,70,0|0,1:0|1:0,0:0:0:0:
69,332,14259,1,10,0:0:0:0:
143,279,14559,6,0,L|133:174,2,105,4|2|2,0:0|0:0|0:1,0:0:0:0:
185,360,15759,2,0,P|220:345|259:343,1,70,4|2,0:1|0:0,0:0:0:0:
340,360,16359,2,0,P|406:365|436:302,1,140,8|8,0:0|0:0,0:0:0:0:
366,247,17259,2,0,P|361:212|370:178,1,70,4|0,0:1|3:0,0:0:0:0:
440,117,17859,1,2,0:0:0:0:
387,44,18159,6,0,P|339:10|263:34,1,140,4|0,0:0|3:0,0:0:0:0:
181,66,19059,2,0,L|101:74,1,70,4|0,0:1|3:0,0:0:0:0:
35,124,19659,1,2,0:1:0:0:
63,208,19959,2,0,L|167:196,2,105,8|2|12,0:0|0:1|0:1,0:0:0:0:
89,295,21159,2,0,L|165:286,1,70,4|4,0:1|0:1,0:0:0:0:
248,275,21759,6,0,L|235:380,2,105,6|2|6,0:1|0:1|0:1,0:0:0:0:
256,183,22959,1,2,0:1:0:0:
336,225,23259,1,4,0:1:0:0:
419,188,23559,2,0,P|454:130|433:65,1,140,8|4,0:0|0:1,0:0:0:0:
360,10,24459,2,0,P|326:14|291:17,1,70,6|12,0:1|0:1,0:0:0:0:
217,72,25059,1,4,0:1:0:0:
133,35,25359,6,0,P|82:27|32:52,2,105,4|2|6,0:0|0:1|0:1,0:0:0:0:
217,72,26559,1,2,0:0:0:0:
204,162,26859,1,12,0:1:0:0:
191,252,27159,2,0,P|121:258|51:263,1,140,8|0,0:0|3:0,0:0:0:0:
38,353,28059,2,0,P|107:347|177:341,1,140,4|4,0:1|0:1,0:0:0:0:
256,192,28959,12,0,30916,0:0:0:0:
355,333,31916,6,0,P|418:360|490:329,1,140,4|2,0:1|0:0,0:0:0:0:
421,267,32816,1,2,0:0:0:0:
157,333,33716,2,0,P|93:360|21:329,1,140,4|2,0:1|0:0,0:0:0:0:
91,267,34616,1,2,0:0:0:0:
19,99,35216,1,2,0:0:0:0:
83,163,35516,6,0,P|152:156|222:148,1,140,4|2,0:1|0:0,0:0:0:0:
286,84,36416,2,0,P|343:66|411:117,1,140,4|2,0:1|0:0,0:0:0:0:
426,195,37316,2,0,P|461:191|496:186,2,70,4|0|2,0:1|0:0|0:0,0:0:0:0:
416,285,38216,2,0,P|450:281|485:276,2,70,4|0|2,0:1|0:0|0:0,0:0:0:0:
348,346,39116,5,4,0:1:0:0:
164,346,39716,1,0,0:0:0:0:
77,317,40016,2,0,P|70:247|62:177,1,140,2|2,0:0|0:0,0:0:0:0:
72,86,40916,2,0,P|112:47|200:59,1,140,4|2,0:1|0:0,0:0:0:0:
256,115,41816,1,2,0:0:0:0:
422,40,42416,5,2,0:0:0:0:
469,117,42716,2,0,P|461:186|454:256,1,140,4|2,0:1|0:0,0:0:0:0:
444,347,43616,2,0,P|397:361|362:359,1,70,4|2,0:1|0:0,0:0:0:0:
313,295,44216,1,2,0:0:0:0:
238,347,44516,2,0,P|177:367|116:260,1,210,4|0,0:1|1:0,0:0:0:0:
171,186,45716,1,0,3:0:0:0:
100,128,46016,1,0,0:0:0:0:
158,59,46316,6,0,P|193:56|228:52,1,70,4|2,0:0|0:0,0:0:0:0:
309,96,46916,1,2,0:0:0:0:
380,41,47216,2,0,P|447:46|472:107,1,140,8|12,0:0|0:1,0:0:0:0:
414,177,48116,2,0,P|407:220|404:246,1,70,0|2,3:0|0:0,0:0:0:0:
463,315,48716,1,2,0:0:0:0:
383,358,49016,6,0,P|313:348|243:342,1,140,8|0,0:0|0:0,0:0:0:0:
153,360,49916,2,0,P|115:305|132:239,1,140,0|2,3:0|0:0,0:0:0:0:
210,192,50816,2,0,P|227:126|188:70,1,140,8|4,0:0|0:1,0:0:0:0:
102,39,51716,2,0,P|67:42|32:46,2,70,0|2|2,3:0|0:0|0:0,0:0:0:0:
84,128,52616,2,0,P|49:131|14:135,2,70,8|4|4,0:0|3:1|0:1,0:0:0:0:
66,217,53516,6,0,P|71:255|75:296,1,70,4|2,0:0|0:0,0:0:0:0:
122,363,54116,1,2,0:0:0:0:
185,297,54416,2,0,P|245:279|314:313,1,140,8|12,0:0|0:1,0:0:0:0:
389,364,55316,2,0,P|435:333|435:247,1,140,0|2,3:0|0:0,0:0:0:0:
363,202,56216,2,0,L|371:131,1,70,8|4,0:0|3:1,0:0:0:0:
438,71,56816,1,4,0:1:0:0:
361,21,57116,6,0,P|291:26|221:31,1,140,0|2,3:0|0:0,0:0:0:0:
138,69,58016,2,0,P|104:64|68:77,1,70,10|2,0:0|3:2,0:0:0:0:
9,143,58616,1,12,0:1:0:0:
37,229,58916,2,0,P|75:267|163:250,1,140,0|8,3:0|0:0,0:0:0:0:
218,191,59816,2,0,L|212:109,2,70,2|8|8,0:0|0:0|0:0,0:0:0:0:
243,277,60716,5,4,0:0:0:0:
399,369,61316,1,2,0:0:0:0:
473,316,61616,2,0,P|492:264|446:185,1,140,2|2,0:0|3:2,0:0:0:0:
382,138,62516,2,0,P|312:145|242:150,1,140,12|0,0:1|0:0,0:0:0:0:
161,192,63416,2,0,L|77:184,2,70,12|8|4,0:1|0:0|0:1,0:0:0:0:
235,243,64316,6,0,P|304:237|374:230,1,140,12|4,0:1|0:1,0:0:0:0:
456,191,65216,2,0,P|473:139|469:110,1,70,4|8,0:1|0:0,0:0:0:0:
414,52,65816,1,12,0:1:0:0:
323,50,66116,2,0,P|253:57|183:62,1,140,12|0,0:1|0:0,0:0:0:0:
90,75,67016,2,0,P|85:109|80:144,1,70,4|2,0:1|3:2,0:0:0:0:
124,224,67616,1,4,0:1:0:0:
167,303,67916,6,0,P|162:337|157:372,2,70,12|4|8,0:1|0:1|0:0,0:0:0:0:
214,227,68816,2,0,P|218:192|224:157,2,70,2|8|4,0:0|0:0|0:1,0:0:0:0:
257,306,69716,2,0,P|309:346|384:323,1,140,4|8,0:1|0:0,0:0:0:0:
437,262,70616,2,0,P|471:257|506:253,2,70,8|0|4,0:0|3:0|0:1,0:0:0:0:
362,209,71516,6,0,P|369:140|378:70,1,140,12|8,0:1|0:0,0:0:0:0:
308,11,72416,2,0,P|274:16|237:20,1,70,4|10,0:1|0:0,0:0:0:0:
176,86,73016,1,0,0:0:0:0:
93,46,73316,2,0,P|46:53|12:143,1,140,12|8,0:0|0:0,0:0:0:0:
38,215,74216,2,0,P|34:258|29:300,2,70,10|4|10,0:0|0:1|3:2,0:0:0:0:
126,192,75116,1,4,0:0:0:0:
126,191,82316,6,0,P|119:261|112:331,1,140,4|2,0:0|0:0,0:0:0:0:
197,365,83216,2,0,L|205:281,2,70,0|2|4,3:0|0:0|0:1,0:0:0:0:
284,341,84116,2,0,P|326:308|414:321,1,140,12|2,0:1|0:3,0:0:0:0:
484,367,85016,1,4,0:1:0:0:
509,186,85616,1,4,0:1:0:0:
458,110,85916,6,0,P|395:115|313:122,1,140,0|10,3:0|0:0,0:0:0:0:
250,181,86816,2,0,P|215:175|180:171,2,70,12|4|4,0:1|0:1|0:1,0:0:0:0:
318,121,87716,2,0,P|326:47|204:35,1,210,4|2,0:1|3:2,0:0:0:0:
147,85,88916,1,12,0:1:0:0:
67,41,89216,1,2,0:1:0:0:
4,106,89516,6,0,B|-2:177|-2:177|18:209,2,105,12|0|2,0:0|0:0|3:1,0:0:0:0:
67,41,90716,1,2,0:1:0:0:
147,85,91016,1,8,0:1:0:0:
227,129,91316,2,0,L|331:119,2,105,10|0|4,0:0|0:0|0:0,0:0:0:0:
148,176,92516,2,0,L|142:248,1,70,4|4,0:0|0:1,0:0:0:0:
175,330,93116,6,0,P|238:365|300:342,1,140,2|8,0:0|0:0,0:0:0:0:
350,269,94016,2,0,L|425:263,1,70,0|4,3:0|0:1,0:0:0:0:
504,229,94616,1,4,0:1:0:0:
469,144,94916,2,0,L|478:39,2,105,8|2|2,0:0|0:0|3:2,0:0:0:0:
384,178,96116,2,0,L|314:184,1,70,2|4,3:2|0:1,0:0:0:0:
229,217,96716,6,0,L|219:330,2,105,12|0|8,0:0|0:0|3:2,0:0:0:0:
237,126,97916,2,0,L|163:133,1,70,2|4,0:1|0:1,0:0:0:0:
79,107,98516,2,0,B|88:36|88:36|67:-3,2,105,10|0|4,0:0|0:0|0:0,0:0:0:0:
103,194,99716,2,0,L|93:263,1,70,4|4,0:0|0:1,0:0:0:0:
106,353,100316,6,0,P|51:362|0:332,2,105,8|2|12,0:0|0:0|0:1,0:0:0:0:
185,308,101516,1,10,0:0:0:0:
256,364,101816,1,12,0:1:0:0:
327,308,102116,2,0,L|431:317,2,105,12|8|0,0:1|0:3|3:0,0:0:0:0:
256,192,103466,1,8,0:3:0:0:
194,70,103916,6,0,L|89:60,2,105,12|0|2,0:0|0:0|3:1,0:0:0:0:
284,78,105116,2,0,L|358:85,1,70,2|4,0:1|0:1,0:0:0:0:
437,119,105716,2,0,P|442:66|446:14,2,105,10|0|4,0:0|0:0|0:0,0:0:0:0:
508,176,106916,2,0,L|501:245,1,70,4|4,0:0|0:1,0:0:0:0:
488,336,107516,6,0,P|424:359|368:322,1,140,2|8,0:0|0:0,0:0:0:0:
328,241,108416,2,0,L|259:247,1,70,0|4,3:0|0:1,0:0:0:0:
185,300,109016,1,4,0:1:0:0:
110,352,109316,2,0,P|57:357|5:362,2,105,8|2|2,0:0|0:0|3:2,0:0:0:0:
90,262,110516,2,0,P|55:265|20:268,1,70,2|4,3:2|0:1,0:0:0:0:
10,178,111116,6,0,P|15:125|21:73,2,105,12|0|8,0:0|0:0|3:2,0:0:0:0:
100,170,112316,2,0,P|103:135|107:100,1,70,2|4,0:1|0:1,0:0:0:0:
174,37,112916,2,0,P|226:31|278:25,2,105,10|0|4,0:0|0:0|0:0,0:0:0:0:
203,123,114116,2,0,P|237:119|272:115,1,70,4|4,0:0|0:1,0:0:0:0:
355,77,114716,6,0,P|407:71|459:65,2,105,4|2|2,0:1|0:0|3:2,0:0:0:0:
272,115,115916,1,0,3:0:0:0:
324,189,116216,1,12,0:1:0:0:
252,245,116516,6,0,P|259:296|265:359,1,105,6|6,0:1|0:1,0:0:0:0:
353,368,117266,2,0,L|401:361,1,35,12|6,0:1|0:1,0:0:0:0:
