osu file format v14

[General]
AudioFilename: audio.mp3
AudioLeadIn: 0
PreviewTime: 180416
Countdown: 0
SampleSet: Soft
StackLeniency: 0.4
Mode: 0
LetterboxInBreaks: 0
WidescreenStoryboard: 1

[Editor]
Bookmarks: 79475,141593,158534,174946,203711,244299
DistanceSpacing: 1.1
BeatDivisor: 4
GridSize: 32
TimelineZoom: 2.5

[Metadata]
Title:Brand new Happy!
TitleUnicode:Brand new Happy!
Artist:Shimotsuki Haruka
ArtistUnicode:霜月はるか
Creator:August
Version:Rage Quit & Bellicose's Hard
Source:Princess Evangile
Tags:eroge rage quit bellicose visual novel opening japanese female vocals jpop moonstone psp rage_quit Matsuura Takao 松浦貴雄 full version プリンセスエヴァンジール video game
BeatmapID:2199400
BeatmapSetID:1026993

[Difficulty]
HPDrainRate:4
CircleSize:4.5
OverallDifficulty:7
ApproachRate:7.8
SliderMultiplier:1.6
SliderTickRate:1

[Events]
//Background and Video events
0,0,"bg.jpg",0,0
//Break Periods
2,79675,81472
2,82499,84295
2,85322,87119
2,88146,89942
2,170028,174119
//Storyboard Layer 0 (Background)
//Storyboard Layer 1 (Fail)
//Storyboard Layer 2 (Pass)
//Storyboard Layer 3 (Foreground)
//Storyboard Layer 4 (Overlay)
//Storyboard Sound Samples

[TimingPoints]
417,352.941176470588,4,2,2,40,1,0
417,-142.857142857143,4,2,2,40,0,0
4475,-100,4,2,2,55,0,0
4740,-100,4,2,2,5,0,0
4828,-100,4,2,2,55,0,0
6064,-100,4,2,2,60,0,0
8799,-100,4,2,2,5,0,0
8887,-100,4,2,2,65,0,0
10211,-100,4,2,2,5,0,0
10299,-100,4,2,2,65,0,0
10828,-142.857142857143,4,2,2,65,0,0
11622,-142.857142857143,4,2,2,5,0,0
11711,-285.714285714286,4,2,2,35,0,0
20181,-285.714285714286,4,2,2,40,0,0
20446,-285.714285714286,4,2,2,5,0,0
20534,-285.714285714286,4,2,2,35,0,0
23005,-200,4,2,2,35,0,0
28652,-200,4,2,2,45,0,0
28916,-200,4,2,2,5,0,0
29005,-200,4,2,2,40,0,0
31475,-133.333333333333,4,2,2,55,0,0
31740,-133.333333333333,4,2,2,5,0,0
31828,-133.333333333333,4,2,2,55,0,0
32534,-133.333333333333,4,2,2,55,0,0
33064,-133.333333333333,4,2,2,50,0,0
33593,-100,4,2,2,50,0,0
33769,-100,4,2,2,54,0,0
33946,-100,4,2,2,58,0,0
34122,-100,4,2,2,62,0,0
34299,-111.111111111111,4,2,2,65,0,0
34564,-111.111111111111,4,2,2,5,0,0
34652,-111.111111111111,4,2,2,65,0,0
35093,-111.111111111111,4,2,2,5,0,0
35181,-111.111111111111,4,2,2,65,0,0
35975,-111.111111111111,4,2,2,5,0,0
36064,-111.111111111111,4,2,2,65,0,0
37916,-111.111111111111,4,2,2,5,0,0
38005,-111.111111111111,4,2,2,65,0,0
40211,-111.111111111111,4,2,2,5,0,0
40299,-111.111111111111,4,2,2,65,0,0
40740,-111.111111111111,4,2,2,5,0,0
40828,-111.111111111111,4,2,2,65,0,0
41622,-111.111111111111,4,2,2,5,0,0
41711,-111.111111111111,4,2,2,65,0,0
42769,-111.111111111111,4,2,2,65,0,0
44005,-111.111111111111,4,2,2,65,0,0
44269,-111.111111111111,4,2,2,5,0,0
44358,-111.111111111111,4,2,2,70,0,0
45064,-166.666666666667,4,2,2,60,0,0
45593,-111.111111111111,4,2,2,70,0,1
45858,-111.111111111111,4,2,2,5,0,1
45946,-111.111111111111,4,2,2,70,0,1
48681,-111.111111111111,4,2,2,5,0,1
48769,-111.111111111111,4,2,2,70,0,1
49828,-111.111111111111,4,2,2,70,0,1
50358,-111.111111111111,4,2,2,60,0,1
50711,-111.111111111111,4,2,2,60,0,1
51064,-111.111111111111,4,2,2,65,0,1
52916,-111.111111111111,4,2,2,5,0,1
53005,-111.111111111111,4,2,2,65,0,1
54328,-111.111111111111,4,2,2,5,0,1
54416,-111.111111111111,4,2,2,65,0,1
55475,-111.111111111111,4,2,2,65,0,1
55740,-111.111111111111,4,2,2,5,0,1
55828,-111.111111111111,4,2,2,70,0,1
56093,-111.111111111111,4,2,2,5,0,1
56181,-111.111111111111,4,2,2,75,0,1
56446,-111.111111111111,4,2,2,5,0,1
56534,-111.111111111111,4,2,2,80,0,1
56711,-111.111111111111,4,2,2,5,0,0
56887,-111.111111111111,4,2,2,70,0,1
57152,-111.111111111111,4,2,2,5,0,1
57240,-111.111111111111,4,2,2,70,0,1
57416,-111.111111111111,4,2,2,70,0,1
59975,-111.111111111111,4,2,2,5,0,1
60064,-111.111111111111,4,2,2,70,0,1
61122,-111.111111111111,4,2,2,70,0,1
61652,-111.111111111111,4,2,2,60,0,1
62358,-111.111111111111,4,2,2,65,0,1
64211,-111.111111111111,4,2,2,5,0,1
64299,-111.111111111111,4,2,2,65,0,1
65358,-111.111111111111,4,2,2,70,0,1
65622,-111.111111111111,4,2,2,5,0,1
65711,-111.111111111111,4,2,2,70,0,1
66681,-111.111111111111,4,2,2,5,0,1
66769,-111.111111111111,4,2,2,75,0,1
67122,-111.111111111111,4,2,2,70,0,1
68181,-125,4,2,2,60,0,0
68446,-125,4,2,2,5,0,0
68534,-125,4,2,2,60,0,0
71269,-125,4,2,2,5,0,0
71358,-125,4,2,2,60,0,0
73211,-125,4,2,2,5,0,0
73299,-125,4,2,2,60,0,0
78064,-400,4,2,2,60,0,0
78152,-200,4,2,2,40,0,0
79475,-111.111111111111,4,2,2,35,0,0
79828,-111.111111111111,4,2,2,35,0,0
90064,-111.111111111111,4,2,2,35,0,0
90769,-200,4,2,2,35,0,0
95711,-200,4,2,2,35,0,0
96416,-200,4,2,2,40,0,0
97828,-200,4,2,2,40,0,0
98358,-200,4,2,2,43,0,0
98887,-200,4,2,2,46,0,0
99240,-133.333333333333,4,2,2,55,0,0
99505,-133.333333333333,4,2,2,5,0,0
99593,-133.333333333333,4,2,2,55,0,0
100299,-133.333333333333,4,2,2,55,0,0
100828,-133.333333333333,4,2,2,53,0,0
101358,-100,4,2,2,55,0,0
101534,-100,4,2,2,58,0,0
101711,-100,4,2,2,61,0,0
101887,-100,4,2,2,64,0,0
102064,-111.111111111111,4,2,2,65,0,0
102328,-111.111111111111,4,2,2,5,0,0
102416,-111.111111111111,4,2,2,65,0,0
102858,-111.111111111111,4,2,2,5,0,0
102946,-111.111111111111,4,2,2,65,0,0
103740,-111.111111111111,4,2,2,5,0,0
103828,-111.111111111111,4,2,2,65,0,0
105681,-111.111111111111,4,2,2,5,0,0
105769,-111.111111111111,4,2,2,65,0,0
107975,-111.111111111111,4,2,2,5,0,0
108064,-111.111111111111,4,2,2,65,0,0
108505,-111.111111111111,4,2,2,5,0,0
108593,-111.111111111111,4,2,2,65,0,0
109387,-111.111111111111,4,2,2,5,0,0
109475,-111.111111111111,4,2,2,65,0,0
110534,-111.111111111111,4,2,2,65,0,0
111769,-111.111111111111,4,2,2,65,0,0
112034,-111.111111111111,4,2,2,5,0,0
112122,-111.111111111111,4,2,2,70,0,0
112828,-166.666666666666,4,2,2,60,0,0
113358,-111.111111111111,4,2,2,72,0,1
113622,-111.111111111111,4,2,2,5,0,1
113711,-111.111111111111,4,2,2,72,0,1
116446,-111.111111111111,4,2,2,5,0,1
116534,-111.111111111111,4,2,2,72,0,1
117593,-111.111111111111,4,2,2,72,0,1
118122,-111.111111111111,4,2,2,63,0,1
118828,-111.111111111111,4,2,2,67,0,1
120681,-111.111111111111,4,2,2,5,0,1
120769,-111.111111111111,4,2,2,67,0,1
122093,-111.111111111111,4,2,2,5,0,1
122181,-111.111111111111,4,2,2,67,0,1
123240,-111.111111111111,4,2,2,67,0,1
123505,-111.111111111111,4,2,2,5,0,1
123593,-111.111111111111,4,2,2,71,0,1
123858,-111.111111111111,4,2,2,5,0,1
123946,-111.111111111111,4,2,2,75,0,1
124211,-111.111111111111,4,2,2,5,0,1
124299,-111.111111111111,4,2,2,79,0,1
124475,-111.111111111111,4,2,2,65,0,0
124652,-111.111111111111,4,2,2,72,0,1
124916,-111.111111111111,4,2,2,5,0,1
125005,-111.111111111111,4,2,2,72,0,1
125181,-111.111111111111,4,2,2,72,0,1
127740,-111.111111111111,4,2,2,5,0,1
127828,-111.111111111111,4,2,2,72,0,1
128887,-111.111111111111,4,2,2,72,0,1
129416,-111.111111111111,4,2,2,63,0,1
130122,-111.111111111111,4,2,2,67,0,1
131975,-111.111111111111,4,2,2,5,0,1
132064,-111.111111111111,4,2,2,67,0,1
133122,-111.111111111111,4,2,2,73,0,1
133387,-111.111111111111,4,2,2,5,0,1
133475,-111.111111111111,4,2,2,73,0,1
134446,-111.111111111111,4,2,2,5,0,1
134534,-111.111111111111,4,2,2,79,0,1
134887,-111.111111111111,4,2,2,73,0,1
135946,-125,4,2,2,55,0,0
138064,-125,4,2,2,60,0,0
138416,-125,4,2,2,65,0,0
138769,-125,4,2,2,55,0,0
140005,-125,4,2,2,55,0,0
140534,-125,4,2,2,60,0,0
140887,-125,4,2,2,50,0,0
141064,-125,4,2,2,55,0,0
141240,-125,4,2,2,60,0,0
141416,-125,4,2,2,65,0,0
141946,-125,4,2,2,55,0,0
143711,-125,4,2,2,60,0,0
144064,-125,4,2,2,65,0,0
144416,-111.111111111111,4,2,2,60,0,1
144593,-111.111111111111,4,2,2,55,0,1
144769,-111.111111111111,4,2,2,55,0,1
144858,-111.111111111111,4,2,2,58,0,1
144946,-111.111111111111,4,2,2,61,0,1
145034,-111.111111111111,4,2,2,64,0,1
145122,-111.111111111111,4,2,2,70,0,1
145299,-111.111111111111,4,2,2,60,0,1
145475,-111.111111111111,4,2,2,60,0,1
145564,-111.111111111111,4,2,2,64,0,1
145652,-111.111111111111,4,2,2,68,0,1
145740,-111.111111111111,4,2,2,72,0,1
145828,-111.111111111111,4,2,2,75,0,1
146181,-111.111111111111,4,2,2,77,0,1
146534,-111.111111111111,4,2,2,79,0,1
146887,-111.111111111111,4,2,2,80,0,1
146975,-111.111111111111,4,2,2,76,0,1
147064,-111.111111111111,4,2,2,72,0,1
147240,-111.111111111111,4,2,2,60,0,0
152887,-111.111111111111,4,2,2,65,0,0
153152,-111.111111111111,4,2,2,5,0,0
153240,-111.111111111111,4,2,2,60,0,0
155622,-111.111111111111,4,2,2,5,0,0
155711,-111.111111111111,4,2,2,65,0,0
156240,-111.111111111111,4,2,2,60,0,0
156593,-111.111111111111,4,2,2,67,0,0
157122,-111.111111111111,4,2,2,70,0,0
157652,-111.111111111111,4,2,2,60,0,0
157828,-111.111111111111,4,2,2,60,0,0
158181,-111.111111111111,4,2,2,60,0,0
158269,-111.111111111111,4,2,2,64,0,0
158358,-111.111111111111,4,2,2,68,0,0
158446,-111.111111111111,4,2,2,55,0,0
158534,-111.111111111111,4,2,2,63,0,0
164181,-111.111111111111,4,2,2,72,0,0
164446,-111.111111111111,4,2,2,5,0,0
164534,-111.111111111111,4,2,2,63,0,0
164711,-111.111111111111,4,2,2,70,0,0
165064,-111.111111111111,4,2,2,63,0,0
165593,-111.111111111111,4,2,2,63,0,0
166916,-111.111111111111,4,2,2,5,0,0
167005,-111.111111111111,4,2,2,67,0,0
168064,-111.111111111111,4,2,2,65,0,0
168416,-111.111111111111,4,2,2,70,0,0
168593,-111.111111111111,4,2,2,67,0,0
168769,-111.111111111111,4,2,2,64,0,0
168946,-111.111111111111,4,2,2,56,0,0
169652,-111.111111111111,4,2,2,30,0,0
169828,-111.111111111111,4,2,2,50,0,0
174946,-111.111111111111,4,2,2,60,0,0
175387,-111.111111111111,4,2,2,5,0,0
175475,-111.111111111111,4,2,2,68,0,0
175740,-111.111111111111,4,2,2,5,0,0
175828,-111.111111111111,4,2,2,68,0,0
176269,-111.111111111111,4,2,2,5,0,0
176358,-111.111111111111,4,2,2,68,0,0
178299,-111.111111111111,4,2,2,73,0,0
179534,-111.111111111111,4,2,2,70,0,0
179799,-111.111111111111,4,2,2,5,0,0
179887,-111.111111111111,4,2,2,78,0,0
180593,-166.666666666666,4,2,2,65,0,0
181122,-111.111111111111,4,2,2,77,0,1
181387,-111.111111111111,4,2,2,5,0,1
181475,-111.111111111111,4,2,2,77,0,1
184211,-111.111111111111,4,2,2,5,0,1
184299,-111.111111111111,4,2,2,77,0,1
185358,-111.111111111111,4,2,2,77,0,1
185887,-111.111111111111,4,2,2,65,0,1
186593,-111.111111111111,4,2,2,71,0,1
188446,-111.111111111111,4,2,2,5,0,1
188534,-111.111111111111,4,2,2,71,0,1
189858,-111.111111111111,4,2,2,5,0,1
189946,-111.111111111111,4,2,2,71,0,1
190828,-111.111111111111,4,2,2,71,0,1
191005,-111.111111111111,4,2,2,71,0,1
191269,-111.111111111111,4,2,2,5,0,1
191358,-111.111111111111,4,2,2,75,0,1
191622,-111.111111111111,4,2,2,5,0,1
191711,-111.111111111111,4,2,2,79,0,1
191975,-111.111111111111,4,2,2,5,0,1
192064,-111.111111111111,4,2,2,83,0,1
192240,-111.111111111111,4,2,2,5,0,0
192416,-111.111111111111,4,2,2,77,0,1
192681,-111.111111111111,4,2,2,5,0,1
192769,-111.111111111111,4,2,2,77,0,1
192946,-111.111111111111,4,2,2,77,0,1
195505,-111.111111111111,4,2,2,5,0,1
195593,-111.111111111111,4,2,2,77,0,1
196652,-111.111111111111,4,2,2,77,0,1
197181,-111.111111111111,4,2,2,65,0,1
197887,-111.111111111111,4,2,2,72,0,1
199740,-111.111111111111,4,2,2,5,0,1
199828,-111.111111111111,4,2,2,72,0,1
200887,-111.111111111111,4,2,2,80,0,1
201152,-111.111111111111,4,2,2,5,0,1
201240,-111.111111111111,4,2,2,70,0,1
201416,-111.111111111111,4,2,2,75,0,1
202211,-111.111111111111,4,2,2,5,0,1
202299,-111.111111111111,4,2,2,82,0,1
202652,-111.111111111111,4,2,2,73,0,1
203711,-125,4,2,2,70,0,0
203799,-125,4,2,2,60,0,0
205828,-125,4,2,2,60,0,0
206005,-125,4,2,2,60,0,0
206181,-125,4,2,2,60,0,0
207593,-125,4,2,2,60,0,0
207769,-125,4,2,2,5,0,0
207946,-111.111111111111,4,2,2,68,0,1
208475,-111.111111111111,4,2,2,63,0,1
208828,-111.111111111111,4,2,2,63,0,1
209181,-125,4,2,2,72,0,0
209269,-125,4,2,2,60,0,0
212534,-125,4,2,2,60,0,0
212711,-125,4,2,2,60,0,0
212887,-125,4,2,2,60,0,0
213416,-111.111111111111,4,2,2,65,0,1
213858,-111.111111111111,4,2,2,5,0,1
213946,-111.111111111111,4,2,2,65,0,1
215005,-125,4,2,2,68,0,0
219240,-111.111111111111,4,2,2,74,0,0
219769,-111.111111111111,4,2,2,66,0,0
220475,-125,4,2,2,70,0,0
221005,-125,4,2,2,65,0,0
221711,-125,4,2,2,70,0,0
222064,-125,4,2,2,65,0,0
223387,-125,4,2,2,5,0,0
223475,-125,4,2,2,70,0,0
224358,-125,4,2,2,65,0,0
224887,-125,4,2,2,60,0,0
225240,-125,4,2,2,55,0,0
225593,-125,4,2,2,50,0,0
225946,-125,4,2,2,55,0,0
226299,-142.857142857143,4,2,2,45,0,0
230358,-100,4,2,2,55,0,0
230622,-100,4,2,2,5,0,0
230711,-100,4,2,2,55,0,0
231946,-100,4,2,2,60,0,0
234681,-100,4,2,2,5,0,0
234769,-100,4,2,2,65,0,0
236093,-100,4,2,2,5,0,0
236181,-100,4,2,2,70,0,0
237064,-100,4,2,2,63,0,0
237240,-100,4,2,2,56,0,0
237416,-100,4,2,2,50,0,0
237439,-100,4,2,99,40,0,0
244652,-100,4,2,2,5,0,0

[Colours]
Combo1 : 227,177,174
Combo2 : 244,207,250
Combo3 : 248,249,185
Combo4 : 183,240,172

[HitObjects]
431,231,417,5,4,1:2:0:0:
311,42,1828,1,2,1:2:0:0:
168,211,3240,5,4,1:2:0:0:
48,22,4475,2,0,B|89:49|89:49|169:27,1,120,4|0,1:2|0:0,0:0:0:0:
195,16,4828,1,0,1:0:0:0:
283,71,5005,2,0,P|251:119|220:223,1,160,8|0,0:0|0:0,0:0:0:0:
281,301,5534,1,0,1:0:0:0:
373,268,5711,1,8,0:0:0:0:
373,268,5799,1,2,0:0:0:0:
373,268,5887,2,0,L|358:199,1,40,2|2,0:0|0:0,0:0:0:0:
350,189,6064,6,0,B|417:154|417:154|498:195,1,160,4|8,1:2|0:0,0:0:0:0:
467,280,6593,1,2,0:0:0:0:
467,280,6769,2,0,L|439:367,1,80,0|0,1:0|1:0,0:0:0:0:
492,192,7122,1,8,0:0:0:0:
492,192,7475,6,0,P|511:127|434:82,1,160,2|8,1:2|0:0,0:0:0:0:
352,106,8005,1,2,0:0:0:0:
352,106,8181,2,0,L|380:193,1,80,0|0,1:0|1:0,0:0:0:0:
327,18,8534,1,8,0:0:0:0:
327,18,8887,5,0,1:0:0:0:
268,78,9064,1,2,0:0:0:0:
189,39,9240,1,8,0:0:0:0:
234,109,9416,2,0,L|216:215,1,80,2|0,0:0|1:0,0:0:0:0:
301,230,9769,1,0,1:0:0:0:
301,230,9946,2,0,P|342:276|318:354,1,120,8|0,0:0|0:0,0:0:0:0:
313,362,10299,6,0,L|143:337,1,160,4|8,1:2|0:0,0:0:0:0:
79,384,10828,2,0,B|57:311|57:311|124:225|124:225|97:256|43:255,1,251.999992309571,4|0,1:2|0:0,0:0:0:0:
31,246,11711,6,0,L|61:47,1,195.999994018555,4|0,1:2|1:0,0:0:0:0:
152,47,13122,5,2,1:2:0:0:
157,62,13475,1,0,1:0:0:0:
157,62,14358,1,0,1:0:0:0:
103,136,14534,6,0,B|148:134|188:173|188:173|208:117|249:96,1,195.999994018555,2|0,1:2|1:0,0:0:0:0:
341,104,15946,5,2,1:2:0:0:
336,119,16299,1,0,1:0:0:0:
336,119,17181,1,0,1:0:0:0:
387,196,17358,6,0,B|310:177|299:225|289:267|210:243,1,195.999994018555,2|0,1:2|1:0,0:0:0:0:
138,187,18769,5,2,1:2:0:0:
118,192,19122,1,0,1:0:0:0:
118,192,20005,1,0,1:0:0:0:
158,274,20181,6,0,P|245:256|305:342,1,195.999994018555,2|0,1:2|1:0,0:0:0:0:
379,377,21593,5,2,1:2:0:0:
404,371,21946,1,0,1:0:0:0:
404,371,22828,1,0,1:0:0:0:
426,292,23005,6,0,L|511:308,2,80,2|0|0,1:2|0:0|0:0,0:0:0:0:
348,264,24064,2,0,L|357:313,1,40,0|0,0:0|1:0,0:0:0:0:
284,353,24416,5,2,1:2:0:0:
278,330,24769,2,0,L|192:345,2,80,0|0|0,1:0|0:0|0:0,0:0:0:0:
348,264,25652,1,0,1:0:0:0:
290,199,25828,6,0,P|284:162|274:114,2,80,2|0|0,1:2|0:0|0:0,0:0:0:0:
227,260,26887,2,0,L|176:251,1,40,0|0,0:0|1:0,0:0:0:0:
99,222,27240,5,2,1:2:0:0:
101,254,27593,2,0,P|95:290|85:339,2,80,0|0|0,1:0|0:0|0:0,0:0:0:0:
166,180,28475,1,0,1:0:0:0:
103,121,28652,6,0,P|52:118|22:137,2,80,4|0|0,1:2|0:0|0:0,0:0:0:0:
189,102,29711,2,0,L|180:141,1,40,0|0,0:0|1:0,0:0:0:0:
227,216,30064,5,2,1:2:0:0:
253,197,30416,2,0,P|304:194|334:213,2,80,0|0|0,1:0|0:0|0:0,0:0:0:0:
198,290,31299,1,0,1:0:0:0:
198,290,31475,6,0,L|71:272,1,120.000004577637,4|8,1:2|0:0,0:0:0:0:
28,207,32005,1,0,1:0:0:0:
28,207,32534,6,0,B|18:224|18:224|-11:195|5:142|53:129,1,120.000004577637,4|0,1:2|0:0,0:0:0:0:
121,152,33064,1,0,1:0:0:0:
64,60,33240,2,0,L|184:37,1,120.000004577637,8|0,0:0|1:0,0:0:0:0:
266,88,33769,5,8,0:0:0:0:
266,88,33946,1,8,0:0:0:0:
207,158,34122,1,8,0:0:0:0:
297,165,34299,6,0,B|343:210|343:210|320:288,1,143.999995605469,4|8,1:2|0:0,0:0:0:0:
271,360,34828,1,0,1:0:0:0:
271,360,35005,2,0,P|314:364|346:401,2,71.9999978027344,0|0|8,0:0|1:0|0:0,0:0:0:0:
448,364,35711,6,0,P|417:308|434:225,1,143.999995605469,2|8,1:2|0:0,0:0:0:0:
485,155,36240,1,0,1:0:0:0:
485,155,36416,2,0,L|391:137,2,71.9999978027344,0|0|8,0:0|1:0|0:0,0:0:0:0:
379,40,37122,6,0,P|321:30|267:114,1,143.999995605469,2|8,1:2|0:0,0:0:0:0:
237,170,37652,1,0,1:0:0:0:
237,170,37828,2,0,L|250:261,2,71.9999978027344,0|0|8,0:0|1:0|0:0,0:0:0:0:
212,36,38534,6,0,B|160:87|160:87|78:63,1,143.999995605469,2|8,1:2|0:0,0:0:0:0:
3,13,39064,2,0,L|21:93,1,71.9999978027344,0|0,1:0|0:0,0:0:0:0:
38,169,39416,1,0,1:0:0:0:
38,169,39593,1,8,0:0:0:0:
178,160,39946,6,0,L|142:316,1,143.999995605469,4|8,1:2|0:0,0:0:0:0:
84,356,40475,1,0,1:0:0:0:
84,356,40652,2,0,L|-15:343,2,71.9999978027344,0|0|8,0:0|1:0|0:0,0:0:0:0:
219,303,41358,6,0,P|302:282|349:341,1,143.999995605469,2|8,1:2|0:0,0:0:0:0:
397,382,41887,1,0,1:0:0:0:
397,382,42064,2,0,L|467:365,2,71.9999978027344,0|0|8,0:0|1:0|0:0,0:0:0:0:
486,256,42769,6,0,L|342:226,1,143.999995605469,4|8,1:2|0:0,0:0:0:0:
281,150,43299,1,0,0:0:0:0:
281,150,43475,2,0,P|240:152|208:182,2,71.9999978027344,0|0|8,1:0|1:0|0:0,0:0:0:0:
356,66,44005,6,0,P|294:74|234:39,1,107.999996704102,4|0,1:2|0:0,0:0:0:0:
229,27,44358,1,8,0:0:0:0:
178,107,44534,1,8,0:0:0:0:
95,42,44711,1,8,0:0:0:0:
95,42,45064,6,0,P|106:90|90:148,1,95.9999970703126,4|0,1:2|0:0,0:0:0:0:
146,223,45593,6,0,B|203:225|203:225|181:332,1,143.999995605469,4|8,1:2|0:0,0:0:0:0:
86,359,46122,2,0,P|64:332|67:280,1,71.9999978027344,2|0,0:0|1:0,0:0:0:0:
0,219,46475,1,2,0:0:0:0:
0,219,46652,2,0,P|12:186|58:163,1,71.9999978027344,8|2,0:0|0:0,0:0:0:0:
91,85,47005,6,0,L|246:103,2,143.999995605469,2|8|2,1:2|0:0|1:2,0:0:0:0:
161,195,48064,2,0,P|155:237|149:297,1,71.9999978027344,8|2,0:0|0:0,0:0:0:0:
185,351,48416,6,0,B|233:313|233:313|310:343,1,143.999995605469,2|8,1:2|0:0,0:0:0:0:
379,295,48946,2,0,L|396:377,1,71.9999978027344,2|0,0:0|1:0,0:0:0:0:
496,373,49299,1,2,0:0:0:0:
496,373,49475,2,0,L|511:286,1,71.9999978027344,8|2,0:0|0:0,0:0:0:0:
504,197,49828,6,0,P|446:241|379:190,1,143.999995605469,2|8,1:2|0:0,0:0:0:0:
327,125,50358,1,2,1:2:0:0:
327,125,50711,1,2,1:2:0:0:
327,125,51064,6,0,B|276:184|276:184|208:163,1,143.999995605469,4|0,1:2|0:0,0:0:0:0:
146,94,51593,1,8,0:0:0:0:
146,94,51769,2,0,L|219:78,1,71.9999978027344,0|0,0:0|1:0,0:0:0:0:
282,26,52122,1,0,0:0:0:0:
282,26,52299,2,0,L|355:42,1,71.9999978027344,8|2,0:0|0:0,0:0:0:0:
449,51,52652,6,0,B|469:47|490:37|490:37|459:162,1,143.999995605469,2|8,1:2|0:0,0:0:0:0:
391,184,53181,2,0,P|406:224|419:272,1,71.9999978027344,2|0,0:0|1:0,0:0:0:0:
480,323,53534,1,0,0:0:0:0:
480,323,53711,2,0,P|431:347|410:382,1,71.9999978027344,8|2,0:0|0:0,0:0:0:0:
329,301,54064,6,0,B|300:313|276:342|276:342|247:324|203:319,1,143.999995605469,2|8,1:2|0:0,0:0:0:0:
115,298,54593,2,0,L|132:377,2,71.9999978027344,2|0|0,0:0|1:0|0:0,0:0:0:0:
183,238,55122,2,0,L|200:153,1,71.9999978027344,8|0,0:0|0:0,0:0:0:0:
172,78,55475,6,0,P|120:116|75:97,1,107.999996704102,2|0,1:2|0:0,0:0:0:0:
73,74,55828,2,0,P|125:36|170:55,1,107.999996704102,10|0,0:0|0:0,0:0:0:0:
172,78,56181,2,0,P|224:116|269:97,1,107.999996704102,2|0,1:2|0:0,0:0:0:0:
271,74,56534,2,0,P|219:36|174:55,1,107.999996704102,8|0,0:0|0:0,0:0:0:0:
172,78,56887,6,0,L|191:225,1,143.999995605469,4|8,1:2|0:0,0:0:0:0:
109,252,57416,2,0,P|128:288|144:329,1,71.9999978027344,2|0,0:0|1:0,0:0:0:0:
214,368,57769,1,2,0:0:0:0:
214,368,57946,2,0,P|231:310|265:287,1,71.9999978027344,8|2,0:0|0:0,0:0:0:0:
278,219,58299,6,0,B|362:205|362:205|392:231|431:244,2,143.999995605469,2|8|2,1:2|0:0|1:2,0:0:0:0:
355,112,59358,2,0,L|368:41,1,71.9999978027344,8|2,0:0|0:0,0:0:0:0:
463,14,59711,6,0,L|486:182,1,143.999995605469,2|8,1:2|0:0,0:0:0:0:
490,244,60240,2,0,P|451:223|400:232,1,71.9999978027344,2|0,0:0|1:0,0:0:0:0:
332,250,60593,1,2,0:0:0:0:
332,250,60769,2,0,L|348:345,1,71.9999978027344,8|2,0:0|0:0,0:0:0:0:
266,362,61122,6,0,B|196:383|196:383|128:346,1,143.999995605469,2|8,1:2|0:0,0:0:0:0:
71,283,61652,1,2,1:2:0:0:
71,283,62005,1,2,1:2:0:0:
71,283,62358,6,0,P|117:232|57:166,1,143.999995605469,4|0,1:2|0:0,0:0:0:0:
24,118,62887,1,8,0:0:0:0:
24,118,63064,2,0,P|7:76|28:34,1,71.9999978027344,0|0,0:0|1:0,0:0:0:0:
111,33,63416,1,0,0:0:0:0:
111,33,63593,2,0,P|130:62|128:97,1,71.9999978027344,8|2,0:0|0:0,0:0:0:0:
88,180,63946,6,0,B|182:164|182:164|205:188|235:207,1,143.999995605469,2|8,1:2|0:0,0:0:0:0:
255,123,64475,2,0,L|265:42,2,71.9999978027344,2|0|0,0:0|1:0|0:0,0:0:0:0:
297,201,65005,2,0,L|314:285,1,71.9999978027344,8|0,0:0|0:0,0:0:0:0:
279,363,65358,6,0,B|373:337|373:337|428:372,1,143.999995605469,4|8,1:2|0:0,0:0:0:0:
496,349,65887,2,0,P|519:290|449:237,1,143.999995605469,2|0,1:2|1:0,0:0:0:0:
378,242,66416,2,0,P|369:185|357:113,1,107.999996704102,10|0,0:0|0:0,0:0:0:0:
377,102,66769,6,0,B|317:122|317:122|216:90,1,143.999995605469,4|8,1:2|0:0,0:0:0:0:
240,97,67475,2,0,L|257:192,2,71.9999978027344,2|0|8,1:2|1:0|0:0,0:0:0:0:
147,61,68005,1,8,0:0:0:0:
147,61,68093,1,8,0:0:0:0:
147,61,68181,6,0,P|130:127|118:190,1,128,2|8,1:2|0:0,0:0:0:0:
39,260,68711,2,0,P|90:261|114:287,1,64,2|0,0:0|1:0,0:0:0:0:
143,344,69064,1,0,1:0:0:0:
143,344,69240,2,0,L|228:331,1,64,8|2,0:0|0:0,0:0:0:0:
264,252,69593,6,0,L|354:277,2,64,2|0|8,1:2|0:0|0:0,0:0:0:0:
336,384,70299,2,0,P|393:355|476:354,1,128,0|8,1:0|0:0,0:0:0:0:
482,141,71005,6,0,L|455:266,1,128,2|8,1:2|0:0,0:0:0:0:
365,226,71534,2,0,L|351:146,1,64,2|0,0:0|1:0,0:0:0:0:
358,71,71887,1,0,1:0:0:0:
358,71,72064,2,0,P|320:85|287:80,1,64,8|2,0:0|0:0,0:0:0:0:
209,94,72416,6,0,L|217:20,2,64,4|0|8,1:2|0:0|0:0,0:0:0:0:
262,181,72946,2,0,B|196:198|196:198|140:163,1,128,2|0,1:2|1:0,0:0:0:0:
24,186,73475,1,8,0:0:0:0:
88,98,73652,1,8,0:0:0:0:
88,98,73740,1,8,0:0:0:0:
88,98,73828,6,0,L|67:246,1,128,4|8,1:2|0:0,0:0:0:0:
26,296,74358,2,0,P|60:325|69:365,1,64,2|0,0:0|1:0,0:0:0:0:
148,374,74711,1,0,1:0:0:0:
148,374,74887,2,0,P|167:328|195:316,1,64,8|2,0:0|0:0,0:0:0:0:
222,243,75240,6,0,L|154:231,2,64,2|0|8,1:2|0:0|0:0,0:0:0:0:
266,358,75946,2,0,P|324:376|380:337,1,128,0|8,1:0|0:0,0:0:0:0:
404,210,76652,5,2,1:2:0:0:
404,210,76828,1,2,0:0:0:0:
495,251,77005,1,8,0:0:0:0:
495,251,77181,2,0,L|463:116,1,128,2|10,0:0|0:0,0:0:0:0:
402,39,77711,1,8,0:0:0:0:
402,39,77799,1,8,0:0:0:0:
402,39,77887,2,0,L|390:82,1,32,8|8,0:0|0:0,0:0:0:0:
375,100,78064,6,0,B|319:82|304:123|290:164|231:140,1,160,4|2,1:2|0:0,0:0:0:0:
75,159,82299,5,2,0:0:0:0:
85,240,85122,5,2,0:0:0:0:
175,287,87946,5,2,0:0:0:0:
152,207,90769,6,0,B|274:205|200:325|346:321,1,240,2|0,0:0|0:0,0:0:0:0:
405,237,92181,6,0,P|360:227|313:236,1,80,2|0,0:0|0:0,0:0:0:0:
275,244,92711,2,0,P|300:185|269:139,1,120,2|2,0:0|0:0,0:0:0:0:
326,60,93593,6,0,P|233:82|276:142,1,200,2|0,0:0|0:0,0:0:0:0:
361,195,94828,2,0,P|330:221|185:197,1,200,2|2,0:0|0:0,0:0:0:0:
103,23,96416,6,0,P|73:79|45:270,1,240,2|2,0:0|0:0,0:0:0:0:
137,295,97828,2,0,P|149:256|152:203,1,80,2|2,0:0|0:0,0:0:0:0:
104,195,98358,2,0,P|43:203|44:252,1,120,2|2,0:0|0:0,0:0:0:0:
159,354,99240,6,0,B|101:367|74:326|74:326|96:335|111:339,1,120.000004577637,4|8,1:2|0:0,0:0:0:0:
148,248,99769,1,0,1:0:0:0:
148,248,100299,6,0,P|178:225|264:238,1,120.000004577637,4|0,1:2|0:0,0:0:0:0:
242,330,100828,1,0,1:0:0:0:
342,315,101005,2,0,P|423:316|488:320,1,120.000004577637,8|2,0:0|1:2,0:0:0:0:
502,230,101534,5,8,0:0:0:0:
502,230,101711,1,8,0:0:0:0:
406,232,101887,1,8,0:0:0:0:
330,176,102064,6,0,P|347:88|362:28,1,143.999995605469,4|8,1:2|0:0,0:0:0:0:
432,94,102593,1,0,1:0:0:0:
432,94,102769,2,0,B|465:111|465:111|507:102,2,71.9999978027344,0|0|8,0:0|1:0|0:0,0:0:0:0:
257,142,103475,6,0,B|190:114|190:114|115:142,1,143.999995605469,2|8,1:2|0:0,0:0:0:0:
55,73,104005,1,0,1:0:0:0:
55,73,104181,2,0,P|72:21|98:2,2,71.9999978027344,0|0|8,0:0|1:0|0:0,0:0:0:0:
4,222,104887,6,0,P|78:242|158:211,1,143.999995605469,2|8,1:2|0:0,0:0:0:0:
193,300,105416,1,0,1:0:0:0:
193,300,105593,2,0,L|182:382,2,71.9999978027344,0|0|8,0:0|1:0|0:0,0:0:0:0:
317,206,106299,6,0,B|341:154|341:154|309:65,1,143.999995605469,2|8,1:2|0:0,0:0:0:0:
224,106,106828,2,0,L|127:97,1,71.9999978027344,0|0,1:0|0:0,0:0:0:0:
58,95,107181,1,0,1:0:0:0:
58,95,107358,1,8,0:0:0:0:
52,245,107711,6,0,B|140:238|104:184|197:179,1,143.999995605469,4|8,1:2|0:0,0:0:0:0:
203,271,108240,1,0,1:0:0:0:
203,271,108416,2,0,P|247:297|280:299,2,71.9999978027344,0|0|8,0:0|1:0|0:0,0:0:0:0:
347,369,109122,6,0,P|353:323|433:269,1,143.999995605469,2|8,1:2|0:0,0:0:0:0:
491,199,109652,1,0,1:0:0:0:
491,199,109828,2,0,B|452:200|452:200|399:167,2,71.9999978027344,0|0|8,0:0|1:0|0:0,0:0:0:0:
392,73,110534,6,0,B|343:88|343:88|329:127|329:127|253:154,1,143.999995605469,4|8,1:2|0:0,0:0:0:0:
214,211,111064,1,0,0:0:0:0:
214,211,111240,2,0,L|119:174,2,71.9999978027344,0|0|8,1:0|1:0|0:0,0:0:0:0:
239,297,111769,6,0,P|330:282|375:285,1,107.999996704102,4|0,1:2|0:0,0:0:0:0:
383,287,112122,1,8,0:0:0:0:
399,380,112299,1,8,0:0:0:0:
481,329,112475,1,8,0:0:0:0:
481,329,112828,6,0,B|502:298|502:298|494:228,1,95.9999970703126,4|2,1:2|0:0,0:0:0:0:
465,152,113358,6,0,B|430:123|422:76|422:76|414:110|370:127,1,143.999995605469,4|8,1:2|0:0,0:0:0:0:
295,110,113887,2,0,P|303:75|327:49,1,71.9999978027344,2|0,0:0|1:0,0:0:0:0:
338,195,114240,1,2,0:0:0:0:
338,195,114416,2,0,P|292:204|250:193,1,71.9999978027344,8|2,0:0|0:0,0:0:0:0:
174,192,114769,6,0,B|142:241|146:286|146:286|163:298|177:337,2,143.999995605469,2|8|2,1:2|0:0|1:2,0:0:0:0:
259,335,115828,2,0,P|216:320|163:323,1,71.9999978027344,8|2,0:0|0:0,0:0:0:0:
100,347,116181,6,0,B|-3:366|-3:366|51:327|51:327,1,143.999995605469,2|8,1:2|0:0,0:0:0:0:
66,256,116711,2,0,P|60:214|39:164,1,71.9999978027344,2|0,0:0|1:0,0:0:0:0:
15,98,117064,1,2,0:0:0:0:
15,98,117240,2,0,P|65:106|99:102,1,71.9999978027344,8|2,0:0|0:0,0:0:0:0:
143,178,117593,6,0,P|164:114|229:54,1,143.999995605469,2|8,1:2|0:0,0:0:0:0:
266,140,118122,1,2,1:2:0:0:
266,140,118475,1,2,1:2:0:0:
266,140,118828,6,0,B|344:116|326:201|413:167,1,143.999995605469,4|0,1:2|0:0,0:0:0:0:
485,136,119358,1,8,0:0:0:0:
485,136,119534,2,0,P|476:94|467:60,1,71.9999978027344,0|0,0:0|1:0,0:0:0:0:
383,26,119887,1,0,0:0:0:0:
383,26,120064,2,0,P|338:19|288:15,1,71.9999978027344,8|2,0:0|0:0,0:0:0:0:
252,88,120416,6,0,B|215:71|211:18|211:18|192:49|197:98,1,143.999995605469,2|8,1:2|0:0,0:0:0:0:
168,164,120946,2,0,L|96:154,1,71.9999978027344,2|0,0:0|1:0,0:0:0:0:
214,245,121299,1,0,0:0:0:0:
214,245,121475,2,0,L|285:234,1,71.9999978027344,8|2,0:0|0:0,0:0:0:0:
178,334,121828,6,0,P|108:329|72:392,1,143.999995605469,2|8,1:2|0:0,0:0:0:0:
42,295,122358,2,0,P|17:253|-7:236,2,71.9999978027344,2|0|0,0:0|1:0|0:0,0:0:0:0:
108,228,122887,2,0,P|107:182|120:152,1,71.9999978027344,8|0,0:0|0:0,0:0:0:0:
158,74,123240,6,0,L|72:56,1,71.9999978027344,2|0,1:2|0:0,0:0:0:0:
1,96,123593,1,10,0:0:0:0:
1,96,123769,1,0,0:0:0:0:
45,173,123946,2,0,L|131:155,1,71.9999978027344,2|0,1:2|0:0,0:0:0:0:
196,205,124299,2,0,P|232:184|282:200,1,71.9999978027344,8|0,0:0|0:0,0:0:0:0:
335,243,124652,6,0,P|339:161|336:72,1,143.999995605469,4|8,1:2|0:0,0:0:0:0:
399,28,125181,2,0,P|442:44|478:46,1,71.9999978027344,2|0,0:0|1:0,0:0:0:0:
437,135,125534,1,2,0:0:0:0:
437,135,125711,2,0,P|429:170|432:224,1,71.9999978027344,8|2,0:0|0:0,0:0:0:0:
429,299,126064,6,0,B|386:294|362:268|362:268|321:277|311:338,2,143.999995605469,2|8|2,1:2|0:0|1:2,0:0:0:0:
416,137,127122,2,0,P|431:184|427:213,1,71.9999978027344,8|2,0:0|0:0,0:0:0:0:
335,195,127475,6,0,L|171:179,1,143.999995605469,2|8,1:2|0:0,0:0:0:0:
104,217,128005,2,0,P|101:160|116:132,1,71.9999978027344,2|0,0:0|1:0,0:0:0:0:
184,96,128358,1,2,0:0:0:0:
184,96,128534,2,0,L|270:104,1,71.9999978027344,8|2,0:0|0:0,0:0:0:0:
118,24,128887,6,0,P|69:29|35:108,1,143.999995605469,2|8,1:2|0:0,0:0:0:0:
60,198,129416,1,2,1:2:0:0:
60,198,129769,1,2,1:2:0:0:
60,198,130122,6,0,B|112:202|112:202|137:236|137:236|201:242,1,143.999995605469,4|0,1:2|0:0,0:0:0:0:
214,330,130652,1,8,0:0:0:0:
214,330,130828,2,0,L|123:322,1,71.9999978027344,0|0,0:0|1:0,0:0:0:0:
54,357,131181,1,0,0:0:0:0:
54,357,131358,2,0,L|68:276,1,71.9999978027344,8|2,0:0|0:0,0:0:0:0:
130,217,131711,6,0,P|126:129|66:116,1,143.999995605469,2|8,1:2|0:0,0:0:0:0:
175,134,132240,2,0,P|223:118|268:119,2,71.9999978027344,2|0|0,0:0|1:0|0:0,0:0:0:0:
209,221,132769,2,0,P|246:215|286:220,1,71.9999978027344,8|2,0:0|0:0,0:0:0:0:
246,306,133122,6,0,B|332:293|295:366|390:349,1,143.999995605469,4|8,1:2|0:0,0:0:0:0:
469,357,133652,2,0,B|501:289|502:247|502:247|476:208,1,143.999995605469,2|0,1:2|1:0,0:0:0:0:
394,200,134181,2,0,B|379:149|386:117|386:117|415:99,1,107.999996704102,8|0,0:0|0:0,0:0:0:0:
432,79,134534,6,0,P|366:93|283:75,1,143.999995605469,4|8,1:2|0:0,0:0:0:0:
291,78,135240,2,0,P|302:121|291:169,2,71.9999978027344,2|0|8,1:2|1:0|0:0,0:0:0:0:
205,39,135769,1,8,0:0:0:0:
205,39,135858,1,8,0:0:0:0:
205,39,135946,6,0,B|155:44|155:44|131:72|131:72|83:79,1,128,4|0,1:2|0:0,0:0:0:0:
9,57,136475,1,0,1:0:0:0:
9,57,136652,2,0,P|21:115|31:195,1,128,8|0,0:0|0:0,0:0:0:0:
48,264,137181,1,0,1:0:0:0:
48,264,137358,6,0,P|114:251|174:241,1,128,2|0,1:2|0:0,0:0:0:0:
257,235,137887,1,0,1:0:0:0:
257,235,138064,1,8,0:0:0:0:
233,49,138416,1,8,0:0:0:0:
233,49,138769,6,0,P|297:48|356:97,1,128,2|0,1:2|0:0,0:0:0:0:
320,163,139299,1,0,1:0:0:0:
320,163,139475,2,0,P|372:171|469:175,1,128,8|0,0:0|0:0,0:0:0:0:
472,255,140005,1,4,0:3:0:0:
472,255,140181,5,4,0:3:0:0:
313,307,140534,1,4,0:3:0:0:
313,307,140711,2,0,P|265:300|244:301,1,64,4|0,0:3|1:0,0:0:0:0:
171,330,141064,1,8,0:0:0:0:
171,330,141240,1,8,0:0:0:0:
171,330,141416,1,8,0:0:0:0:
88,285,141593,5,4,1:2:0:0:
190,179,141946,1,2,0:0:0:0:
190,179,142299,2,0,L|198:249,2,64,8|0|0,0:0|0:0|0:0,0:0:0:0:
143,85,142828,1,0,1:0:0:0:
143,85,143005,6,0,B|191:103|191:103|278:75,1,128,2|0,1:2|0:0,0:0:0:0:
364,116,143534,1,0,1:0:0:0:
430,29,143711,2,0,P|442:91|453:154,1,128,8|8,0:0|0:0,0:0:0:0:
413,243,144240,1,2,0:0:0:0:
413,243,144328,1,2,0:0:0:0:
413,243,144416,6,0,L|371:251,3,35.9999989013672,2|2|2|2,1:2|0:0|1:2|0:0,0:0:0:0:
334,227,144769,2,0,L|268:216,3,35.9999989013672,10|2|2|2,0:0|0:0|0:0|0:0,0:0:0:0:
263,256,145122,2,0,L|197:267,3,35.9999989013672,2|2|2|2,1:2|0:0|1:2|0:0,0:0:0:0:
192,227,145475,2,0,L|126:216,3,35.9999989013672,10|2|2|2,0:0|0:0|0:0|0:0,0:0:0:0:
117,243,145828,5,2,1:2:0:0:
84,318,146005,1,0,1:0:0:0:
159,351,146181,2,0,L|250:332,1,71.9999978027344,10|2,0:0|0:0,0:0:0:0:
317,289,146534,1,2,1:2:0:0:
282,198,146711,1,0,1:0:0:0:
373,163,146887,2,0,L|440:177,2,35.9999989013672,8|8|8,0:0|0:0|0:0,0:0:0:0:
488,267,147240,6,0,B|542:226|542:226|505:139,2,143.999995605469,4|8|0,1:2|0:0|1:0,0:0:0:0:
322,330,148299,1,10,0:0:0:0:
322,330,148475,6,0,L|296:166,1,143.999995605469,2|0,0:0|0:0,0:0:0:0:
334,103,149005,2,0,B|371:117|371:117|417:102,1,71.9999978027344,10|0,0:0|0:0,0:0:0:0:
359,7,149358,2,0,L|284:21,1,71.9999978027344,0|0,1:0|1:0,0:0:0:0:
242,117,149711,2,0,L|167:103,1,71.9999978027344,10|0,0:0|0:0,0:0:0:0:
51,121,150064,6,0,P|12:64|83:26,1,143.999995605469,2|8,1:2|0:0,0:0:0:0:
160,12,150593,1,2,0:0:0:0:
160,12,150769,2,0,P|147:83|132:166,1,143.999995605469,2|8,1:2|0:0,0:0:0:0:
0,225,151475,6,0,P|12:296|28:379,1,143.999995605469,2|8,1:2|0:0,0:0:0:0:
122,328,152005,1,2,0:0:0:0:
122,328,152181,2,0,P|185:306|246:370,1,143.999995605469,2|8,1:2|0:0,0:0:0:0:
210,189,152887,6,0,P|218:135|225:82,1,107.999996704102,4|0,1:2|0:0,0:0:0:0:
232,41,153240,1,10,0:0:0:0:
309,125,153416,2,0,B|379:149|379:149|435:96,1,143.999995605469,2|0,0:0|1:0,0:0:0:0:
444,3,153946,1,8,0:0:0:0:
482,164,154299,6,0,L|508:318,1,143.999995605469,2|8,1:2|0:0,0:0:0:0:
400,312,154828,2,0,L|385:384,2,71.9999978027344,2|0|0,0:0|1:0|1:0,0:0:0:0:
347,213,155358,2,0,B|271:200|271:200|240:237,1,107.999996704102,10|0,0:0|0:0,0:0:0:0:
230,257,155711,6,0,P|279:289|259:383,1,143.999995605469,2|8,1:2|0:0,0:0:0:0:
72,362,156416,1,0,1:0:0:0:
72,362,156593,2,0,L|57:278,1,71.9999978027344,2|8,1:2|0:0,0:0:0:0:
23,200,156946,1,2,0:0:0:0:
23,200,157122,6,0,B|93:216|93:216|148:167,1,143.999995605469,2|8,1:2|0:0,0:0:0:0:
173,72,157652,1,2,0:0:0:0:
173,72,157828,6,0,P|217:94|240:134,1,71.9999978027344,4|0,1:1|1:0,0:0:0:0:
319,62,158181,1,8,0:0:0:0:
319,62,158269,1,8,0:0:0:0:
319,62,158358,2,0,L|380:73,1,35.9999989013672,8|2,0:0|0:0,0:0:0:0:
378,108,158534,6,0,P|417:68|508:77,2,143.999995605469,4|8|0,1:2|0:0|1:0,0:0:0:0:
434,244,159593,1,10,0:0:0:0:
434,244,159769,2,0,P|365:229|291:219,1,143.999995605469,2|0,0:0|0:0,0:0:0:0:
249,303,160299,2,0,B|214:292|214:292|174:311,1,71.9999978027344,10|0,0:0|0:0,0:0:0:0:
101,356,160652,2,0,P|100:310|92:260,1,71.9999978027344,2|0,1:2|1:0,0:0:0:0:
6,250,161005,2,0,P|11:198|27:151,1,71.9999978027344,10|0,0:0|0:0,0:0:0:0:
96,74,161358,6,0,P|84:117|139:193,1,143.999995605469,2|8,1:2|0:0,0:0:0:0:
217,142,161887,1,2,0:0:0:0:
217,142,162064,2,0,P|300:135|385:132,1,143.999995605469,2|8,1:2|0:0,0:0:0:0:
457,32,162769,6,0,P|467:99|477:200,1,143.999995605469,2|8,1:2|0:0,0:0:0:0:
399,231,163299,1,2,0:0:0:0:
399,231,163475,2,0,P|454:217|494:296,1,143.999995605469,2|8,1:2|0:0,0:0:0:0:
349,305,164181,6,0,P|314:286|257:329,1,107.999996704102,4|0,1:2|0:0,0:0:0:0:
244,355,164534,1,8,0:0:0:0:
292,247,164711,2,0,P|281:175|264:101,1,143.999995605469,2|0,1:2|1:0,0:0:0:0:
239,15,165240,1,8,0:0:0:0:
172,161,165593,6,0,B|133:189|133:189|23:150,1,143.999995605469,2|8,1:2|0:0,0:0:0:0:
83,72,166122,2,0,L|75:-6,2,71.9999978027344,2|0|0,0:0|1:0|1:0,0:0:0:0:
30,174,166652,2,0,L|46:289,1,107.999996704102,10|0,0:0|0:0,0:0:0:0:
43,328,167005,6,0,P|119:290|195:310,1,143.999995605469,2|8,1:2|0:0,0:0:0:0:
260,261,167534,2,0,L|270:172,2,71.9999978027344,2|0|0,0:0|1:0|1:0,0:0:0:0:
247,354,168064,1,10,0:0:0:0:
433,357,168416,6,0,L|418:256,1,71.9999978027344,4|8,1:2|0:0,0:0:0:0:
411,192,168769,1,8,0:0:0:0:
326,232,168946,2,0,B|238:186|260:275|158:223|119:164|175:97|175:97|226:108|232:164,1,359.999989013672,4|2,1:2|1:2,0:0:0:0:
335,93,174946,5,0,1:0:0:0:
224,52,175122,1,8,0:0:0:0:
224,52,175475,6,0,P|235:133|247:222,1,143.999995605469,4|8,1:2|0:0,0:0:0:0:
222,298,176005,1,0,1:0:0:0:
222,298,176181,2,0,B|181:282|181:282|132:309,1,71.9999978027344,0|0,0:0|1:0,0:0:0:0:
250,375,176534,2,0,B|291:359|291:359|340:386,1,71.9999978027344,8|0,0:0|0:0,0:0:0:0:
434,360,176887,6,0,P|454:287|382:251,1,143.999995605469,2|8,1:2|0:0,0:0:0:0:
315,292,177416,1,0,1:0:0:0:
315,292,177593,2,0,P|301:258|282:228,1,71.9999978027344,0|0,0:0|1:0,0:0:0:0:
368,163,177946,2,0,P|381:129|400:99,1,71.9999978027344,8|0,0:0|0:0,0:0:0:0:
313,31,178299,6,0,B|242:12|242:12|186:55,2,143.999995605469,4|8|0,1:2|0:0|1:0,0:0:0:0:
419,5,179181,2,0,L|439:102,1,71.9999978027344,0|8,1:0|0:0,0:0:0:0:
368,163,179534,6,0,L|353:290,1,107.999996704102,4|0,1:2|0:0,0:0:0:0:
347,308,179887,1,10,0:0:0:0:
446,257,180064,1,10,0:0:0:0:
455,365,180240,1,10,0:0:0:0:
455,365,180593,6,0,P|406:349|356:341,1,95.9999970703126,4|2,1:2|0:0,0:0:0:0:
265,298,181122,6,0,P|210:345|135:312,1,143.999995605469,4|8,1:2|0:0,0:0:0:0:
76,241,181652,2,0,L|160:221,1,71.9999978027344,2|0,0:0|1:0,0:0:0:0:
230,136,182005,1,2,0:0:0:0:
230,136,182181,2,0,L|139:122,1,71.9999978027344,8|2,0:0|0:0,0:0:0:0:
39,149,182534,6,0,P|23:69|3:-4,2,143.999995605469,2|8|2,1:2|0:0|1:2,0:0:0:0:
139,19,183593,2,0,P|172:29|199:64,1,71.9999978027344,8|2,0:0|0:0,0:0:0:0:
188,162,183946,6,0,B|262:182|262:182|330:131,1,143.999995605469,2|8,1:2|0:0,0:0:0:0:
341,48,184475,2,0,L|259:61,1,71.9999978027344,2|0,0:0|1:0,0:0:0:0:
400,125,184828,1,2,0:0:0:0:
400,125,185005,2,0,L|482:138,1,71.9999978027344,8|2,0:0|0:0,0:0:0:0:
499,226,185358,6,0,B|520:327|520:327|489:362,1,143.999995605469,2|8,1:2|0:0,0:0:0:0:
394,310,185887,1,2,1:2:0:0:
394,310,186240,1,2,1:2:0:0:
394,310,186593,6,0,P|336:275|266:328,1,143.999995605469,4|0,1:2|0:0,0:0:0:0:
190,366,187122,1,8,0:0:0:0:
190,366,187299,2,0,P|181:320|170:269,1,71.9999978027344,0|0,0:0|1:0,0:0:0:0:
236,231,187652,1,0,0:0:0:0:
236,231,187828,2,0,P|219:204|179:176,1,71.9999978027344,8|2,0:0|0:0,0:0:0:0:
140,281,188181,6,0,B|73:302|73:302|5:253,1,143.999995605469,2|8,1:2|0:0,0:0:0:0:
17,152,188711,2,0,L|111:143,1,71.9999978027344,2|0,0:0|1:0,0:0:0:0:
158,68,189064,1,0,0:0:0:0:
158,68,189240,2,0,P|201:86|240:81,1,71.9999978027344,8|2,0:0|0:0,0:0:0:0:
292,169,189593,6,0,P|259:212|289:301,1,143.999995605469,2|8,1:2|0:0,0:0:0:0:
377,361,190122,2,0,L|298:378,2,71.9999978027344,2|0|0,0:0|1:0|0:0,0:0:0:0:
460,312,190652,2,0,L|470:220,1,71.9999978027344,8|0,0:0|0:0,0:0:0:0:
461,136,191005,6,0,B|411:142|413:105|356:114,1,107.999996704102,2|0,1:2|0:0,0:0:0:0:
314,110,191358,2,0,P|329:58|279:22,1,107.999996704102,10|0,0:0|0:0,0:0:0:0:
252,34,191711,2,0,P|235:84|292:119,1,107.999996704102,2|0,1:2|0:0,0:0:0:0:
314,110,192064,2,0,L|435:91,1,107.999996704102,8|0,0:0|0:0,0:0:0:0:
463,90,192416,6,0,B|457:142|457:142|438:164|438:164|430:238,1,143.999995605469,4|8,1:2|0:0,0:0:0:0:
342,272,192946,2,0,P|327:229|319:190,1,71.9999978027344,2|0,0:0|1:0,0:0:0:0:
224,240,193299,1,2,0:0:0:0:
224,240,193475,2,0,P|237:293|242:327,1,71.9999978027344,8|2,0:0|0:0,0:0:0:0:
322,357,193828,6,0,B|414:333|414:333|445:358|475:369,2,143.999995605469,2|8|2,1:2|0:0|1:2,0:0:0:0:
481,279,194887,2,0,P|488:246|466:203,1,71.9999978027344,8|2,0:0|0:0,0:0:0:0:
399,134,195240,6,0,B|308:106|308:106|267:152,1,143.999995605469,2|8,1:2|0:0,0:0:0:0:
258,243,195769,2,0,P|230:232|182:220,1,71.9999978027344,2|0,0:0|1:0,0:0:0:0:
134,125,196122,1,2,0:0:0:0:
134,125,196299,2,0,P|106:135|58:148,1,71.9999978027344,8|2,0:0|0:0,0:0:0:0:
11,244,196652,6,0,P|75:290|35:365,1,143.999995605469,2|8,1:2|0:0,0:0:0:0:
174,345,197181,1,2,1:2:0:0:
174,345,197534,1,2,1:2:0:0:
174,345,197887,6,0,B|247:363|247:363|304:312,1,143.999995605469,4|0,1:2|0:0,0:0:0:0:
348,225,198416,1,8,0:0:0:0:
348,225,198593,2,0,L|336:146,1,71.9999978027344,0|0,0:0|1:0,0:0:0:0:
243,90,198946,1,0,0:0:0:0:
243,90,199122,2,0,L|231:169,1,71.9999978027344,8|2,0:0|0:0,0:0:0:0:
196,259,199475,6,0,B|170:248|146:220|146:220|109:240|68:241,1,143.999995605469,2|8,1:2|0:0,0:0:0:0:
57,152,200005,2,0,P|48:121|36:77,2,71.9999978027344,2|0|0,0:0|1:0|0:0,0:0:0:0:
44,236,200534,2,0,L|22:321,1,71.9999978027344,8|2,0:0|0:0,0:0:0:0:
97,382,200887,6,0,B|128:366|149:331|149:331|185:360|225:361,1,143.999995605469,4|8,1:2|0:0,0:0:0:0:
325,338,201416,2,0,L|303:173,1,143.999995605469,2|0,1:2|1:0,0:0:0:0:
197,154,201946,2,0,P|172:109|215:55,1,107.999996704102,8|0,0:0|0:0,0:0:0:0:
230,42,202299,6,0,L|383:72,1,143.999995605469,4|8,1:2|0:0,0:0:0:0:
371,69,203005,2,0,P|408:61|462:58,2,71.9999978027344,10|0|8,0:2|1:0|0:0,0:0:0:0:
310,153,203534,1,8,0:0:0:0:
310,153,203622,1,8,0:0:0:0:
310,153,203711,6,0,P|367:155|424:214,1,128,4|8,1:2|0:0,0:0:0:0:
450,277,204240,1,2,0:0:0:0:
371,305,204416,2,0,P|336:327|314:352,2,64,0|0|8,1:0|0:0|0:0,0:0:0:0:
450,277,204946,1,2,0:0:0:0:
334,229,205122,6,0,P|258:249|205:246,1,128,2|8,1:2|0:0,0:0:0:0:
132,212,205652,1,2,0:0:0:0:
140,294,205828,2,0,P|141:331|112:378,2,64,0|0|8,1:0|0:0|0:0,0:0:0:0:
44,157,206534,6,0,B|11:185|11:185|27:280,1,128,2|8,1:2|0:0,0:0:0:0:
10,351,207064,1,2,0:0:0:0:
10,351,207240,2,0,L|82:342,1,64,0|0,1:0|0:0,0:0:0:0:
140,294,207593,2,0,L|260:289,1,96,8|0,0:0|0:0,0:0:0:0:
267,255,207946,6,0,P|267:212|193:148,1,143.999995605469,4|8,1:2|0:0,0:0:0:0:
118,201,208475,1,2,1:2:0:0:
261,81,208828,1,2,1:2:0:0:
95,67,209181,6,0,B|41:66|17:26|17:26|47:26|71:52,1,128,4|0,1:2|0:0,0:0:0:0:
177,51,209711,2,0,L|169:125,1,64,8|0,0:0|0:0,0:0:0:0:
109,171,210064,1,0,1:0:0:0:
109,171,210240,1,2,0:0:0:0:
158,237,210416,2,0,L|250:230,1,64,8|0,0:0|0:0,0:0:0:0:
302,254,210769,6,0,P|317:201|401:185,1,128,2|8,1:2|0:0,0:0:0:0:
464,186,211299,1,2,0:0:0:0:
464,186,211475,2,0,L|454:92,1,64,0|0,1:0|0:0,0:0:0:0:
414,252,211828,1,8,0:0:0:0:
414,252,212181,6,0,P|347:254|259:266,1,128,2|8,1:2|0:0,0:0:0:0:
224,317,212711,1,2,0:0:0:0:
224,317,212887,2,0,P|179:308|152:309,2,64,0|0|8,1:0|0:0|0:0,0:0:0:0:
306,361,213416,1,2,0:0:0:0:
306,361,213593,6,0,B|407:341|407:341|458:373,1,143.999995605469,2|8,1:2|0:0,0:0:0:0:
507,296,214122,2,0,L|486:139,1,143.999995605469,2|4,0:0|0:3,0:0:0:0:
441,71,214652,1,4,0:3:0:0:
441,71,214740,1,4,0:3:0:0:
441,71,214828,2,0,L|383:61,1,35.9999989013672,8|8,0:0|0:0,0:0:0:0:
370,88,215005,6,0,P|314:67|252:110,1,128,4|8,1:2|0:0,0:0:0:0:
225,175,215534,1,2,0:0:0:0:
144,196,215711,2,0,P|105:180|64:178,2,64,0|0|8,1:0|0:0|0:0,0:0:0:0:
202,255,216240,1,2,0:0:0:0:
205,337,216416,6,0,P|275:333|290:340,2,64,2|0|8,1:2|0:0|0:0,0:0:0:0:
131,376,216946,1,2,0:0:0:0:
59,334,217122,2,0,L|44:243,2,64,0|0|8,1:0|0:0|0:0,0:0:0:0:
33,169,217828,6,0,B|84:128|84:128|139:161,1,128,2|8,1:2|0:0,0:0:0:0:
205,210,218358,1,2,0:0:0:0:
205,210,218534,2,0,L|289:201,1,64,0|2,1:0|0:0,0:0:0:0:
351,194,218887,1,8,0:0:0:0:
486,65,219240,6,0,B|438:73|438:73|403:107|403:107|339:113,1,143.999995605469,4|8,1:2|0:0,0:0:0:0:
263,109,219769,1,2,1:2:0:0:
435,181,220122,1,2,1:2:0:0:
283,249,220475,6,0,B|329:265|329:265|346:296|346:296|401:317,1,128,4|0,1:2|0:0,0:0:0:0:
467,334,221005,2,0,L|483:257,1,64,8|0,0:0|0:0,0:0:0:0:
387,311,221358,2,0,L|395:379,2,64,0|0|8,1:0|0:0|0:0,0:0:0:0:
368,145,222064,5,2,1:2:0:0:
322,75,222240,1,0,1:0:0:0:
280,147,222416,1,8,0:0:0:0:
101,207,222769,5,0,1:0:0:0:
145,136,222946,1,0,1:0:0:0:
53,139,223122,2,0,P|59:94|65:43,1,96,8|0,0:0|0:0,0:0:0:0:
101,22,223475,6,0,P|151:34|182:33,1,64,4|2,1:2|0:0,0:0:0:0:
245,50,223828,1,8,0:0:0:0:
245,50,224005,2,0,P|299:36|325:107,1,128,2|0,1:2|1:0,0:0:0:0:
377,160,224534,2,0,P|427:153|456:161,1,64,8|2,0:0|0:0,0:0:0:0:
305,203,224887,5,4,1:2:0:0:
358,266,225064,1,8,0:0:0:0:
358,266,225240,1,8,0:0:0:0:
316,337,225416,5,0,1:0:0:0:
242,297,225593,2,0,P|162:286|162:286,1,64,2|0,1:2|1:0,0:0:0:0:
108,357,225946,1,8,0:0:0:0:
108,357,226034,1,8,0:0:0:0:
108,357,226122,2,0,L|92:315,1,32,8|8,0:0|0:0,0:0:0:0:
65,307,226299,5,4,1:2:0:0:
0,111,227711,1,2,1:2:0:0:
154,329,229122,5,4,1:2:0:0:
219,133,230358,2,0,B|256:113|256:113|338:143,1,120,4|0,1:2|0:0,0:0:0:0:
362,153,230711,1,0,1:0:0:0:
440,220,230887,2,0,L|462:43,1,160,8|0,0:0|0:0,0:0:0:0:
357,41,231416,1,0,1:0:0:0:
329,140,231593,1,8,0:0:0:0:
329,140,231681,1,2,0:0:0:0:
329,140,231769,2,0,L|341:196,1,40,2|2,0:0|0:0,0:0:0:0:
353,219,231946,6,0,P|302:220|281:313,1,160,4|8,1:2|0:0,0:0:0:0:
366,354,232475,1,2,0:0:0:0:
366,354,232652,2,0,L|459:345,1,80,0|0,1:0|1:0,0:0:0:0:
490,261,233005,1,8,0:0:0:0:
490,261,233358,6,0,B|450:230|450:230|466:108,1,160,2|8,1:2|0:0,0:0:0:0:
493,29,233887,1,2,0:0:0:0:
493,29,234064,2,0,L|388:22,1,80,0|0,1:0|1:0,0:0:0:0:
332,75,234416,1,8,0:0:0:0:
332,75,234769,5,2,1:2:0:0:
255,133,234946,1,2,0:0:0:0:
344,167,235122,1,8,0:0:0:0:
247,170,235299,2,0,L|151:158,1,80,2|0,0:0|1:0,0:0:0:0:
92,220,235652,1,0,1:0:0:0:
92,220,235828,2,0,P|39:218|28:301,1,120,8|0,0:0|0:0,0:0:0:0:
8,320,236181,6,0,B|103:309|69:379|182:366,1,160,4|8,1:2|0:0,0:0:0:0:
246,336,236711,2,0,P|236:213|228:163,1,160,4|8,1:2|0:0,0:0:0:0:
166,105,237240,1,8,0:0:0:0:
80,147,237416,1,4,1:2:0:0:
256,192,237505,12,0,244652,0:0:0:0:
