osu file format v14

[General]
AudioFilename: audio.mp3
AudioLeadIn: 0
PreviewTime: 224325
Countdown: 0
SampleSet: Soft
StackLeniency: 0.7
Mode: 0
LetterboxInBreaks: 0
WidescreenStoryboard: 1

[Editor]
Bookmarks: 304620
DistanceSpacing: 1.4
BeatDivisor: 4
GridSize: 32
TimelineZoom: 2.2

[Metadata]
Title:Ayakashibana to Yumeutsutsu
TitleUnicode:妖花ト夢現
Artist:Shimotsuki Haruka
ArtistUnicode:霜月はるか
Creator:Val
Version:Another Flower
Source:
Tags:japanese pop j-pop jpop jrock j-rock しちごさん。 753. absolute castaway another flower II 2 cross bouquet Youka ScubDomino
BeatmapID:3414730
BeatmapSetID:1671865

[Difficulty]
HPDrainRate:5
CircleSize:4
OverallDifficulty:9.4
ApproachRate:9.4
SliderMultiplier:2
SliderTickRate:1

[Events]
//Background and Video events
0,0,"Another Flower II.jpg",0,0
//Break Periods
//Storyboard Layer 0 (Background)
//Storyboard Layer 1 (Fail)
//Storyboard Layer 2 (Pass)
//Storyboard Layer 3 (Foreground)
//Storyboard Layer 4 (Overlay)
//Storyboard Sound Samples

[TimingPoints]
-110,322.58064516129,4,2,1,60,1,0
427,-100,4,2,10,60,0,0
615,-76.9230769230769,4,2,10,60,0,0
857,-90.9090909090909,4,2,10,60,0,0
1019,-111.111111111111,4,2,11,60,0,0
1180,-71.4285714285714,4,2,10,60,0,0
1260,-71.4285714285714,4,2,10,60,0,0
1421,-71.4285714285714,4,2,10,5,0,0
1502,-83.3333333333333,4,2,10,60,0,0
1664,-100,4,2,15,60,0,0
3760,-100,4,2,10,60,0,0
3841,-100,4,2,10,60,0,0
4001,-100,4,2,10,5,0,0
4083,-100,4,2,10,60,0,0
4244,-100,4,2,12,60,0,0
4406,-100,4,2,10,60,0,0
4728,-100,4,2,15,60,0,0
4809,-100,4,2,15,60,0,0
4969,-100,4,2,15,5,0,0
5051,-100,4,2,15,60,0,0
5373,-100,4,2,10,60,0,0
5696,-100,4,2,15,60,0,0
6341,-71.4285714285714,4,2,15,60,0,0
6422,-71.4285714285714,4,2,15,60,0,0
6582,-71.4285714285714,4,2,15,5,0,0
6664,-71.4285714285714,4,2,15,60,0,0
6825,-83.3333333333333,4,2,15,60,0,0
6906,-83.3333333333333,4,2,15,60,0,0
7066,-83.3333333333333,4,2,15,5,0,0
7148,-83.3333333333333,4,2,15,60,0,0
7309,-100,4,2,15,60,0,0
7389,-100,4,2,15,60,0,0
7550,-100,4,2,15,5,0,0
7631,-100,4,2,15,60,0,0
7954,-100,4,2,10,60,0,0
8277,-100,4,2,15,60,0,0
9002,-100,4,2,15,60,0,0
9163,-100,4,2,15,5,0,0
9244,-100,4,2,15,60,0,0
9567,-100,4,2,10,60,0,0
9889,-100,4,2,15,60,0,0
9970,-100,4,2,15,60,0,0
10130,-100,4,2,15,5,0,0
10212,-62.5,4,2,15,60,0,0
10293,-62.5,4,2,15,60,0,0
10453,-62.5,4,2,15,5,0,0
10535,-333.333333333333,4,2,10,60,0,0
10615,-333.333333333333,4,2,10,60,0,0
10776,-333.333333333333,4,2,10,5,0,0
10857,-62.5,4,2,15,60,0,0
10938,-62.5,4,2,15,60,0,0
11098,-62.5,4,2,15,5,0,0
11180,-71.4285714285714,4,2,15,60,0,0
11260,-71.4285714285714,4,2,15,60,0,0
11421,-71.4285714285714,4,2,15,5,0,0
11502,-100,4,2,10,60,0,0
11986,-125,4,2,12,60,0,0
12147,-125,4,2,10,60,0,0
12470,-153.846153846153,4,2,15,60,0,0
12954,-200,4,2,15,60,0,0
13115,-200,4,2,10,60,0,0
13438,-83.3333333333333,4,2,15,60,0,0
13760,-83.3333333333333,4,2,10,60,0,0
14083,-100,4,2,15,60,0,0
14567,-125,4,2,10,60,0,0
15051,-153.846153846153,4,2,15,60,0,0
15535,-200,4,2,10,60,0,0
16019,-83.3333333333333,4,2,15,60,0,0
16664,-100,4,2,15,60,0,0
17148,-125,4,2,15,60,0,0
17309,-125,4,2,10,60,0,0
17631,-153.846153846153,4,2,15,60,0,0
18115,-200,4,2,15,60,0,0
18276,-200,4,2,10,60,0,0
18600,-83.3333333333333,4,2,15,60,0,0
18760,-250,4,2,15,60,0,0
18921,-250,4,2,10,60,0,0
19244,-100,4,2,10,60,0,0
19406,-100,4,2,11,60,0,0
19567,-100,4,2,15,60,0,0
19728,-125,4,2,15,60,0,0
19889,-125,4,2,10,60,0,0
20212,-166.666666666667,4,2,12,60,0,0
20373,-166.666666666667,4,2,11,60,0,0
20535,-166.666666666667,4,2,10,60,0,0
20696,-166.666666666667,4,2,11,60,0,0
20857,-166.666666666667,4,2,10,60,0,0
21019,-166.666666666667,4,2,11,60,0,0
21180,-166.666666666667,4,2,12,60,0,0
21341,-166.666666666667,4,2,11,60,0,0
21502,-166.666666666667,4,2,10,60,0,0
21825,-62.5,4,2,10,60,0,0
22309,-76.9230769230769,4,2,12,60,0,0
22470,-76.9230769230769,4,2,10,60,0,0
22631,-100,4,2,10,60,0,0
22793,-100,4,2,12,60,0,0
22954,-100,4,2,11,60,0,0
23115,-100,4,2,15,60,0,0
23277,-62.5,4,2,15,60,0,0
23438,-62.5,4,2,10,60,0,0
23760,-62.5,4,2,15,60,0,0
24083,-55.5555555555556,4,2,15,60,0,0
24406,-62.5,4,2,10,60,0,0
24889,-76.9230769230769,4,2,12,60,0,0
25050,-76.9230769230769,4,2,10,60,0,0
25373,-76.9230769230769,4,2,12,60,0,0
25535,-76.9230769230769,4,2,11,60,0,0
25696,-76.9230769230769,4,2,15,60,0,0
26019,-76.9230769230769,4,2,10,60,0,0
26180,-76.9230769230769,4,2,10,60,0,0
26341,-100,4,2,11,60,0,0
26422,-100,4,2,10,60,0,0
26664,-100,4,2,11,60,0,0
26744,-100,4,2,10,60,0,0
26986,-166.666666666667,4,2,10,60,0,0
27470,-200,4,2,12,60,0,0
27954,-250,4,2,12,60,0,0
28277,-200,4,2,11,60,0,0
28438,-200,4,2,12,60,0,0
28760,-200,4,2,11,60,0,0
28922,-166.666666666667,4,2,12,60,0,0
29567,-125,4,2,12,60,0,0
29728,-125,4,2,11,60,0,0
30051,-142.857142857143,4,2,12,60,0,0
30373,-142.857142857143,4,2,11,60,0,0
30535,-166.666666666667,4,2,12,60,0,0
30857,-100,4,2,12,60,0,0
31019,-100,4,2,10,60,0,0
31341,-100,4,2,13,60,0,0
31502,-100,4,2,10,60,0,0
31986,-100,4,2,13,60,0,0
32148,-100,4,2,12,60,0,0
32793,-83.3333333333333,4,2,10,60,0,0
33115,-100,4,2,11,60,0,0
33438,-62.5,4,2,11,60,0,0
33922,-83.3333333333333,4,2,11,60,0,0
34083,-83.3333333333333,4,2,11,60,0,0
34244,-83.3333333333333,4,2,14,60,0,0
34567,-76.9230769230769,4,2,12,60,0,0
34648,-76.9230769230769,4,2,12,60,0,0
34808,-76.9230769230769,4,2,12,5,0,0
34889,-76.9230769230769,4,2,12,60,0,0
35051,-76.9230769230769,4,2,11,60,0,0
35212,-250,4,2,11,60,0,0
35373,-83.3333333333333,4,2,11,60,0,0
35534,-83.3333333333333,4,2,12,60,0,0
35696,-83.3333333333333,4,2,11,60,0,0
35857,-83.3333333333333,4,2,14,60,0,0
36341,-83.3333333333333,4,2,11,60,0,0
36502,-100,4,2,11,60,0,0
36664,-100,4,2,11,60,0,0
36824,-100,4,2,14,60,0,0
37148,-66.6666666666667,4,2,11,60,0,0
37228,-71.4285714285714,4,2,11,60,0,0
37389,-71.4285714285714,4,2,11,5,0,0
37470,-71.4285714285714,4,2,12,60,0,0
37631,-71.4285714285714,4,2,11,60,0,0
38115,-71.4285714285714,4,2,12,60,0,0
38277,-83.3333333333333,4,2,11,60,0,0
38357,-83.3333333333333,4,2,11,60,0,0
38438,-83.3333333333333,4,2,11,5,0,0
38519,-100,4,2,14,60,0,0
38599,-83.3333333333333,4,2,14,60,0,0
38680,-83.3333333333333,4,2,14,60,0,0
38840,-83.3333333333333,4,2,14,5,0,0
38922,-100,4,2,11,60,0,0
39083,-83.3333333333333,4,2,11,60,0,0
39244,-83.3333333333333,4,2,11,60,0,0
39406,-100,4,2,11,60,0,0
39567,-100,4,2,11,60,0,0
39728,-100,4,2,11,60,0,0
39889,-100,4,2,11,60,0,0
40051,-100,4,2,11,60,0,0
40212,-100,4,2,11,60,0,0
40373,-111.111111111111,4,2,11,60,0,0
40535,-111.111111111111,4,2,11,60,0,0
40696,-111.111111111111,4,2,11,60,0,0
40857,-111.111111111111,4,2,11,60,0,0
41019,-111.111111111111,4,2,11,60,0,0
41180,-111.111111111111,4,2,14,60,0,0
41502,-111.111111111111,4,2,11,60,0,0
41664,-76.9230769230769,4,2,11,60,0,0
41825,-76.9230769230769,4,2,11,60,0,0
41986,-86.9565217391303,4,2,11,60,0,0
42148,-86.9565217391303,4,2,11,60,0,0
42309,-86.9565217391303,4,2,11,60,0,0
42349,-86.9565217391303,4,2,11,60,0,0
42631,-86.9565217391303,4,2,11,60,0,0
42793,-86.9565217391303,4,2,11,60,0,0
42954,-86.9565217391303,4,2,11,60,0,0
43115,-86.9565217391303,4,2,10,60,0,0
43277,-86.9565217391303,4,2,11,52,0,0
43357,-86.9565217391303,4,2,11,55,0,0
43438,-86.9565217391303,4,2,12,58,0,0
43519,-86.9565217391303,4,2,12,61,0,0
43599,-86.9565217391303,4,2,12,64,0,0
43680,-86.9565217391303,4,2,12,67,0,0
43760,-66.6666666666667,4,2,12,70,0,0
43841,-66.6666666666667,4,2,12,70,0,0
44001,-66.6666666666667,4,2,12,5,0,0
44083,-100,4,2,11,60,0,0
44567,-100,4,2,14,60,0,0
44889,-76.9230769230769,4,2,11,60,0,0
44970,-76.9230769230769,4,2,11,60,0,0
45130,-76.9230769230769,4,2,11,5,0,0
45212,-76.9230769230769,4,2,11,60,0,0
45373,-76.9230769230769,4,2,11,60,0,0
45535,-76.9230769230769,4,2,11,60,0,0
45696,-76.9230769230769,4,2,11,60,0,0
45857,-76.9230769230769,4,2,11,60,0,0
46019,-100,4,2,11,60,0,0
46180,-100,4,2,14,60,0,0
46664,-100,4,2,11,60,0,0
46825,-83.3333333333333,4,2,11,60,0,0
46986,-83.3333333333333,4,2,11,60,0,0
47147,-83.3333333333333,4,2,14,60,0,0
47470,-76.9230769230769,4,2,11,60,0,0
47551,-76.9230769230769,4,2,11,60,0,0
47711,-76.9230769230769,4,2,11,5,0,0
47793,-76.9230769230769,4,2,11,60,0,0
47954,-76.9230769230769,4,2,11,60,0,0
48115,-76.9230769230769,4,2,11,60,0,0
48277,-76.9230769230769,4,2,11,60,0,0
48438,-76.9230769230769,4,2,11,60,0,0
48599,-90.9090909090909,4,2,11,60,0,0
48680,-90.9090909090909,4,2,11,60,0,0
48760,-90.9090909090909,4,2,11,5,0,0
48841,-90.9090909090909,4,2,14,60,0,0
48922,-76.9230769230769,4,2,14,60,0,0
49002,-76.9230769230769,4,2,14,60,0,0
49163,-76.9230769230769,4,2,14,5,0,0
49244,-76.9230769230769,4,2,11,60,0,0
49406,-83.3333333333333,4,2,11,60,0,0
49486,-83.3333333333333,4,2,11,60,0,0
49728,-71.4285714285714,4,2,11,60,0,0
49809,-71.4285714285714,4,2,11,60,0,0
49969,-71.4285714285714,4,2,11,5,0,0
50051,-125,4,2,11,60,0,0
50131,-125,4,2,11,60,0,0
50427,-125,4,2,11,60,0,0
50535,-125,4,2,11,5,0,0
50642,-100,4,2,11,60,0,0
50750,-100,4,2,11,5,0,0
50857,-83.3333333333333,4,2,11,60,0,0
50965,-83.3333333333333,4,2,11,5,0,0
51072,-71.4285714285714,4,2,11,60,0,0
51180,-71.4285714285714,4,2,11,5,0,0
51287,-62.5,4,2,11,60,0,0
51395,-62.5,4,2,11,5,0,0
51502,-62.5,4,2,14,60,0,0
51825,-62.5,4,2,11,60,0,0
51986,-125,4,2,11,60,0,0
52148,-125,4,2,11,60,0,0
52309,-100,4,2,11,60,0,0
52470,-100,4,2,12,60,0,0
52631,-100,4,2,11,60,0,0
52712,-100,4,2,11,60,0,0
52793,-100,4,2,11,60,0,0
52954,-100,4,2,12,60,0,0
53115,-100,4,2,11,60,0,0
53438,-100,4,2,13,60,0,0
53599,-100,4,2,11,60,0,0
53760,-100,4,2,12,60,0,0
54083,-71.4285714285714,4,2,12,60,0,0
54889,-83.3333333333333,4,2,12,60,0,0
54970,-83.3333333333333,4,2,12,60,0,0
55130,-83.3333333333333,4,2,12,5,0,0
55212,-166.666666666667,4,2,12,60,0,0
55293,-166.666666666667,4,2,12,60,0,0
55453,-166.666666666667,4,2,12,5,0,0
55535,-166.666666666667,4,2,11,60,0,0
55696,-166.666666666667,4,2,12,60,0,0
55857,-166.666666666667,4,2,11,60,0,0
56019,-166.666666666667,4,2,12,60,0,0
56180,-166.666666666667,4,2,11,60,0,0
56341,-166.666666666667,4,2,12,60,0,0
56502,-166.666666666667,4,2,11,60,0,0
56664,-100,4,2,12,60,0,0
57148,-100,4,2,11,60,0,0
57309,-100,4,2,12,60,0,0
57470,-83.3333333333333,4,2,11,60,0,0
57551,-83.3333333333333,4,2,11,60,0,0
57711,-83.3333333333333,4,2,11,5,0,0
57793,-71.4285714285714,4,2,12,60,0,0
57873,-71.4285714285714,4,2,12,60,0,0
58034,-71.4285714285714,4,2,12,5,0,0
58115,-71.4285714285714,4,2,11,60,0,0
58277,-71.4285714285714,4,2,11,60,0,0
58438,-71.4285714285714,4,2,11,60,0,0
58599,-71.4285714285714,4,2,13,60,0,0
58841,-71.4285714285714,4,2,12,60,0,0
59083,-71.4285714285714,4,2,11,60,0,0
59244,-125,4,2,12,60,0,0
59325,-125,4,2,12,60,0,0
59485,-125,4,2,12,5,0,0
59567,-125,4,2,12,60,0,0
59728,-125,4,2,11,60,0,0
59889,-125,4,2,14,60,0,0
60373,-125,4,2,11,60,0,0
60535,-90.9090909090909,4,2,14,60,0,0
60615,-90.9090909090909,4,2,14,60,0,0
60776,-90.9090909090909,4,2,14,5,0,0
60857,-90.9090909090909,4,2,14,60,0,0
61019,-90.9090909090909,4,2,11,60,0,0
61180,-90.9090909090909,4,2,14,60,0,0
61664,-90.9090909090909,4,2,11,60,0,0
61825,-100,4,2,10,60,0,0
61906,-100,4,2,10,60,0,0
62066,-100,4,2,10,5,0,0
62148,-100,4,2,14,60,0,0
62309,-100,4,2,11,60,0,0
62470,-142.857142857143,4,2,14,60,0,0
62954,-142.857142857143,4,2,11,60,0,0
63115,-142.857142857143,4,2,14,60,0,0
63438,-142.857142857143,4,2,10,60,0,0
63599,-142.857142857143,4,2,11,60,0,0
63760,-111.111111111111,4,2,10,60,0,0
64083,-111.111111111111,4,2,10,60,0,0
64244,-111.111111111111,4,2,11,60,0,0
64406,-83.3333333333333,4,2,14,60,0,0
64486,-83.3333333333333,4,2,14,60,0,0
64647,-83.3333333333333,4,2,14,5,0,0
64728,-83.3333333333333,4,2,14,42,0,0
64889,-83.3333333333333,4,2,14,44,0,0
65051,-83.3333333333333,4,2,14,46,0,0
65212,-83.3333333333333,4,2,14,48,0,0
65373,-83.3333333333333,4,2,14,50,0,0
65535,-83.3333333333333,4,2,14,52,0,0
65696,-83.3333333333333,4,2,14,54,0,0
65857,-83.3333333333333,4,2,14,56,0,0
66019,-83.3333333333333,4,2,14,58,0,0
66180,-83.3333333333333,4,2,14,60,0,0
66341,-83.3333333333333,4,2,14,62,0,0
66502,-83.3333333333333,4,2,14,64,0,0
66664,-83.3333333333333,4,2,14,66,0,0
66825,-83.3333333333333,4,2,14,68,0,0
66986,-66.6666666666667,4,2,11,70,0,0
67067,-66.6666666666667,4,2,11,70,0,0
67227,-66.6666666666667,4,2,11,5,0,0
67309,-66.6666666666667,4,2,11,70,0,0
67954,-79.9999999999999,4,2,10,70,0,0
68115,-100,4,2,11,70,0,0
68277,-100,4,2,11,70,0,0
68357,-100,4,2,1,70,0,0
69406,-100,4,2,11,5,0,0
69567,-166.666666666667,4,2,13,70,0,1
69648,-166.666666666667,4,2,13,70,0,1
69808,-166.666666666667,4,2,13,5,0,1
69889,-83.3333333333333,4,2,15,70,0,1
69970,-83.3333333333333,4,2,15,70,0,1
70130,-83.3333333333333,4,2,15,5,0,1
70212,-83.3333333333333,4,2,22,70,0,1
70696,-83.3333333333333,4,2,11,70,0,1
70857,-83.3333333333333,4,2,22,70,0,1
71502,-83.3333333333333,4,2,13,70,0,1
71825,-200,4,2,16,70,0,1
71906,-200,4,2,16,70,0,1
72066,-200,4,2,16,5,0,1
72148,-66.6666666666667,4,2,10,70,0,1
72228,-66.6666666666667,4,2,10,70,0,1
72389,-66.6666666666667,4,2,10,5,0,1
72470,-66.6666666666667,4,2,22,70,0,1
73277,-66.6666666666667,4,2,11,70,0,1
73438,-66.6666666666667,4,2,13,70,0,1
73599,-66.6666666666667,4,2,11,70,0,1
73760,-66.6666666666667,4,2,16,70,0,1
73922,-66.6666666666667,4,2,11,70,0,1
74083,-66.6666666666667,4,2,13,70,0,1
74244,-66.6666666666667,4,2,11,70,0,1
74406,-250,4,2,10,70,0,1
74486,-250,4,2,10,70,0,1
74647,-250,4,2,10,5,0,1
74728,-125,4,2,10,70,0,1
74809,-125,4,2,10,70,0,1
74969,-125,4,2,10,5,0,1
75051,-83.3333333333333,4,2,12,70,0,1
75212,-83.3333333333333,4,2,11,70,0,1
75373,-83.3333333333333,4,2,15,70,0,1
75857,-71.4285714285714,4,2,11,70,0,1
75938,-71.4285714285714,4,2,1,70,0,1
76260,-71.4285714285714,4,2,11,5,0,1
76341,-71.4285714285714,4,2,12,70,0,1
76502,-71.4285714285714,4,2,11,70,0,1
76664,-71.4285714285714,4,2,15,70,0,1
77148,-71.4285714285714,4,2,11,70,0,1
77309,-83.3333333333333,4,2,15,70,0,1
77389,-83.3333333333333,4,2,15,70,0,1
77550,-83.3333333333333,4,2,15,5,0,1
77631,-83.3333333333333,4,2,15,70,0,1
77793,-71.4285714285714,4,2,11,70,0,1
77954,-71.4285714285714,4,2,15,70,0,1
78438,-71.4285714285714,4,2,11,70,0,1
78519,-62.5,4,2,1,70,0,1
78841,-62.5,4,2,11,5,0,1
78922,-83.3333333333333,4,2,12,70,0,1
79083,-83.3333333333333,4,2,10,70,0,1
79244,-83.3333333333333,4,2,15,70,0,1
79406,-83.3333333333333,4,2,15,70,0,1
79567,-83.3333333333333,4,2,10,70,0,1
79728,-83.3333333333333,4,2,11,70,0,1
79889,-83.3333333333333,4,2,15,70,0,1
79970,-83.3333333333333,4,2,15,70,0,1
80130,-83.3333333333333,4,2,15,5,0,1
80212,-83.3333333333333,4,2,15,70,0,1
80373,-71.4285714285714,4,2,11,70,0,1
80535,-71.4285714285714,4,2,15,70,0,1
81019,-83.3333333333333,4,2,11,70,0,1
81099,-83.3333333333333,4,2,11,70,0,1
81260,-83.3333333333333,4,2,11,5,0,1
81341,-83.3333333333333,4,2,11,70,0,1
81502,-83.3333333333333,4,2,15,70,0,1
81825,-83.3333333333333,4,2,15,70,0,1
82148,-71.4285714285714,4,2,15,70,0,1
82470,-62.5,4,2,15,70,0,1
82954,-76.9230769230769,4,2,15,70,0,1
83035,-76.9230769230769,4,2,15,5,0,1
83277,-76.9230769230769,4,2,15,70,0,1
83357,-76.9230769230769,4,2,15,5,0,1
83599,-66.6666666666667,4,2,15,70,0,1
84083,-100,4,2,15,70,0,1
84406,-100,4,2,10,70,0,1
84567,-76.9230769230769,4,2,10,70,0,1
84728,-100,4,2,10,70,0,1
84889,-142.857142857143,4,2,11,70,0,1
85051,-83.3333333333333,4,2,10,70,0,1
85131,-83.3333333333333,4,2,10,70,0,1
85292,-83.3333333333333,4,2,10,5,0,1
85373,-83.3333333333333,4,2,14,70,0,1
85535,-83.3333333333333,4,2,11,70,0,1
85696,-83.3333333333333,4,2,14,70,0,1
85857,-83.3333333333333,4,2,11,70,0,1
86019,-83.3333333333333,4,2,14,70,0,1
86180,-76.9230769230769,4,2,12,70,0,1
86664,-76.9230769230769,4,2,14,70,0,1
86825,-71.4285714285714,4,2,11,70,0,1
86986,-71.4285714285714,4,2,15,70,0,1
87470,-71.4285714285714,4,2,15,70,0,1
87551,-71.4285714285714,4,2,15,70,0,1
87711,-71.4285714285714,4,2,15,5,0,1
87793,-100,4,2,15,70,0,1
88922,-83.3333333333333,4,2,14,70,0,0
89002,-83.3333333333333,4,2,14,5,0,0
89567,-83.3333333333333,4,2,15,70,0,0
89648,-83.3333333333333,4,2,15,70,0,0
90050,-83.3333333333333,4,2,15,5,0,0
90212,-71.4285714285714,4,2,15,70,0,1
90293,-71.4285714285714,4,2,15,70,0,1
90453,-71.4285714285714,4,2,15,5,0,1
90535,-71.4285714285714,4,2,15,70,0,1
90857,-71.4285714285714,4,2,10,70,0,1
91180,-71.4285714285714,4,2,15,70,0,1
91825,-71.4285714285714,4,2,10,70,0,1
92148,-71.4285714285714,4,2,15,70,0,1
92470,-71.4285714285714,4,2,10,70,0,1
92793,-58.8235294117647,4,2,15,70,0,1
92873,-58.8235294117647,4,2,15,70,0,1
93034,-58.8235294117647,4,2,15,5,0,1
93115,-58.8235294117647,4,2,15,70,0,1
93922,-58.8235294117647,4,2,11,70,0,1
94083,-58.8235294117647,4,2,15,70,0,1
94406,-58.8235294117647,4,2,10,70,0,1
94567,-58.8235294117647,4,2,11,70,0,1
94728,-71.4285714285714,4,2,15,70,0,1
95212,-71.4285714285714,4,2,11,70,0,1
95293,-71.4285714285714,4,2,15,70,0,1
97954,-83.3333333333333,4,2,15,70,0,1
98438,-95.2380952380951,4,2,15,70,0,1
98599,-95.2380952380951,4,2,10,70,0,1
98922,-111.111111111111,4,2,15,70,0,1
99406,-133.333333333333,4,2,15,70,0,1
99567,-133.333333333333,4,2,10,70,0,1
99889,-133.333333333333,4,2,15,70,0,1
100212,-133.333333333333,4,2,10,70,0,1
100535,-133.333333333333,4,2,12,70,0,1
101019,-133.333333333333,4,2,11,70,0,1
101180,-133.333333333333,4,2,12,70,0,1
101664,-133.333333333333,4,2,11,70,0,1
101825,-133.333333333333,4,2,12,70,0,1
101986,-133.333333333333,4,2,11,70,0,1
102148,-133.333333333333,4,2,12,70,0,1
103599,-133.333333333333,4,2,11,70,0,1
103760,-133.333333333333,4,2,12,70,0,1
104244,-133.333333333333,4,2,11,70,0,1
104406,-133.333333333333,4,2,12,70,0,1
104889,-133.333333333333,4,2,11,70,0,1
105051,-133.333333333333,4,2,12,70,0,1
105535,-133.333333333333,4,2,11,70,0,1
105696,-133.333333333333,4,2,12,70,0,1
106180,-133.333333333333,4,2,11,70,0,1
106341,-133.333333333333,4,2,12,70,0,1
106825,-133.333333333333,4,2,11,70,0,1
106986,-133.333333333333,4,2,12,70,0,1
107148,-133.333333333333,4,2,11,70,0,1
107309,-133.333333333333,4,2,12,70,0,1
108277,-71.4285714285714,4,2,10,70,0,1
108760,-83.3333333333333,4,2,11,70,0,1
109244,-83.3333333333333,4,2,10,70,0,1
110212,-83.3333333333333,4,2,11,70,0,1
110373,-83.3333333333333,4,2,10,70,0,1
110535,-100,4,2,11,70,0,1
110642,-100,4,2,10,70,0,1
110750,-100,4,2,11,70,0,1
110857,-125,4,2,12,70,0,0
110938,-125,4,2,1,70,0,0
111502,-125,4,2,11,50,0,0
111825,-250,4,2,11,50,0,0
111986,-250,4,2,13,50,0,0
112309,-250,4,2,13,50,0,0
113115,-142.857142857143,4,2,13,50,0,0
113277,-142.857142857143,4,2,11,50,0,0
113357,-142.857142857143,4,2,1,50,0,0
114406,-250,4,2,12,50,0,0
114567,-250,4,2,13,50,0,0
114889,-250,4,2,12,50,0,0
115696,-250,4,2,13,50,0,0
115777,-250,4,2,13,50,0,0
115937,-250,4,2,13,5,0,0
116019,-250,4,2,12,50,0,0
116099,-250,4,2,12,50,0,0
116260,-250,4,2,12,5,0,0
116341,-250,4,2,13,50,0,0
116502,-166.666666666667,4,2,11,50,0,0
116583,-166.666666666667,4,2,1,50,0,0
116905,-166.666666666667,4,2,11,5,0,0
116986,-125,4,2,11,50,0,0
117148,-125,4,2,13,50,0,0
117228,-125,4,2,1,50,0,0
117551,-125,4,2,13,5,0,0
117631,-125,4,2,13,50,0,0
117793,-125,4,2,11,50,0,0
117873,-125,4,2,1,50,0,0
118196,-125,4,2,11,5,0,0
118277,-125,4,2,13,50,0,0
118438,-125,4,2,11,50,0,0
118519,-125,4,2,1,50,0,0
119325,-125,4,2,11,5,0,0
119406,-125,4,2,11,50,0,0
119567,-125,4,2,11,50,0,0
119728,-125,4,2,13,50,0,0
119889,-105.263157894737,4,2,11,50,0,0
120051,-105.263157894737,4,2,10,50,0,0
120212,-105.263157894737,4,2,13,50,0,0
120373,-90.9090909090909,4,2,11,50,0,0
120535,-90.9090909090909,4,2,10,60,0,0
120696,-90.9090909090909,4,2,14,60,0,0
120857,-90.9090909090909,4,2,10,60,0,0
121019,-90.9090909090909,4,2,11,60,0,0
121180,-500,4,2,11,60,0,0
121260,-500,4,2,11,60,0,0
121421,-500,4,2,11,5,0,0
121502,-100,4,2,11,60,0,0
121583,-100,4,2,1,60,0,0
121985,-100,4,2,14,60,0,0
122148,-125,4,2,14,60,0,0
122309,-125,4,2,11,60,0,0
123115,-125,4,2,11,60,0,0
123330,-125,4,2,11,60,0,0
123760,-125,4,2,14,60,0,0
124244,-125,4,2,11,60,0,0
124728,-125,4,2,11,60,0,0
124889,-125,4,2,11,60,0,0
125373,-125,4,2,14,60,0,0
125535,-125,4,2,11,60,0,0
125696,-125,4,2,11,60,0,0
125857,-125,4,2,11,60,0,0
126019,-125,4,2,14,60,0,0
126180,-125,4,2,11,60,0,0
126341,-100,4,2,14,60,0,0
126422,-100,4,2,14,60,0,0
126582,-100,4,2,14,5,0,0
126664,-111.111111111111,4,2,14,60,0,0
126825,-111.111111111111,4,2,11,60,0,0
126986,-111.111111111111,4,2,11,60,0,0
127148,-100,4,2,11,60,0,0
127309,-100,4,2,11,60,0,0
127470,-100,4,2,11,60,0,0
127631,-100,4,2,11,60,0,0
127792,-100,4,2,14,60,0,0
128115,-100,4,2,11,60,0,0
128277,-100,4,2,11,60,0,0
128438,-100,4,2,11,60,0,0
128599,-100,4,2,14,60,0,0
128760,-100,4,2,11,60,0,0
128922,-100,4,2,14,60,0,0
129244,-90.9090909090909,4,2,14,60,0,0
129406,-90.9090909090909,4,2,11,60,0,0
129567,-90.9090909090909,4,2,11,60,0,0
129782,-90.9090909090909,4,2,11,60,0,0
130212,-90.9090909090909,4,2,14,60,0,0
130535,-90.9090909090909,4,2,10,60,0,0
131180,-90.9090909090909,4,2,10,60,0,0
131287,-90.9090909090909,4,2,10,60,0,0
131583,-90.9090909090909,4,2,10,60,0,0
131743,-90.9090909090909,4,2,10,5,0,0
131825,-111.111111111111,4,2,12,60,0,0
131986,-111.111111111111,4,2,11,60,0,0
132148,-111.111111111111,4,2,11,60,0,0
132309,-111.111111111111,4,2,11,60,0,0
132389,-111.111111111111,4,2,11,60,0,0
132550,-111.111111111111,4,2,11,5,0,0
132631,-100,4,2,14,60,0,0
132712,-100,4,2,11,60,0,0
133438,-100,4,2,12,60,0,0
133760,-95.2380952380951,4,2,12,60,0,0
134083,-76.9230769230769,4,2,12,60,0,0
134567,-83.3333333333333,4,2,11,60,0,0
134648,-83.3333333333333,4,2,11,60,0,0
134808,-83.3333333333333,4,2,11,5,0,0
134889,-100,4,2,11,60,0,0
134970,-100,4,2,11,60,0,0
135130,-100,4,2,11,5,0,0
135212,-142.857142857143,4,2,12,60,0,0
135293,-142.857142857143,4,2,12,60,0,0
135453,-142.857142857143,4,2,12,5,0,0
135535,-142.857142857143,4,2,12,60,0,0
135696,-71.4285714285714,4,2,12,60,0,0
135777,-71.4285714285714,4,2,12,60,0,0
135937,-71.4285714285714,4,2,12,5,0,0
136019,-200,4,2,13,60,0,0
136099,-200,4,2,13,60,0,0
136180,-200,4,2,13,5,0,0
136260,-200,4,2,12,60,0,0
136502,-200,4,2,10,60,0,0
136583,-200,4,2,11,60,0,0
136664,-100,4,2,12,60,0,0
136744,-100,4,2,12,60,0,0
136905,-100,4,2,12,5,0,0
136986,-100,4,2,11,60,0,0
137148,-100,4,2,11,60,0,0
137309,-100,4,2,11,60,0,0
137470,-100,4,2,11,60,0,0
137631,-100,4,2,11,60,0,0
137793,-100,4,2,11,60,0,0
137954,-100,4,2,11,60,0,0
138438,-100,4,2,11,60,0,0
138599,-100,4,2,11,60,0,0
138760,-100,4,2,11,60,0,0
138922,-100,4,2,11,60,0,0
139083,-100,4,2,11,60,0,0
139244,-111.111111111111,4,2,14,60,0,0
139459,-111.111111111111,4,2,11,60,0,0
139889,-100,4,2,14,60,0,0
140105,-100,4,2,11,60,0,0
140535,-250,4,2,14,60,0,0
140750,-250,4,2,11,60,0,0
141180,-100,4,2,10,60,0,0
141502,-83.3333333333333,4,2,10,60,0,0
141825,-83.3333333333333,4,2,10,60,0,0
141906,-83.3333333333333,4,2,10,60,0,0
142066,-83.3333333333333,4,2,10,5,0,0
142148,-83.3333333333333,4,2,10,60,0,0
142309,-83.3333333333333,4,2,11,62,0,0
142470,-83.3333333333333,4,2,10,64,0,0
142631,-83.3333333333333,4,2,11,66,0,0
142793,-83.3333333333333,4,2,10,68,0,0
142954,-83.3333333333333,4,2,11,70,0,0
143115,-100,4,2,11,70,0,0
143223,-100,4,2,11,5,0,0
143330,-71.4285714285714,4,2,10,72,0,0
143438,-71.4285714285714,4,2,10,5,0,0
143545,-55.5555555555556,4,2,11,74,0,0
143653,-55.5555555555556,4,2,11,5,0,0
143760,-66.6666666666667,4,2,10,70,0,0
143841,-66.6666666666667,4,2,10,70,0,0
144001,-66.6666666666667,4,2,10,5,0,0
144083,-333.333333333333,4,2,10,70,0,0
144164,-333.333333333333,4,2,10,70,0,0
144324,-333.333333333333,4,2,10,5,0,0
144406,-166.666666666667,4,2,13,70,0,1
144486,-166.666666666667,4,2,13,70,0,1
144647,-166.666666666667,4,2,13,5,0,1
144728,-83.3333333333333,4,2,15,70,0,1
144809,-83.3333333333333,4,2,15,70,0,1
144969,-83.3333333333333,4,2,15,5,0,1
145051,-83.3333333333333,4,2,22,70,0,1
145535,-83.3333333333333,4,2,11,70,0,1
145696,-83.3333333333333,4,2,22,70,0,1
146664,-200,4,2,22,70,0,1
146745,-200,4,2,22,70,0,1
146905,-200,4,2,22,5,0,1
146986,-66.6666666666667,4,2,10,70,0,1
147067,-66.6666666666667,4,2,10,70,0,1
147227,-66.6666666666667,4,2,10,5,0,1
147309,-66.6666666666667,4,2,22,70,0,1
148116,-66.6666666666667,4,2,11,70,0,1
148277,-66.6666666666667,4,2,13,70,0,1
148438,-66.6666666666667,4,2,11,70,0,1
148599,-66.6666666666667,4,2,16,70,0,1
148761,-66.6666666666667,4,2,11,70,0,1
148922,-66.6666666666667,4,2,13,70,0,1
149083,-66.6666666666667,4,2,11,70,0,1
149244,-250,4,2,10,70,0,1
149324,-250,4,2,10,70,0,1
149485,-250,4,2,10,5,0,1
149566,-125,4,2,10,70,0,1
149647,-125,4,2,10,70,0,1
149808,-125,4,2,10,5,0,1
149889,-83.3333333333333,4,2,12,70,0,1
150051,-83.3333333333333,4,2,11,70,0,1
150212,-83.3333333333333,4,2,15,70,0,1
150695,-71.4285714285714,4,2,11,70,0,1
150776,-71.4285714285714,4,2,1,70,0,1
151099,-71.4285714285714,4,2,11,5,0,1
151179,-71.4285714285714,4,2,12,70,0,1
151341,-71.4285714285714,4,2,11,70,0,1
151503,-71.4285714285714,4,2,15,70,0,1
151987,-71.4285714285714,4,2,11,70,0,1
152148,-83.3333333333333,4,2,15,70,0,1
152228,-83.3333333333333,4,2,15,70,0,1
152389,-83.3333333333333,4,2,15,5,0,1
152470,-83.3333333333333,4,2,15,70,0,1
152631,-71.4285714285714,4,2,11,70,0,1
152793,-71.4285714285714,4,2,15,70,0,1
153277,-71.4285714285714,4,2,11,70,0,1
153358,-62.5,4,2,1,70,0,1
153680,-62.5,4,2,11,5,0,1
153761,-83.3333333333333,4,2,12,70,0,1
153922,-83.3333333333333,4,2,10,70,0,1
154083,-83.3333333333333,4,2,15,70,0,1
154406,-83.3333333333333,4,2,10,70,0,1
154567,-83.3333333333333,4,2,11,70,0,1
154728,-83.3333333333333,4,2,15,70,0,1
154809,-83.3333333333333,4,2,15,70,0,1
154969,-83.3333333333333,4,2,15,5,0,1
155051,-83.3333333333333,4,2,15,70,0,1
155212,-71.4285714285714,4,2,11,70,0,1
155374,-71.4285714285714,4,2,15,70,0,1
155857,-83.3333333333333,4,2,11,70,0,1
155938,-83.3333333333333,4,2,11,70,0,1
156098,-83.3333333333333,4,2,11,5,0,1
156180,-83.3333333333333,4,2,11,70,0,1
156341,-83.3333333333333,4,2,15,70,0,1
156664,-83.3333333333333,4,2,15,70,0,1
156986,-71.4285714285714,4,2,15,70,0,1
157309,-62.5,4,2,15,70,0,1
157793,-76.9230769230769,4,2,15,70,0,1
157874,-76.9230769230769,4,2,15,5,0,1
158116,-76.9230769230769,4,2,15,70,0,1
158196,-76.9230769230769,4,2,15,5,0,1
158438,-66.6666666666667,4,2,15,70,0,1
158922,-100,4,2,15,70,0,1
159245,-100,4,2,10,70,0,1
159406,-100,4,2,10,70,0,1
159567,-100,4,2,10,70,0,1
159728,-100,4,2,11,70,0,1
159889,-83.3333333333333,4,2,10,70,0,1
159970,-83.3333333333333,4,2,10,70,0,1
160130,-83.3333333333333,4,2,10,5,0,1
160212,-100,4,2,14,70,0,1
160374,-100,4,2,11,70,0,1
160535,-100,4,2,14,70,0,1
160696,-100,4,2,11,70,0,1
160858,-100,4,2,14,70,0,1
161019,-66.6666666666667,4,2,12,70,0,1
161502,-66.6666666666667,4,2,14,70,0,1
161664,-71.4285714285714,4,2,11,70,0,1
161825,-71.4285714285714,4,2,15,70,0,1
162309,-71.4285714285714,4,2,15,70,0,1
162390,-71.4285714285714,4,2,15,70,0,1
162550,-71.4285714285714,4,2,15,5,0,1
162632,-100,4,2,15,70,0,1
163760,-166.666666666667,4,2,15,70,0,0
165051,-166.666666666667,4,2,11,40,0,0
166019,-166.666666666667,4,2,15,50,0,0
166341,-100,4,2,15,60,0,0
166825,-71.4285714285714,4,2,15,60,0,0
167470,-71.4285714285714,4,2,10,60,0,0
167954,-100,4,2,14,60,0,0
168599,-100,4,2,12,60,0,0
168760,-100,4,2,11,60,0,0
168922,-100,4,2,11,60,0,0
169083,-100,4,2,11,60,0,0
169244,-100,4,2,14,60,0,0
169406,-100,4,2,11,60,0,0
169567,-100,4,2,11,60,0,0
169728,-100,4,2,16,60,0,0
169809,-100,4,2,11,60,0,0
169889,-83.3333333333333,4,2,14,60,0,0
169997,-83.3333333333333,4,2,11,60,0,0
170212,-83.3333333333333,4,2,12,60,0,0
170373,-83.3333333333333,4,2,11,60,0,0
170535,-83.3333333333333,4,2,14,60,0,0
170696,-83.3333333333333,4,2,12,60,0,0
171180,-83.3333333333333,4,2,14,60,0,0
171341,-125,4,2,14,60,0,0
172954,-125,4,2,11,60,0,0
173115,-125,4,2,14,60,0,0
173277,-125,4,2,11,60,0,0
173438,-125,4,2,10,60,0,0
173922,-125,4,2,10,60,0,0
174083,-125,4,2,10,60,0,0
174406,-125,4,2,12,60,0,0
174567,-166.666666666667,4,2,12,60,0,0
174648,-166.666666666667,4,2,12,60,0,0
174808,-166.666666666667,4,2,12,5,0,0
174889,-166.666666666667,4,2,12,60,0,0
175051,-166.666666666667,4,2,14,60,0,0
175212,-83.3333333333333,4,2,12,60,0,0
175293,-83.3333333333333,4,2,12,60,0,0
175453,-83.3333333333333,4,2,12,5,0,0
175535,-83.3333333333333,4,2,12,60,0,0
175696,-125,4,2,14,60,0,0
176449,-125,4,2,11,60,0,0
176664,-125,4,2,14,60,0,0
176771,-125,4,2,11,60,0,0
176986,-125,4,2,14,60,0,0
177094,-125,4,2,11,60,0,0
177309,-125,4,2,11,60,0,0
177416,-125,4,2,13,60,0,0
177631,-100,4,2,12,60,0,0
177712,-100,4,2,12,60,0,0
177872,-100,4,2,12,5,0,0
177954,-100,4,2,12,60,0,0
178115,-100,4,2,11,60,0,0
178277,-100,4,2,14,60,0,0
178438,-142.857142857143,4,2,12,60,0,0
178720,-142.857142857143,4,2,14,60,0,0
179083,-142.857142857143,4,2,12,60,0,0
179164,-142.857142857143,4,2,1,60,0,0
180212,-142.857142857143,4,2,11,5,0,0
180535,-250.000000000001,4,2,11,20,0,0
181099,-250.000000000001,4,2,1,20,0,0
181502,-250.000000000001,4,2,11,20,0,0
181744,-250.000000000001,4,2,1,20,0,0
182148,-250.000000000001,4,2,11,20,0,0
182389,-250.000000000001,4,2,1,20,0,0
182793,-250.000000000001,4,2,11,20,0,0
182954,-833.333333333333,4,2,11,20,0,0
183035,-833.333333333333,4,2,1,20,0,0
185373,-833.333333333333,4,2,11,20,0,0
185696,-500.000000000003,4,2,15,30,0,0
185857,-500.000000000003,4,2,15,32,0,0
186019,-333.333333333334,4,2,15,34,0,0
186180,-333.333333333334,4,2,15,36,0,0
186341,-250.000000000001,4,2,15,38,0,0
186502,-250.000000000001,4,2,15,40,0,0
186664,-200,4,2,15,42,0,0
186825,-200,4,2,15,44,0,0
186986,-200,4,2,15,46,0,0
187148,-200,4,2,15,48,0,0
187309,-200,4,2,15,50,0,0
187470,-200,4,2,15,52,0,0
187631,-200,4,2,15,54,0,0
187793,-200,4,2,15,56,0,0
187954,-200,4,2,15,58,0,0
188115,-200,4,2,15,60,0,0
188277,-200,4,2,15,62,0,0
188438,-200,4,2,15,64,0,0
188599,-200,4,2,15,66,0,0
188760,-200,4,2,15,68,0,0
189083,-200,4,2,15,70,0,0
189567,-83.3333333333333,4,2,15,70,0,0
189648,-83.3333333333333,4,2,15,70,0,0
189808,-83.3333333333333,4,2,15,5,0,0
189889,-83.3333333333333,4,2,13,70,0,0
190051,-83.3333333333333,4,2,10,70,0,0
190535,-83.3333333333333,4,2,11,70,0,0
190696,-83.3333333333333,4,2,15,70,0,0
191180,-83.3333333333333,4,2,11,70,0,0
191341,-100,4,2,10,70,0,0
191825,-100,4,2,15,70,0,0
191986,-100,4,2,11,70,0,0
192148,-83.3333333333333,4,2,10,70,0,0
192470,-83.3333333333333,4,2,11,70,0,0
192631,-83.3333333333333,4,2,15,70,0,0
193115,-83.3333333333333,4,2,11,70,0,0
193277,-83.3333333333333,4,2,10,70,0,0
193760,-83.3333333333333,4,2,11,70,0,0
193922,-83.3333333333333,4,2,15,70,0,0
194002,-83.3333333333333,4,2,15,70,0,0
194163,-83.3333333333333,4,2,15,5,0,0
194244,-100,4,2,15,70,0,0
194406,-100,4,2,10,70,0,0
194728,-76.9230769230769,4,2,10,70,0,0
194809,-76.9230769230769,4,2,10,70,0,0
194969,-76.9230769230769,4,2,10,5,0,0
195051,-83.3333333333333,4,2,12,70,0,0
195212,-83.3333333333333,4,2,11,70,0,0
195373,-83.3333333333333,4,2,11,70,0,0
195534,-83.3333333333333,4,2,10,70,0,0
195696,-83.3333333333333,4,2,11,70,0,0
195857,-83.3333333333333,4,2,11,70,0,0
196341,-83.3333333333333,4,2,12,70,0,0
196502,-83.3333333333333,4,2,11,70,0,0
196664,-83.3333333333333,4,2,11,70,0,0
196825,-83.3333333333333,4,2,10,70,0,0
197148,-83.3333333333333,4,2,11,70,0,0
197228,-83.3333333333333,4,2,10,70,0,0
197309,-76.9230769230769,4,2,10,70,0,0
197389,-76.9230769230769,4,2,10,70,0,0
197550,-76.9230769230769,4,2,10,5,0,0
197631,-83.3333333333333,4,2,12,70,0,0
197793,-83.3333333333333,4,2,11,70,0,0
197954,-83.3333333333333,4,2,11,70,0,0
198115,-83.3333333333333,4,2,10,70,0,0
198277,-83.3333333333333,4,2,11,70,0,0
198438,-83.3333333333333,4,2,11,70,0,0
198760,-83.3333333333333,4,2,10,70,0,0
198922,-83.3333333333333,4,2,12,70,0,0
199083,-83.3333333333333,4,2,11,70,0,0
199244,-83.3333333333333,4,2,12,70,0,0
199406,-83.3333333333333,4,2,11,70,0,0
199567,-83.3333333333333,4,2,10,70,0,0
199728,-83.3333333333333,4,2,11,70,0,0
199809,-83.3333333333333,4,2,12,70,0,0
199889,-83.3333333333333,4,2,12,70,0,1
199970,-83.3333333333333,4,2,12,70,0,1
200130,-83.3333333333333,4,2,12,5,0,1
200212,-100,4,2,12,70,0,1
200373,-100,4,2,11,70,0,1
200535,-100,4,2,10,70,0,1
201019,-83.3333333333333,4,2,17,70,0,1
201180,-83.3333333333333,4,2,12,70,0,1
201664,-83.3333333333333,4,2,11,70,0,1
201825,-83.3333333333333,4,2,13,70,0,1
201905,-83.3333333333333,4,2,11,70,0,1
202148,-83.3333333333333,4,2,12,70,0,1
202309,-83.3333333333333,4,2,11,70,0,1
202389,-83.3333333333333,4,2,10,70,0,1
202631,-83.3333333333333,4,2,11,70,0,1
202793,-83.3333333333333,4,2,12,70,0,1
202954,-83.3333333333333,4,2,11,70,0,1
203115,-83.3333333333333,4,2,10,70,0,1
203599,-83.3333333333333,4,2,11,70,0,1
203760,-83.3333333333333,4,2,10,70,0,1
204083,-83.3333333333333,4,2,13,70,0,1
204244,-83.3333333333333,4,2,11,70,0,1
204406,-83.3333333333333,4,2,11,70,0,1
204567,-83.3333333333333,4,2,10,70,0,1
204728,-83.3333333333333,4,2,10,70,0,1
204889,-83.3333333333333,4,2,11,70,0,1
205051,-83.3333333333333,4,2,10,70,0,1
205132,-83.3333333333333,4,2,10,70,0,1
205292,-83.3333333333333,4,2,10,5,0,1
205374,-83.3333333333333,4,2,10,70,0,1
205535,-83.3333333333333,4,2,11,70,0,1
205696,-83.3333333333333,4,2,10,70,0,1
206180,-71.4285714285714,4,2,11,70,0,1
206341,-71.4285714285714,4,2,10,70,0,1
206825,-71.4285714285714,4,2,11,70,0,1
206986,-71.4285714285714,4,2,11,70,0,1
207066,-71.4285714285714,4,2,10,70,0,1
207148,-71.4285714285714,4,2,11,70,0,1
207309,-71.4285714285714,4,2,10,70,0,1
207470,-71.4285714285714,4,2,11,70,0,1
207631,-71.4285714285714,4,2,15,70,0,1
207793,-71.4285714285714,4,2,15,70,0,1
207954,-71.4285714285714,4,2,15,70,0,1
208115,-71.4285714285714,4,2,11,70,0,1
208277,-71.4285714285714,4,2,10,70,0,1
209244,-100,4,2,10,70,0,1
209567,-100,4,2,10,70,0,1
209674,-100,4,2,10,70,0,1
209889,-100,4,2,10,70,0,1
209997,-100,4,2,10,70,0,1
210212,-100,4,2,10,70,0,0
210535,-100,4,2,13,28,0,0
210857,-100,4,2,13,30,0,0
211180,-100,4,2,13,32,0,0
211502,-100,4,2,13,34,0,0
211825,-100,4,2,13,36,0,0
212148,-100,4,2,13,38,0,0
212470,-100,4,2,13,40,0,0
212793,-100,4,2,13,42,0,0
213115,-100,4,2,13,44,0,0
213438,-100,4,2,13,46,0,0
213760,-100,4,2,13,48,0,0
214083,-100,4,2,13,50,0,0
214406,-100,4,2,13,60,0,0
214567,-100,4,2,10,60,0,0
215051,-250,4,2,10,60,0,0
215131,-250,4,2,10,60,0,0
215292,-250,4,2,10,5,0,0
215373,-125,4,2,12,60,0,0
215696,-125,4,2,11,60,0,0
215857,-200,4,2,11,60,0,0
215938,-200,4,2,1,60,0,0
216341,-200,4,2,14,60,0,0
216502,-125,4,2,14,60,0,0
217148,-200,4,2,11,60,0,0
217228,-200,4,2,1,60,0,0
217631,-200,4,2,14,60,0,0
217793,-200,4,2,11,60,0,0
217954,-100,4,2,10,60,0,0
218277,-100,4,2,14,60,0,0
218438,-125,4,2,11,60,0,0
218760,-125,4,2,11,60,0,0
218922,-125,4,2,14,60,0,0
219083,-125,4,2,11,60,0,0
219406,-125,4,2,11,60,0,0
219567,-125,4,2,14,60,0,0
219728,-125,4,2,11,60,0,0
219889,-90.9090909090909,4,2,15,60,0,0
220535,-250,4,2,15,60,0,0
220615,-250,4,2,15,60,0,0
220776,-250,4,2,15,5,0,0
220857,-250,4,2,15,38,0,0
221019,-250,4,2,15,41,0,0
221180,-250,4,2,15,44,0,0
221341,-250,4,2,15,47,0,0
221502,-250,4,2,15,50,0,0
221664,-250,4,2,15,53,0,0
221825,-250,4,2,15,56,0,0
221986,-250,4,2,15,59,0,0
222148,-250,4,2,15,62,0,0
222309,-250,4,2,15,65,0,0
222470,-250,4,2,15,68,0,0
222631,-250,4,2,15,71,0,0
222793,-250,4,2,15,74,0,0
222954,-250,4,2,15,77,0,0
223115,-100,4,2,15,80,0,0
223196,-100,4,2,15,80,0,0
223356,-100,4,2,15,5,0,0
224406,-100,4,2,18,70,0,0
224486,-100,4,2,18,70,0,0
225535,-100,4,2,18,5,0,0
225696,-142.857142857143,4,2,19,70,0,1
225777,-142.857142857143,4,2,19,70,0,1
225938,-142.857142857143,4,2,19,5,0,1
226018,-66.6666666666667,4,2,20,70,0,1
226099,-66.6666666666667,4,2,20,70,0,1
226180,-66.6666666666667,4,2,15,70,0,1
226260,-76.9230769230769,4,2,16,70,0,1
226341,-76.9230769230769,4,2,21,70,0,1
226502,-76.9230769230769,4,2,17,70,0,1
226664,-76.9230769230769,4,2,22,70,0,1
226825,-76.9230769230769,4,2,16,70,0,1
226986,-76.9230769230769,4,2,23,70,0,1
227147,-76.9230769230769,4,2,19,70,0,1
227309,-76.9230769230769,4,2,24,70,0,1
227470,-76.9230769230769,4,2,18,70,0,1
227551,-76.9230769230769,4,2,16,70,0,1
227631,-76.9230769230769,4,2,25,70,0,1
227793,-76.9230769230769,4,2,20,70,0,1
227954,-166.666666666667,4,2,26,70,0,1
228035,-166.666666666667,4,2,26,70,0,1
228196,-166.666666666667,4,2,26,5,0,1
228277,-62.5,4,2,27,70,0,1
228357,-62.5,4,2,27,70,0,1
228438,-62.5,4,2,21,70,0,1
228519,-62.5,4,2,21,5,0,1
228599,-62.5,4,2,28,70,0,1
228760,-62.5,4,2,15,70,0,1
228922,-62.5,4,2,29,70,0,1
229083,-62.5,4,2,22,70,0,1
229244,-62.5,4,2,30,70,0,1
229406,-62.5,4,2,23,70,0,1
229567,-62.5,4,2,31,70,0,1
229728,-62.5,4,2,24,70,0,1
229889,-62.5,4,2,32,70,0,1
230051,-62.5,4,2,25,70,0,1
230212,-62.5,4,2,33,70,0,1
230373,-62.5,4,2,26,70,0,1
230535,-200,4,2,27,70,0,1
230615,-200,4,2,27,70,0,1
230777,-200,4,2,27,5,0,1
230857,-111.111111111111,4,2,28,70,0,1
230938,-111.111111111111,4,2,28,70,0,1
231019,-111.111111111111,4,2,29,70,0,1
231099,-111.111111111111,4,2,29,5,0,1
231180,-76.9230769230769,4,2,34,70,0,1
231341,-76.9230769230769,4,2,30,70,0,1
231502,-76.9230769230769,4,2,10,70,0,1
231825,-76.9230769230769,4,2,35,70,0,1
231986,-66.6666666666667,4,2,31,70,0,1
232067,-66.6666666666667,4,2,31,70,0,1
232148,-66.6666666666667,4,2,32,70,0,1
232309,-66.6666666666667,4,2,10,70,0,1
232314,-66.6666666666667,4,2,29,70,0,1
232389,-66.6666666666667,4,2,29,5,0,1
232470,-66.6666666666667,4,2,36,70,0,1
232631,-58.8235294117647,4,2,33,70,0,1
232793,-58.8235294117647,4,2,10,70,0,1
233115,-58.8235294117647,4,2,37,70,0,1
233277,-58.8235294117647,4,2,34,70,0,1
233438,-76.9230769230769,4,2,38,70,0,1
233518,-76.9230769230769,4,2,38,70,0,1
233600,-76.9230769230769,4,2,35,70,0,1
233680,-76.9230769230769,4,2,35,5,0,1
233760,-76.9230769230769,4,2,39,70,0,1
233922,-66.6666666666667,4,2,36,70,0,1
234083,-66.6666666666667,4,2,10,70,0,1
234406,-66.6666666666667,4,2,40,70,0,1
234567,-66.6666666666667,4,2,37,70,0,1
234648,-58.8235294117647,4,2,37,70,0,1
234729,-58.8235294117647,4,2,38,70,0,1
234890,-58.8235294117647,4,2,11,70,0,1
234895,-58.8235294117647,4,2,39,70,0,1
234970,-58.8235294117647,4,2,39,5,0,1
235051,-76.9230769230769,4,2,41,70,0,1
235212,-76.9230769230769,4,2,40,70,0,1
235373,-76.9230769230769,4,2,42,70,0,1
235535,-76.9230769230769,4,2,43,70,0,1
235696,-76.9230769230769,4,2,44,70,0,1
235857,-76.9230769230769,4,2,45,70,0,1
236018,-76.9230769230769,4,2,46,70,0,1
236099,-76.9230769230769,4,2,46,70,0,1
236180,-76.9230769230769,4,2,41,70,0,1
236260,-76.9230769230769,4,2,41,5,0,1
236341,-76.9230769230769,4,2,47,70,0,1
236502,-66.6666666666667,4,2,42,70,0,1
236664,-66.6666666666667,4,2,48,70,0,1
236824,-66.6666666666667,4,2,43,70,0,1
236986,-66.6666666666667,4,2,49,70,0,1
237148,-76.9230769230769,4,2,44,70,0,1
237228,-76.9230769230769,4,2,44,70,0,1
237309,-76.9230769230769,4,2,45,70,0,1
237389,-76.9230769230769,4,2,45,5,0,1
237470,-76.9230769230769,4,2,49,70,0,1
237631,-76.9230769230769,4,2,41,70,0,1
237793,-76.9230769230769,4,2,46,70,0,1
237874,-76.9230769230769,4,2,10,70,0,1
237954,-76.9230769230769,4,2,50,70,0,1
238277,-66.6666666666667,4,2,51,70,0,1
238599,-58.8235294117647,4,2,52,70,0,1
238760,-58.8235294117647,4,2,47,70,0,1
238841,-58.8235294117647,4,2,10,70,0,1
238922,-58.8235294117647,4,2,53,70,0,1
239083,-71.4285714285714,4,2,54,70,0,1
239164,-71.4285714285714,4,2,54,5,0,1
239406,-71.4285714285714,4,2,55,70,0,1
239486,-71.4285714285714,4,2,55,5,0,1
239728,-62.5,4,2,56,70,0,1
239890,-62.5,4,2,48,70,0,1
240050,-62.5,4,2,50,70,0,1
240212,-90.9090909090909,4,2,57,70,0,1
240293,-90.9090909090909,4,2,51,70,0,1
240374,-90.9090909090909,4,2,14,70,0,1
240455,-90.9090909090909,4,2,15,70,0,1
240535,-90.9090909090909,4,2,58,70,0,1
240615,-90.9090909090909,4,2,52,70,0,1
240696,-76.9230769230769,4,2,53,70,0,1
240777,-76.9230769230769,4,2,54,70,0,1
240857,-76.9230769230769,4,2,59,70,0,1
240938,-76.9230769230769,4,2,60,70,0,1
241018,-76.9230769230769,4,2,61,70,0,1
241099,-76.9230769230769,4,2,62,70,0,1
241180,-76.9230769230769,4,2,63,70,0,1
241260,-76.9230769230769,4,2,63,70,0,1
241342,-76.9230769230769,4,2,50,70,0,1
241422,-76.9230769230769,4,2,50,5,0,1
241502,-76.9230769230769,4,2,64,70,0,1
241664,-76.9230769230769,4,2,55,70,0,1
241825,-76.9230769230769,4,2,65,70,0,1
241986,-76.9230769230769,4,2,57,70,0,1
242148,-76.9230769230769,4,2,66,70,0,1
242309,-71.4285714285714,4,2,67,70,0,1
242471,-71.4285714285714,4,2,56,70,0,1
242631,-71.4285714285714,4,2,41,70,0,1
242793,-71.4285714285714,4,2,68,70,0,1
242954,-66.6666666666667,4,2,58,70,0,1
243115,-66.6666666666667,4,2,10,70,0,1
243276,-66.6666666666667,4,2,59,70,0,1
243438,-66.6666666666667,4,2,69,70,0,1
243599,-62.5,4,2,70,70,0,1
243680,-62.5,4,2,70,70,0,1
243761,-62.5,4,2,32,70,0,1
243841,-62.5,4,2,32,5,0,1
243922,-100,4,2,60,70,0,1
244083,-100,4,2,71,70,0,1
244244,-100,4,2,61,70,0,1
244406,-100,4,2,72,70,0,1
244567,-100,4,2,62,70,0,1
244728,-100,4,2,73,70,0,1
244889,-100,4,2,63,70,0,1
245051,-100,4,2,74,70,0,1
245212,-100,4,2,64,70,0,1
245293,-100,4,2,66,70,0,1
245373,-100,4,2,75,70,0,1
245454,-100,4,2,68,70,0,1
245535,-100,4,2,69,70,0,1
245615,-100,4,2,68,70,0,1
245696,-100,4,2,76,70,0,1
245776,-100,4,2,68,70,0,1
245857,-100,4,2,70,70,0,1
245937,-100,4,2,71,70,0,1
246019,-100,4,2,13,70,0,1
246099,-100,4,2,16,70,0,1
246180,-100,4,2,65,70,0,1
246260,-100,4,2,67,70,0,1
246341,-66.6666666666667,4,2,77,70,0,0
246422,-66.6666666666667,4,2,77,70,0,0
246503,-66.6666666666667,4,2,72,70,0,0
246583,-66.6666666666667,4,2,72,5,0,0
246664,-100,4,2,78,85,0,1
246825,-100,4,2,73,80,0,1
246986,-100,4,2,79,80,0,1
247148,-100,4,2,74,80,0,1
247309,-100,4,2,80,80,0,1
247470,-100,4,2,75,80,0,1
247631,-100,4,2,79,85,0,1
247793,-100,4,2,74,80,0,1
247954,-100,4,2,81,80,0,1
248115,-100,4,2,76,80,0,1
248277,-100,4,2,82,80,0,1
248438,-100,4,2,77,80,0,1
248599,-100,4,2,17,85,0,1
248760,-100,4,2,78,80,0,1
248922,-62.5,4,2,83,85,0,1
249083,-62.5,4,2,79,80,0,1
249244,-62.5,4,2,84,80,0,1
249406,-62.5,4,2,80,80,0,1
249567,-62.5,4,2,85,80,0,1
249728,-62.5,4,2,81,80,0,1
249889,-62.5,4,2,86,80,0,1
250051,-62.5,4,2,82,80,0,1
250212,-62.5,4,2,87,85,0,1
250373,-62.5,4,2,83,80,0,1
250535,-62.5,4,2,88,80,0,1
250696,-62.5,4,2,84,80,0,1
250857,-62.5,4,2,89,80,0,1
251019,-62.5,4,2,85,80,0,1
251180,-250,4,2,90,80,0,0
251260,-250,4,2,90,80,0,0
251342,-250,4,2,83,80,0,0
251422,-250,4,2,83,5,0,0
251502,-66.6666666666667,4,2,86,90,0,1
251583,-66.6666666666667,4,2,86,90,0,1
251664,-66.6666666666667,4,2,87,80,0,1
251744,-66.6666666666667,4,2,87,5,0,1
251825,-100,4,2,91,85,0,1
251986,-100,4,2,88,80,0,1
252148,-100,4,2,92,80,0,1
252309,-100,4,2,87,80,0,1
252470,-100,4,2,93,80,0,1
252631,-100,4,2,89,80,0,1
252793,-100,4,2,94,85,0,1
252954,-100,4,2,87,80,0,1
253115,-100,4,2,94,80,0,1
253277,-100,4,2,87,80,0,1
253438,-100,4,2,94,80,0,1
253599,-100,4,2,87,80,0,1
253760,-100,4,2,18,85,0,1
253922,-100,4,2,90,80,0,1
254083,-55.5555555555556,4,2,95,85,0,1
254244,-55.5555555555556,4,2,91,80,0,1
254406,-55.5555555555556,4,2,96,80,0,1
254567,-55.5555555555556,4,2,92,80,0,1
254728,-55.5555555555556,4,2,97,80,0,1
254889,-55.5555555555556,4,2,91,80,0,1
255051,-55.5555555555556,4,2,98,80,0,1
255212,-55.5555555555556,4,2,93,80,0,1
255373,-66.6666666666667,4,2,99,70,0,1
255481,-66.6666666666667,4,2,74,70,0,1
255588,-66.6666666666667,4,2,94,70,0,1
255695,-66.6666666666667,4,2,100,70,0,1
255803,-100,4,2,95,70,0,1
255911,-100,4,2,74,70,0,1
256019,-100,4,2,101,70,0,1
256126,-100,4,2,96,70,0,1
256234,-100,4,2,97,70,0,1
256341,-100,4,2,98,70,0,1
256449,-100,4,2,99,70,0,1
256556,-100,4,2,100,70,0,1
256664,-66.6666666666667,4,2,102,70,0,1
256744,-66.6666666666667,4,2,102,70,0,1
256825,-66.6666666666667,4,2,41,5,0,1
256986,-76.9230769230769,4,2,103,70,0,1
257147,-66.6666666666667,4,2,101,70,0,1
257309,-66.6666666666667,4,2,104,70,0,1
257470,-66.6666666666667,4,2,43,70,0,1
257631,-66.6666666666667,4,2,105,70,0,1
257793,-76.9230769230769,4,2,44,70,0,1
257873,-76.9230769230769,4,2,44,70,0,1
257954,-76.9230769230769,4,2,102,5,0,1
258115,-76.9230769230769,4,2,49,70,0,1
258277,-76.9230769230769,4,2,106,70,0,1
258438,-76.9230769230769,4,2,103,70,0,1
258519,-76.9230769230769,4,2,10,70,0,1
258599,-76.9230769230769,4,2,107,70,0,1
258922,-66.6666666666667,4,2,108,70,0,1
259244,-58.8235294117647,4,2,109,70,0,1
259405,-58.8235294117647,4,2,47,70,0,1
259486,-58.8235294117647,4,2,10,70,0,1
259567,-58.8235294117647,4,2,53,70,0,1
259728,-71.4285714285714,4,2,110,70,0,1
259809,-71.4285714285714,4,2,111,5,0,1
260051,-71.4285714285714,4,2,111,70,0,1
260131,-71.4285714285714,4,2,111,5,0,1
260373,-62.5,4,2,112,70,0,1
260695,-62.5,4,2,50,70,0,1
260857,-90.9090909090909,4,2,113,70,0,1
261019,-90.9090909090909,4,2,19,70,0,1
261181,-90.9090909090909,4,2,10,70,0,1
261341,-76.9230769230769,4,2,10,70,0,1
261503,-76.9230769230769,4,2,10,70,0,1
261664,-76.9230769230769,4,2,114,70,0,1
261825,-76.9230769230769,4,2,63,70,0,1
261905,-76.9230769230769,4,2,63,70,0,1
261986,-76.9230769230769,4,2,50,5,0,1
262147,-76.9230769230769,4,2,64,70,0,1
262309,-76.9230769230769,4,2,55,70,0,1
262470,-76.9230769230769,4,2,65,70,0,1
262631,-76.9230769230769,4,2,105,70,0,1
262793,-76.9230769230769,4,2,66,70,0,1
262954,-71.4285714285714,4,2,67,70,0,1
263116,-71.4285714285714,4,2,56,70,0,1
263276,-71.4285714285714,4,2,41,70,0,1
263438,-71.4285714285714,4,2,68,70,0,1
263599,-66.6666666666667,4,2,58,70,0,1
263760,-66.6666666666667,4,2,10,70,0,1
263921,-66.6666666666667,4,2,59,70,0,1
264083,-66.6666666666667,4,2,69,70,0,1
264244,-62.5,4,2,115,70,0,1
264325,-62.5,4,2,115,70,0,1
264406,-62.5,4,2,32,5,0,1
264567,-100,4,2,60,70,0,1
264728,-100,4,2,116,70,0,1
264889,-100,4,2,15,70,0,1
265051,-100,4,2,42,70,0,1
265212,-100,4,2,104,70,0,1
265373,-100,4,2,117,70,0,1
265535,-100,4,2,106,70,0,1
265696,-76.9230769230769,4,2,118,70,0,0
265777,-76.9230769230769,4,2,118,5,0,0
266341,-83.3333333333333,4,2,119,70,0,0
266422,-83.3333333333333,4,2,119,5,0,0
266986,-66.6666666666667,4,2,120,70,0,1
267067,-66.6666666666667,4,2,120,70,0,1
267148,-66.6666666666667,4,2,107,5,0,1
267309,-66.6666666666667,4,2,121,70,0,1
267470,-66.6666666666667,4,2,122,70,0,1
267631,-66.6666666666667,4,2,108,70,0,1
267792,-66.6666666666667,4,2,109,70,0,1
267954,-66.6666666666667,4,2,123,70,0,1
268115,-66.6666666666667,4,2,107,70,0,1
268276,-66.6666666666667,4,2,121,70,0,1
268438,-66.6666666666667,4,2,122,70,0,1
268599,-66.6666666666667,4,2,108,70,0,1
268760,-66.6666666666667,4,2,109,70,0,1
268922,-66.6666666666667,4,2,124,70,0,1
269083,-66.6666666666667,4,2,110,70,0,1
269244,-66.6666666666667,4,2,111,70,0,1
269405,-66.6666666666667,4,2,112,70,0,1
269567,-55.5555555555556,4,2,125,70,0,1
269647,-55.5555555555556,4,2,125,70,0,1
269728,-55.5555555555556,4,2,113,5,0,1
269889,-55.5555555555556,4,2,126,70,0,1
270051,-55.5555555555556,4,2,127,70,0,1
270212,-55.5555555555556,4,2,128,70,0,1
270373,-55.5555555555556,4,2,114,70,0,1
270535,-55.5555555555556,4,2,125,70,0,1
270696,-55.5555555555556,4,2,115,70,0,1
270857,-55.5555555555556,4,2,126,70,0,1
271019,-55.5555555555556,4,2,127,70,0,1
271180,-55.5555555555556,4,2,116,70,0,1
271341,-55.5555555555556,4,2,117,70,0,1
271502,-66.6666666666667,4,2,129,70,0,1
271664,-66.6666666666667,4,2,114,70,0,1
271825,-66.6666666666667,4,2,130,70,0,1
271986,-66.6666666666667,4,2,122,70,0,1
272067,-66.6666666666667,4,2,10,70,0,1
272148,-66.6666666666667,4,2,123,70,0,1
272309,-66.6666666666667,4,2,107,70,0,1
272470,-66.6666666666667,4,2,121,70,0,1
272631,-66.6666666666667,4,2,122,70,0,1
272792,-66.6666666666667,4,2,131,70,0,1
272953,-66.6666666666667,4,2,109,70,0,1
273115,-66.6666666666667,4,2,123,70,0,1
273276,-66.6666666666667,4,2,107,70,0,1
273437,-66.6666666666667,4,2,121,70,0,1
273599,-66.6666666666667,4,2,122,70,0,1
273760,-66.6666666666667,4,2,131,70,0,1
273922,-66.6666666666667,4,2,109,70,0,1
274083,-66.6666666666667,4,2,124,70,0,1
274244,-66.6666666666667,4,2,110,70,0,1
274406,-66.6666666666667,4,2,132,70,0,1
274567,-66.6666666666667,4,2,112,70,0,1
274728,-76.9230769230769,4,2,125,70,0,1
274889,-76.9230769230769,4,2,113,70,0,1
275050,-76.9230769230769,4,2,126,70,0,1
275212,-86.9565217391304,4,2,127,70,0,1
275373,-86.9565217391304,4,2,118,70,0,1
275534,-86.9565217391304,4,2,114,70,0,1
275696,-99.9999999999999,4,2,125,70,0,1
275857,-99.9999999999999,4,2,113,70,0,1
276018,-99.9999999999999,4,2,126,70,0,1
276180,-117.647058823529,4,2,133,70,0,1
276341,-117.647058823529,4,2,119,70,0,1
276502,-117.647058823529,4,2,120,70,0,1
276663,-117.647058823529,4,2,134,70,0,1
276825,-117.647058823529,4,2,121,70,0,1
276986,-117.647058823529,4,2,123,70,0,1
277148,-117.647058823529,4,2,124,70,0,1
277309,-117.647058823529,4,2,125,70,0,1
277470,-117.647058823529,4,2,126,70,0,1
277631,-117.647058823529,4,2,127,70,0,1
277793,-117.647058823529,4,2,128,70,0,1
277954,-117.647058823529,4,2,129,70,0,1
278115,-117.647058823529,4,2,130,70,0,1
278277,-117.647058823529,4,2,131,70,0,1
278438,-117.647058823529,4,2,132,70,0,1
278599,-117.647058823529,4,2,127,70,0,1
278760,-117.647058823529,4,2,128,70,0,1
278922,-117.647058823529,4,2,129,70,0,1
279082,-117.647058823529,4,2,133,70,0,1
279244,-117.647058823529,4,2,135,70,0,1
279406,-117.647058823529,4,2,136,70,0,1
279567,-117.647058823529,4,2,137,70,0,1
279728,-117.647058823529,4,2,138,70,0,1
279889,-117.647058823529,4,2,134,70,0,1
280050,-117.647058823529,4,2,139,70,0,1
280211,-117.647058823529,4,2,140,70,0,1
280373,-117.647058823529,4,2,141,70,0,1
280534,-117.647058823529,4,2,142,70,0,1
280695,-117.647058823529,4,2,143,70,0,1
280857,-117.647058823529,4,2,144,70,0,1
281018,-117.647058823529,4,2,145,70,0,1
281180,-117.647058823529,4,2,140,70,0,1
281341,-117.647058823529,4,2,146,70,0,1
281502,-117.647058823529,4,2,147,70,0,1
281663,-117.647058823529,4,2,148,70,0,1
281825,-117.647058823529,4,2,149,70,0,1
281986,-117.647058823529,4,2,150,70,0,1
282148,-117.647058823529,4,2,151,70,0,1
282309,-117.647058823529,4,2,152,70,0,1
282470,-117.647058823529,4,2,153,70,0,1
282631,-117.647058823529,4,2,126,70,0,1
282792,-117.647058823529,4,2,127,70,0,1
282954,-117.647058823529,4,2,128,70,0,1
283115,-117.647058823529,4,2,129,70,0,1
283276,-117.647058823529,4,2,130,70,0,1
283437,-117.647058823529,4,2,131,70,0,1
283599,-117.647058823529,4,2,132,70,0,1
283760,-117.647058823529,4,2,127,70,0,1
283922,-117.647058823529,4,2,128,70,0,1
284083,-117.647058823529,4,2,129,70,0,1
284244,-117.647058823529,4,2,133,70,0,1
284406,-117.647058823529,4,2,135,70,0,1
284567,-117.647058823529,4,2,136,70,0,1
284728,-117.647058823529,4,2,137,70,0,1
284889,-117.647058823529,4,2,138,70,0,1
285051,-117.647058823529,4,2,154,70,0,1
285212,-117.647058823529,4,2,139,70,0,1
285373,-117.647058823529,4,2,140,70,0,1
285535,-117.647058823529,4,2,141,70,0,1
285696,-117.647058823529,4,2,142,70,0,1
285857,-117.647058823529,4,2,143,70,0,1
286019,-117.647058823529,4,2,144,70,0,1
286180,-117.647058823529,4,2,139,70,0,1
286341,-117.647058823529,4,2,140,70,0,1
286502,-76.9230769230769,4,2,135,70,0,1
286663,-76.9230769230769,4,2,155,70,0,1
286825,-76.9230769230769,4,2,156,70,0,1
286986,-76.9230769230769,4,2,157,70,0,1
287148,-76.9230769230769,4,2,158,70,0,1
287309,-76.9230769230769,4,2,20,70,0,1
287470,-76.9230769230769,4,2,159,70,0,1
287631,-83.3333333333333,4,2,139,60,0,0
287712,-83.3333333333333,4,2,139,60,0,0
287793,-83.3333333333333,4,2,160,5,0,0
287954,-100,4,2,161,60,0,0
288115,-100,4,2,141,60,0,0
288276,-100,4,2,162,60,0,0
288437,-100,4,2,163,60,0,0
288599,-100,4,2,136,60,0,0
288760,-100,4,2,142,60,0,0
288841,-100,4,2,142,60,0,0
288922,-100,4,2,164,60,0,0
289083,-100,4,2,12,60,0,0
289088,-100,4,2,165,5,0,0
289244,340.909090909091,4,2,166,60,1,0
289414,-100,4,2,145,60,0,0
289584,-100,4,2,167,60,0,0
289754,-100,4,2,21,60,0,0
289925,-100,4,2,146,60,0,0
290096,-100,4,2,10,60,0,0
290267,282.352941176471,4,2,147,50,1,0
290267,-76.9230769230769,4,2,147,50,0,0
290337,-76.9230769230769,4,2,147,5,0,0
290831,294.840294840295,4,2,157,70,1,0
290831,-55.5555555555556,4,2,157,70,0,0
290904,-55.5555555555556,4,2,157,5,0,0
291420,300,4,2,168,70,1,0
291420,-384.615384615385,4,2,168,70,0,0
291495,-384.615384615385,4,2,9,70,0,0
292320,-384.615384615385,4,2,13,75,0,0
292325,-384.615384615385,4,2,9,75,0,0
304619,-384.615384615385,4,2,9,5,0,0

[Colours]
Combo1 : 177,37,90
Combo2 : 159,216,232
Combo3 : 242,210,231
Combo4 : 34,60,181

[HitObjects]
83,221,427,6,0,L|48:231,2,33.3333333333333,8|8|8,2:1|2:1|2:1,0:0:0:0:
29,239,615,2,0,L|106:254,2,64.9999970245363,8|0|0,2:2|2:2|2:2,0:0:0:0:
162,131,857,6,0,L|103:144,1,55.0000016784668,8|8,2:3|2:3,0:0:0:0:
33,56,1019,2,0,L|92:69,1,44.999998626709,8|8,2:3|2:3,0:0:0:0:
270,182,1180,6,0,B|225:227|225:227|271:73,1,209.999993591309,4|0,3:2|2:2,0:0:0:0:
275,57,1502,5,2,2:3:0:0:
308,265,1664,2,0,L|409:284,1,100,8|2,2:3|2:3,0:0:0:0:
512,165,1986,5,0,3:3:0:0:
479,357,2148,2,0,L|378:376,1,100,10|0,2:3|2:2,0:0:0:0:
155,268,2470,5,2,3:3:0:0:
346,168,2631,1,8,2:3:0:0:
346,168,2793,1,2,2:3:0:0:
241,79,2954,5,0,3:3:0:0:
218,94,3035,1,0,3:3:0:0:
209,123,3115,2,0,P|215:163|258:202,1,100,10|0,2:3|3:3,0:0:0:0:
143,44,3438,2,0,P|116:70|99:133,1,100,8|0,2:3|3:3,0:0:0:0:
244,336,3760,6,0,L|93:360,1,150,10|0,2:2|2:2,0:0:0:0:
68,364,4083,5,2,3:3:0:0:
125,219,4244,1,8,2:3:0:0:
125,219,4406,1,2,2:2:0:0:
249,321,4567,5,0,3:3:0:0:
196,128,4728,2,0,L|344:151,1,150,10|0,2:3|2:2,0:0:0:0:
369,156,5051,5,2,3:3:0:0:
244,22,5212,1,8,2:3:0:0:
244,22,5373,1,2,2:2:0:0:
395,0,5535,5,0,3:3:0:0:
410,16,5615,1,0,3:3:0:0:
408,49,5696,2,0,P|353:70|306:50,1,100,10|0,2:3|3:3,0:0:0:0:
242,214,6019,2,0,P|204:182|196:117,1,100,10|0,2:3|3:3,0:0:0:0:
107,16,6260,5,0,3:3:0:0:
112,27,6341,2,0,B|119:88|90:129|66:110|36:156|44:217,1,209.999993591309,10|0,2:3|2:2,0:0:0:0:
65,238,6664,1,2,3:3:0:0:
310,137,6825,6,0,P|291:108|256:191,1,179.999994506836,8|0,2:3|2:2,0:0:0:0:
259,195,7148,1,0,3:3:0:0:
148,310,7309,6,0,P|229:315|285:352,1,150,10|0,2:3|2:2,0:0:0:0:
298,370,7631,5,2,3:3:0:0:
439,250,7793,1,8,2:3:0:0:
439,250,7954,1,2,2:2:0:0:
329,241,8115,5,0,3:3:0:0:
326,264,8196,1,0,3:3:0:0:
340,291,8277,2,0,P|391:310|441:276,1,100,10|0,2:3|3:3,0:0:0:0:
280,102,8599,2,0,P|305:152|376:157,1,100,10|0,2:3|3:3,0:0:0:0:
512,40,8922,6,0,L|336:20,1,150,10|0,2:3|2:2,0:0:0:0:
333,17,9244,1,2,3:3:0:0:
239,215,9406,5,8,2:3:0:0:
239,215,9567,1,2,2:2:0:0:
144,124,9728,1,0,3:3:0:0:
211,338,9889,6,0,L|35:358,1,150,10|0,2:3|2:2,0:0:0:0:
18,324,10212,6,0,B|144:299|130:382|274:366,1,240,2|0,3:3|2:2,0:0:0:0:
337,333,10535,2,0,P|313:311|304:291,1,44.999998626709,2|0,2:2|2:2,0:0:0:0:
299,286,10857,2,0,B|282:214|338:162|414:158|437:251|386:276|346:273,1,240,10|0,2:3|2:2,0:0:0:0:
282,291,11180,2,0,P|257:183|181:101,1,209.999993591309,4|0,2:3|2:2,0:0:0:0:
83,121,11502,6,0,P|26:84|98:98,1,200,4|0,2:2|3:3,0:0:0:0:
159,241,11986,6,0,P|115:239|70:203,2,80,8|2|0,2:3|2:2|3:3,0:0:0:0:
266,297,12470,2,0,P|236:300|204:331,2,64.9999970245363,10|0|2,2:3|2:2|3:3,0:0:0:0:
354,231,12954,2,0,P|318:225|294:204,1,50,8|2,2:3|2:2,0:0:0:0:
247,107,13277,5,0,3:3:0:0:
250,101,13357,1,0,3:3:0:0:
253,95,13438,2,0,L|383:120,1,119.999996337891,10|0,2:3|3:3,0:0:0:0:
484,212,13760,2,0,L|354:237,1,119.999996337891,2|0,2:2|3:3,0:0:0:0:
207,328,14083,6,0,P|221:373|256:295,1,200,10|2,2:3|3:3,0:0:0:0:
120,243,14567,6,0,P|113:281|77:319,2,80,8|2|0,2:2|2:2|3:3,0:0:0:0:
196,150,15051,2,0,P|198:175|223:219,2,64.9999970245363,10|0|2,2:3|2:2|3:3,0:0:0:0:
131,50,15535,2,0,P|127:82|109:108,1,50,8|2,2:2|2:2,0:0:0:0:
6,178,15857,5,0,3:3:0:0:
3,171,15938,1,0,3:3:0:0:
0,164,16019,1,10,2:3:0:0:
37,88,16180,1,0,3:3:0:0:
225,254,16341,5,10,2:3:0:0:
176,175,16502,1,0,3:3:0:0:
173,182,16583,1,0,3:3:0:0:
170,189,16664,2,0,P|129:215|162:146,1,200,10|2,2:3|3:3,0:0:0:0:
326,273,17148,6,0,P|301:300|289:362,2,80,8|2|0,2:3|2:2|3:3,0:0:0:0:
420,213,17631,2,0,P|439:235|450:293,2,64.9999970245363,10|0|2,2:3|2:2|3:3,0:0:0:0:
347,126,18115,2,0,P|327:152|320:169,1,50,8|2,2:3|2:2,0:0:0:0:
387,366,18438,5,0,3:3:0:0:
394,364,18519,1,0,3:3:0:0:
401,362,18599,1,10,2:3:0:0:
451,290,18760,2,0,L|409:283,2,40,0|2|0,3:3|2:2|3:3,0:0:0:0:
250,229,19244,5,2,2:3:0:0:
250,229,19406,2,0,L|271:331,1,100,2|2,2:2|3:3,0:0:0:0:
162,384,19728,5,8,2:3:0:0:
162,384,19889,2,0,L|183:282,1,80,2|0,2:2|3:3,0:0:0:0:
79,251,20212,5,10,2:3:0:0:
79,251,20374,2,0,L|95:328,1,59.9999981689454,2|2,2:2|3:3,0:0:0:0:
11,350,20696,5,10,2:2:0:0:
182,287,20857,1,2,2:2:0:0:
7,361,21019,5,2,3:2:0:0:
190,294,21180,1,10,2:3:0:0:
83,242,21341,5,2,3:2:0:0:
73,246,21422,1,0,2:2:0:0:
61,263,21502,1,4,2:2:0:0:
61,297,21583,1,0,2:2:0:0:
89,328,21664,1,0,3:3:0:0:
142,338,21744,1,0,3:3:0:0:
197,300,21825,6,0,P|161:258|165:153,2,160,12|0|2,2:2|2:2|3:3,0:0:0:0:
371,250,22309,2,0,P|332:255|251:207,2,129.999994049073,8|2|0,2:3|2:2|3:3,0:0:0:0:
409,102,22793,5,10,2:3:0:0:
328,117,22954,2,0,P|333:134|344:154,3,33.3333333333333,2|0|0|2,2:2|2:2|2:2|3:3,0:0:0:0:
394,383,23277,6,0,P|480:341|506:284,2,160,8|2|0,2:3|2:2|3:3,0:0:0:0:
246,211,23760,2,0,P|309:258|388:259,1,160,10|0,2:3|3:3,0:0:0:0:
61,384,24083,2,0,P|131:344|231:347,1,179.999994506836,10|0,2:3|3:3,0:0:0:0:
62,94,24406,6,0,P|71:159|144:231,2,160,10|0|2,2:2|2:2|3:3,0:0:0:0:
235,0,24889,2,0,P|197:31|176:120,2,129.999994049073,8|2|0,2:3|2:2|3:3,0:0:0:0:
369,100,25373,5,10,2:3:0:0:
304,140,25535,2,0,P|292:116|293:88,3,43.3333313496908,2|0|0|2,2:2|2:2|2:2|3:3,0:0:0:0:
473,88,25857,5,8,2:3:0:0:
253,227,26019,1,4,2:1:0:0:
392,310,26180,1,0,3:3:0:0:
160,384,26341,5,2,3:2:0:0:
142,315,26422,1,8,2:2:0:0:
173,253,26502,1,8,2:2:0:0:
233,217,26583,1,8,2:2:0:0:
303,216,26664,1,10,3:2:0:0:
362,180,26744,1,8,2:2:0:0:
396,119,26825,1,8,2:2:0:0:
396,48,26906,1,8,2:2:0:0:
342,0,26986,6,0,P|359:22|358:66,2,59.9999981689454,4|0|0,2:2|2:2|2:2,0:0:0:0:
406,124,27470,2,0,P|394:156|375:172,2,50,2|0|0,2:2|2:2|2:2,0:0:0:0:
350,239,27954,2,0,P|320:238|298:223,1,40,2|0,2:2|2:2,0:0:0:0:
211,129,28277,5,2,2:3:0:0:
206,126,28438,2,0,P|178:126|143:152,1,50,2|0,2:2|2:2,0:0:0:0:
77,108,28760,1,2,2:3:0:0:
73,112,28841,1,2,2:3:0:0:
70,117,28922,2,0,P|62:138|63:177,1,59.9999981689454,2|0,2:2|2:2,0:0:0:0:
0,236,29244,2,0,P|14:268|49:292,1,59.9999981689454,2|0,2:2|2:2,0:0:0:0:
103,384,29567,6,0,P|123:342|161:322,2,80,2|2|2,2:2|2:3|2:3,0:0:0:0:
165,243,30051,2,0,P|217:249|241:273,1,69.9999978637696,2|0,2:2|2:2,0:0:0:0:
296,221,30373,1,2,2:3:0:0:
303,223,30454,1,2,2:3:0:0:
308,226,30535,2,0,P|331:253|339:282,1,59.9999981689454,2|0,2:2|2:2,0:0:0:0:
458,384,30857,5,0,2:2:0:0:
458,378,31019,2,0,P|467:338|513:293,1,100,2|0,2:1|2:2,0:0:0:0:
429,226,31341,1,2,2:3:0:0:
429,220,31422,1,2,2:3:0:0:
427,215,31502,2,0,P|403:168|365:132,1,100,2|0,2:1|2:2,0:0:0:0:
463,86,31825,2,0,P|473:45|514:4,1,100,2|2,2:1|2:3,0:0:0:0:
236,11,32148,5,4,2:2:0:0:
307,282,32309,1,8,2:2:0:0:
352,223,32389,1,8,2:2:0:0:
341,148,32470,1,8,2:2:0:0:
281,101,32551,1,8,2:2:0:0:
206,103,32631,1,8,2:2:0:0:
158,161,32712,1,8,2:2:0:0:
165,236,32793,6,0,P|221:231|241:205,2,79.9999975585938,8|8|8,2:3|2:3|2:3,0:0:0:0:
337,223,33115,2,0,P|337:189|321:153,2,66.6666666666667,8|8|8,2:3|2:3|2:3,0:0:0:0:
235,28,33438,6,0,L|276:351,1,320,4|10,2:2|2:1,0:0:0:0:
121,308,33922,2,0,B|89:326|83:364|122:394|175:376|165:325|151:327|140:296|154:263|154:263|142:296|128:303,1,239.999992675781,2|0,2:2|3:3,0:0:0:0:
421,307,34406,5,2,2:3:0:0:
235,117,34567,2,0,P|215:150|304:135,1,194.999991073609,8|0,2:2|2:2,0:0:0:0:
300,74,34889,5,0,3:3:0:0:
189,187,35051,1,10,2:1:0:0:
431,110,35212,2,0,B|439:55,2,40,2|2|0,2:2|2:3|3:3,0:0:0:0:
401,341,35696,5,10,2:1:0:0:
320,262,35857,1,0,3:3:0:0:
308,266,35938,1,0,3:3:0:0:
296,270,36019,1,2,3:3:0:0:
250,375,36180,1,0,3:3:0:0:
94,289,36341,5,8,2:1:0:0:
168,328,36502,2,0,P|142:377|87:296,1,200,2|0,2:2|3:3,0:0:0:0:
184,200,36986,5,2,2:3:0:0:
9,116,37148,2,0,P|-8:129|74:132,1,225.000008583069,8|0,2:1|2:2,0:0:0:0:
82,75,37470,5,0,3:3:0:0:
172,193,37631,1,10,2:1:0:0:
255,37,37793,1,0,2:2:0:0:
187,89,37954,1,2,2:3:0:0:
187,89,38115,1,0,3:3:0:0:
392,203,38277,6,0,L|364:62,1,119.999996337891,10|0,2:1|2:2,0:0:0:0:
366,74,38519,1,0,3:3:0:0:
364,63,38599,2,0,P|380:23|406:92,1,179.999994506836,2|0,3:3|2:2,0:0:0:0:
349,143,38922,1,10,2:1:0:0:
512,179,39083,6,0,P|513:248|480:297,1,119.999996337891,2|2,2:2|2:3,0:0:0:0:
374,320,39406,1,2,3:2:0:0:
449,375,39567,5,2,2:3:0:0:
407,230,39728,2,0,P|353:223|308:251,1,100,10|2,2:2|2:3,0:0:0:0:
277,336,40051,1,2,3:2:0:0:
219,201,40212,5,10,2:1:0:0:
181,295,40373,2,0,P|132:307|90:293,1,89.9999972534181,2|2,2:2|2:3,0:0:0:0:
47,205,40696,1,2,3:2:0:0:
6,335,40857,5,10,2:1:0:0:
89,293,41019,1,2,3:2:0:0:
85,284,41099,1,0,3:3:0:0:
81,275,41180,1,2,3:3:0:0:
23,216,41341,1,0,3:3:0:0:
196,95,41502,5,10,2:1:0:0:
194,118,41583,1,0,2:2:0:0:
183,138,41664,2,0,P|127:171|62:130,1,129.999994049073,2|2,3:2|2:3,0:0:0:0:
248,233,41986,2,0,P|299:254|369:225,1,115.000002193451,2|2,3:2|2:3,0:0:0:0:
174,309,42309,5,10,2:2:0:0:
170,314,42349,2,0,P|129:320|88:302,1,86.2500016450882,8|2,2:1|2:3,0:0:0:0:
249,384,42631,5,2,3:2:0:0:
141,203,42793,1,10,2:1:0:0:
250,222,42954,1,2,2:2:0:0:
74,294,43115,1,8,2:3:0:0:
156,340,43277,5,10,2:2:0:0:
166,321,43357,1,8,2:1:0:0:
171,294,43438,1,8,2:2:0:0:
160,256,43519,1,8,2:2:0:0:
118,221,43599,1,8,2:2:0:0:
105,163,43680,1,8,2:2:0:0:
136,105,43760,6,0,P|201:87|245:220,1,225.000008583069,4|0,3:3|2:2,0:0:0:0:
156,206,44083,2,0,P|167:158|143:116,2,100,10|2|2,2:1|2:3|2:3,0:0:0:0:
231,78,44567,1,0,3:3:0:0:
192,279,44728,5,2,2:3:0:0:
441,193,44889,2,0,P|354:185|247:218,1,194.999991073609,8|0,2:1|2:2,0:0:0:0:
204,280,45212,5,0,3:3:0:0:
341,300,45373,1,10,2:1:0:0:
140,384,45535,1,0,2:2:0:0:
228,360,45696,1,2,2:3:0:0:
228,360,45857,1,0,3:3:0:0:
125,249,46019,5,10,2:1:0:0:
236,192,46180,1,0,3:3:0:0:
233,201,46260,1,0,3:3:0:0:
230,210,46341,1,2,3:3:0:0:
177,111,46502,1,0,3:3:0:0:
198,287,46664,5,10,2:1:0:0:
247,89,46825,2,0,P|236:23|195:113,1,239.999992675781,2|0,2:2|3:3,0:0:0:0:
326,223,47309,1,2,2:3:0:0:
491,36,47470,6,0,P|466:82|327:126,1,194.999991073609,8|0,2:1|2:2,0:0:0:0:
256,100,47793,1,2,3:2:0:0:
415,214,47954,1,10,2:1:0:0:
438,121,48115,1,2,2:2:0:0:
433,123,48277,1,2,2:3:0:0:
501,187,48438,1,2,3:2:0:0:
226,290,48599,6,0,P|231:234|257:178,1,110.000003356934,10|0,2:1|2:2,0:0:0:0:
318,135,48841,1,0,3:3:0:0:
318,135,48922,2,0,P|361:194|378:341,1,194.999991073609,2|0,3:3|2:2,0:0:0:0:
349,384,49244,5,10,2:1:0:0:
478,263,49406,2,0,P|463:209|435:283,1,179.999994506836,2|0,2:2|2:2,0:0:0:0:
473,354,49728,6,0,P|400:319|256:315,1,209.999993591309,2|0,3:2|2:2,0:0:0:0:
191,348,50051,2,0,P|226:335|270:224,1,160,10|0,2:2|3:0,0:0:0:0:
268,205,50427,6,0,P|250:187|220:177,1,53.3333333333333,2|10,2:2|2:1,0:0:0:0:
203,103,50642,2,0,P|158:124|139:150,1,66.6666666666667,2|0,2:2|2:2,0:0:0:0:
74,101,50857,2,0,P|59:133|59:183,1,79.9999975585938,2|0,2:3|2:2,0:0:0:0:
0,235,51072,2,0,P|30:282|75:306,1,93.3333304850261,2|10,2:2|2:1,0:0:0:0:
85,379,51287,2,0,P|147:373|187:343,1,106.666666666667,2|0,2:2|2:2,0:0:0:0:
148,240,51502,5,2,3:3:0:0:
148,240,51664,1,0,3:3:0:0:
298,137,51825,5,10,2:1:0:0:
205,94,51986,2,0,P|152:116|126:158,1,80,2|2,3:2|2:3,0:0:0:0:
283,40,52309,2,0,P|249:10|175:4,1,100,2|2,3:2|2:2,0:0:0:0:
367,79,52631,5,8,2:1:0:0:
369,69,52712,2,0,L|341:78,1,25,2|2,2:2|2:2,0:0:0:0:
371,61,52793,1,2,2:3:0:0:
442,111,52954,5,0,3:3:0:0:
314,143,53115,1,10,2:1:0:0:
309,156,53438,5,8,2:3:0:0:
400,189,53599,1,8,2:1:0:0:
408,185,53680,1,8,2:1:0:0:
422,169,53760,1,8,2:2:0:0:
425,133,53841,1,8,2:2:0:0:
395,93,53922,1,8,2:2:0:0:
336,88,54002,1,8,2:2:0:0:
302,145,54083,6,0,L|316:302,1,139.999995727539,4|0,2:2|2:2,0:0:0:0:
411,378,54406,1,2,3:2:0:0:
440,285,54567,1,0,2:2:0:0:
440,285,54728,1,2,2:2:0:0:
501,362,54889,6,0,P|423:353|311:383,1,179.999994506836,0|0,3:3|2:2,0:0:0:0:
235,349,55212,2,0,P|292:356|324:379,1,89.9999972534181,10|0,2:2|2:2,0:0:0:0:
390,345,55535,5,2,3:2:0:0:
224,367,55696,1,10,2:2:0:0:
308,283,55857,1,2,2:2:0:0:
193,275,56019,5,2,2:2:0:0:
304,316,56180,1,2,3:2:0:0:
128,359,56341,1,10,2:2:0:0:
181,270,56502,5,2,3:2:0:0:
182,261,56583,1,0,3:3:0:0:
183,252,56664,2,0,L|166:152,1,100,2|0,3:2|3:3,0:0:0:0:
89,71,56986,5,10,2:2:0:0:
62,171,57148,1,2,2:2:0:0:
62,171,57309,1,2,2:2:0:0:
0,32,57470,6,0,P|51:23|174:68,1,179.999994506836,2|0,3:2|2:2,0:0:0:0:
242,109,57793,2,0,P|315:96|238:39,1,209.999993591309,10|0,2:2|2:2,0:0:0:0:
176,66,58115,5,2,3:2:0:0:
278,227,58277,1,4,2:3:0:0:
278,227,58438,1,2,2:2:0:0:
384,114,58599,6,0,P|361:113|401:144,1,139.999995727539,8|0,2:3|2:2,0:0:0:0:
462,90,58841,1,8,2:2:0:0:
457,78,58921,1,10,2:2:0:0:
306,244,59083,5,2,3:2:0:0:
321,250,59164,1,0,3:3:0:0:
335,256,59244,2,0,L|465:241,1,120,4|0,3:2|2:2,0:0:0:0:
512,326,59567,5,2,3:1:0:0:
512,326,59728,1,2,2:2:0:0:
458,254,59889,2,0,P|462:296|497:327,2,80,2|0|2,3:3|2:2|3:3,0:0:0:0:
279,384,60373,5,2,2:2:0:0:
279,384,60535,2,0,P|337:345|344:253,1,165.000005035401,2|0,3:3|2:2,0:0:0:0:
288,208,60857,5,2,3:3:0:0:
288,208,61019,1,2,2:2:0:0:
165,289,61180,2,0,P|212:305|280:265,2,110.000003356934,2|0|2,3:3|2:2|3:3,0:0:0:0:
356,156,61664,5,10,2:2:0:0:
157,141,61825,2,0,P|139:182|192:149,1,150,2|0,2:2|2:2,0:0:0:0:
211,72,62148,5,2,3:3:0:0:
275,137,62309,1,2,2:2:0:0:
275,137,62470,2,0,P|242:159|196:160,1,69.9999978637696,2|0,3:3|2:2,0:0:0:0:
5,68,62793,5,2,3:3:0:0:
106,10,62954,1,2,2:2:0:0:
106,10,63115,2,0,P|121:46|121:81,1,69.9999978637696,2|0,3:3|2:2,0:0:0:0:
55,256,63438,5,2,3:3:0:0:
161,300,63599,1,2,2:2:0:0:
161,300,63760,2,0,P|171:249|156:209,1,89.9999972534181,2|0,3:3|2:2,0:0:0:0:
0,174,64083,5,2,3:3:0:0:
270,89,64244,1,2,2:2:0:0:
270,89,64406,2,0,P|229:144|227:76,1,179.999994506836,2|0,3:3|2:2,0:0:0:0:
286,0,64728,5,0,3:3:0:0:
356,53,64889,1,0,3:3:0:0:
235,69,65051,1,0,3:3:0:0:
387,17,65212,1,0,3:3:0:0:
191,40,65373,1,0,3:3:0:0:
449,90,65535,1,0,3:3:0:0:
161,139,65696,1,0,3:3:0:0:
443,232,65857,5,8,3:3:0:0:
266,14,66019,1,0,3:3:0:0:
313,325,66180,5,8,3:3:0:0:
253,17,66341,1,0,3:3:0:0:
168,326,66502,5,8,3:3:0:0:
240,13,66664,1,0,3:3:0:0:
428,347,66825,5,8,3:3:0:0:
33,267,66986,2,0,P|20:214|113:257,1,225.000008583069,8|0,2:1|2:2,0:0:0:0:
91,334,67309,2,0,L|77:382,6,37.5000014305115,0|0|0|0|0|0|0,2:2|2:2|2:2|2:2|2:2|2:2|2:2,0:0:0:0:
11,355,67712,5,0,2:2:0:0:
14,344,67793,2,0,L|90:329,1,75.0000028610231,8|8,2:1|2:1,0:0:0:0:
117,266,67954,2,0,L|193:281,1,62.5,8|8,2:3|2:3,0:0:0:0:
215,350,68115,2,0,L|291:335,1,50,8|0,2:3|2:2,0:0:0:0:
441,170,68277,6,0,B|459:144|489:164|541:67|479:-16|376:6|366:82|366:82|305:22|196:87|226:214|343:231|352:182|382:203|427:248|427:248|420:219|430:187,1,700,2|0,3:2|2:2,0:0:0:0:
270,62,69567,6,0,P|241:112|250:162,1,89.9999972534181,4|0,3:3|2:2,0:0:0:0:
252,170,69889,2,0,P|162:133|77:150,1,179.999994506836,12|0,2:3|2:2,0:0:0:0:
10,216,70212,5,4,3:3:0:0:
10,216,70373,1,0,3:3:0:0:
170,46,70535,5,12,2:3:0:0:
248,259,70696,1,2,3:2:0:0:
377,30,70857,6,0,P|338:85|280:110,1,119.999996337891,4|0,2:3|3:3,0:0:0:0:
477,281,71180,2,0,P|437:224|372:199,1,119.999996337891,12|0,2:3|2:2,0:0:0:0:
309,195,71422,5,8,2:3:0:0:
309,195,71502,1,6,3:3:0:0:
261,363,71664,1,0,3:3:0:0:
223,287,71825,6,0,P|277:281|313:297,1,75,12|0,2:3|2:2,0:0:0:0:
307,283,72148,2,0,B|189:236|208:348|95:320,1,225.000008583069,4|0,3:3|2:2,0:0:0:0:
11,266,72470,6,0,P|58:218|55:135,1,150.000005722046,12|0,2:3|2:2,0:0:0:0:
215,103,72793,2,0,P|192:47|107:-3,1,150.000005722046,4|0,3:3|3:3,0:0:0:0:
168,197,73115,5,12,2:3:0:0:
338,0,73277,1,2,3:2:0:0:
398,236,73438,5,4,2:3:0:0:
345,7,73599,1,2,3:2:0:0:
220,138,73760,5,12,2:3:0:0:
334,14,73922,1,2,2:2:0:0:
369,164,74083,5,4,3:3:0:0:
338,19,74244,1,2,3:2:0:0:
166,204,74406,6,0,P|193:221|230:222,1,60,4|0,2:2|2:2,0:0:0:0:
228,223,74728,2,0,P|185:256|191:346,1,120,0|0,3:3|2:2,0:0:0:0:
183,335,75051,5,10,2:3:0:0:
113,94,75212,2,0,P|163:119|235:111,2,119.999996337891,2|2|0,2:2|3:3|3:3,0:0:0:0:
50,0,75696,5,10,2:3:0:0:
9,184,75857,2,0,B|34:253|116:259|123:159|65:109|-15:148|-47:289|61:343,1,349.999989318848,2|0,3:2|2:2,0:0:0:0:
127,374,76341,5,10,2:3:0:0:
284,229,76502,2,0,B|205:222|215:277|158:279,2,139.999995727539,2|2|0,2:2|3:3|3:3,0:0:0:0:
167,155,76986,5,10,2:3:0:0:
278,329,77148,1,2,2:2:0:0:
312,94,77309,6,0,P|289:57|293:122,1,179.999994506836,2|0,3:3|2:2,0:0:0:0:
372,176,77631,1,10,2:3:0:0:
512,3,77793,2,0,P|458:20|407:98,2,139.999995727539,2|2|0,2:2|3:3|3:3,0:0:0:0:
234,58,78277,5,10,2:3:0:0:
481,161,78438,2,0,P|498:267|367:180,1,349.999989318848,2|0,3:2|2:2,0:0:0:0:
405,102,78922,5,10,2:3:0:0:
310,356,79083,2,0,L|248:341,2,59.9999981689454,10|8|10,2:2|2:2|3:3,0:0:0:0:
176,279,79406,5,8,2:3:0:0:
143,228,79486,1,8,2:3:0:0:
154,180,79567,1,8,2:3:0:0:
183,158,79648,1,8,2:3:0:0:
200,131,79728,1,8,2:3:0:0:
196,112,79809,1,8,2:3:0:0:
186,101,79889,2,0,B|184:128|198:168|222:157|266:182|261:254,1,179.999994506836,4|0,3:3|2:2,0:0:0:0:
236,330,80212,5,10,3:3:0:0:
254,90,80373,2,0,P|182:121|104:123,2,139.999995727539,2|2|0,2:2|3:3|3:3,0:0:0:0:
361,177,80857,5,10,2:3:0:0:
109,309,81019,2,0,P|82:257|149:289,1,179.999994506836,2|0,3:2|2:2,0:0:0:0:
162,373,81341,1,2,3:2:0:0:
195,144,81502,5,10,2:3:0:0:
270,262,81664,1,0,2:2:0:0:
258,265,81744,1,8,2:1:0:0:
246,268,81825,2,0,P|198:259|147:202,1,119.999996337891,2|0,3:3|3:3,0:0:0:0:
391,283,82148,2,0,P|351:360|287:389,1,139.999995727539,10|0,2:3|2:2,0:0:0:0:
317,19,82470,6,0,L|339:186,1,160,4|0,3:3|2:2,0:0:0:0:
278,260,82712,1,8,2:1:0:0:
282,250,82792,1,10,2:3:0:0:
145,86,82954,6,0,L|218:104,1,64.9999970245363,2|0,3:3|2:2,0:0:0:0:
66,224,83277,6,0,L|139:206,1,64.9999970245363,2|0,3:3|2:2,0:0:0:0:
425,68,83599,6,0,P|474:139|356:100,1,300.000011444092,4|0,3:3|3:3,0:0:0:0:
181,299,84083,5,10,2:3:0:0:
218,328,84164,1,0,2:2:0:0:
257,330,84244,1,8,2:1:0:0:
278,322,84325,1,8,2:1:0:0:
291,307,84406,2,0,P|302:278|301:249,1,50,8|8,2:3|2:3,0:0:0:0:
244,10,84567,6,0,P|231:37|195:66,1,64.9999970245363,8|8,2:2|2:2,0:0:0:0:
208,164,84728,2,0,P|179:157|147:160,1,50,8|8,2:3|2:3,0:0:0:0:
83,93,84889,2,0,P|76:112|58:135,1,34.9999989318848,8|8,2:3|2:3,0:0:0:0:
0,218,85051,6,0,P|60:222|144:300,1,179.999994506836,4|0,3:3|2:2,0:0:0:0:
145,381,85373,1,10,2:3:0:0:
210,191,85535,1,2,2:2:0:0:
249,278,85696,1,2,3:3:0:0:
106,225,85857,1,2,3:2:0:0:
256,86,86019,5,10,2:3:0:0:
321,351,86180,2,0,P|395:366|331:268,1,259.999988098145,4|0,3:3|3:3,0:0:0:0:
228,384,86664,5,10,2:3:0:0:
120,221,86825,2,0,P|180:221|260:302,2,139.999995727539,2|2|0,2:2|3:3|3:3,0:0:0:0:
291,176,87309,5,10,2:3:0:0:
187,32,87470,2,0,P|137:89|232:84,1,209.999993591309,4|0,3:3|2:2,0:0:0:0:
265,27,87793,5,0,3:3:0:0:
162,305,87954,1,10,2:3:0:0:
382,77,88115,5,0,3:3:0:0:
458,271,88277,1,10,2:3:0:0:
298,107,88438,5,0,3:3:0:0:
240,260,88599,1,10,2:3:0:0:
360,161,88760,5,0,3:3:0:0:
381,239,88922,2,0,L|320:251,1,59.9999981689454,4|0,2:3|2:2,0:0:0:0:
62,108,89567,6,0,B|2:91|-9:-14|122:-69|199:50|157:153|78:195,1,359.999989013672,4|0,3:3|2:2,0:0:0:0:
0,200,90212,6,0,P|79:201|163:315,1,209.999993591309,4|0,3:3|2:2,0:0:0:0:
178,383,90535,1,2,3:3:0:0:
332,220,90696,6,0,P|272:223|204:175,2,139.999995727539,8|2|0,2:3|2:2|3:3,0:0:0:0:
468,172,91180,2,0,P|431:241|439:327,2,139.999995727539,10|0|2,2:3|2:2|3:3,0:0:0:0:
437,32,91664,2,0,P|395:108|322:130,1,139.999995727539,8|2,2:3|2:2,0:0:0:0:
191,73,91986,5,0,3:3:0:0:
194,62,92067,1,0,3:3:0:0:
199,52,92148,2,0,P|259:16|335:25,1,139.999995727539,10|0,2:3|3:3,0:0:0:0:
85,131,92470,2,0,P|72:82|113:-16,1,139.999995727539,2|0,2:2|3:3,0:0:0:0:
245,252,92793,6,0,P|145:225|12:335,1,255.000004863739,10|0,2:3|2:2,0:0:0:0:
0,384,93115,1,2,3:3:0:0:
341,322,93277,6,0,P|361:243|313:165,2,170.000003242493,8|2|0,2:3|2:3|3:3,0:0:0:0:
472,229,93760,1,10,2:3:0:0:
247,263,93922,1,2,2:2:0:0:
450,373,94083,1,2,3:3:0:0:
394,86,94244,5,8,2:3:0:0:
246,255,94406,1,2,2:2:0:0:
467,221,94567,1,2,3:2:0:0:
464,212,94648,1,0,3:3:0:0:
462,203,94728,2,0,P|382:166|322:167,1,139.999995727539,10|0,2:3|3:3,0:0:0:0:
262,76,95051,2,0,P|187:107|147:161,1,139.999995727539,10|2,2:3|3:2,0:0:0:0:
178,325,95293,5,0,3:3:0:0:
178,325,95373,2,0,P|127:281|48:276,2,139.999995727539,10|0|2,2:3|2:2|3:3,0:0:0:0:
329,172,95857,2,0,P|275:217|207:216,2,139.999995727539,8|2|0,2:3|2:3|3:3,0:0:0:0:
384,384,96341,2,0,P|342:336|255:314,2,139.999995727539,10|0|2,2:3|2:2|3:3,0:0:0:0:
435,132,96825,2,0,P|432:210|384:266,1,139.999995727539,8|2,2:3|3:3,0:0:0:0:
173,80,97148,5,0,3:3:0:0:
181,87,97228,1,0,3:3:0:0:
191,93,97309,2,0,P|271:91|320:50,1,139.999995727539,10|0,2:3|3:3,0:0:0:0:
62,91,97631,2,0,P|75:150|144:206,1,139.999995727539,10|0,2:3|3:3,0:0:0:0:
371,253,97954,6,0,P|301:261|260:299,2,119.999996337891,10|0|2,2:3|2:2|3:3,0:0:0:0:
321,51,98438,2,0,P|328:118|298:175,2,104.999996795654,8|2|0,2:3|2:2|3:3,0:0:0:0:
505,179,98922,2,0,P|449:156|399:175,2,89.9999972534181,10|0|2,2:3|2:2|3:3,0:0:0:0:
464,0,99406,5,8,2:3:0:0:
421,69,99567,1,2,2:2:0:0:
510,91,99728,5,0,3:3:0:0:
508,83,99809,1,0,3:3:0:0:
506,75,99889,1,10,3:3:0:0:
414,153,100051,1,0,3:3:0:0:
302,0,100212,5,12,2:2:0:0:
430,66,100373,1,0,3:3:0:0:
161,247,100535,5,4,2:2:0:0:
202,115,100696,1,0,2:2:0:0:
293,217,100857,1,2,3:2:0:0:
112,112,101019,5,10,2:2:0:0:
233,47,101180,1,2,2:2:0:0:
226,184,101341,1,0,3:3:0:0:
148,3,101502,5,10,2:2:0:0:
322,34,101664,2,0,L|328:63,3,25.0000009536744,2|0|0|2,2:2|2:2|2:2|3:2,0:0:0:0:
248,312,101986,5,10,2:2:0:0:
362,238,102147,1,2,2:2:0:0:
241,176,102308,1,0,3:3:0:0:
364,373,102470,5,10,3:2:0:0:
358,105,102631,1,0,3:3:0:0:
512,295,102793,5,10,3:2:0:0:
365,101,102954,1,0,3:3:0:0:
156,284,103115,5,10,2:2:0:0:
130,148,103276,1,0,2:2:0:0:
258,195,103437,1,2,2:2:0:0:
52,188,103599,5,10,2:2:0:0:
129,74,103760,1,2,2:2:0:0:
185,198,103921,1,0,3:3:0:0:
56,48,104083,5,10,2:2:0:0:
209,20,104244,1,2,2:2:0:0:
118,148,104405,1,2,3:2:0:0:
353,0,104567,5,8,2:2:0:0:
202,94,104728,1,2,2:2:0:0:
374,161,104889,1,2,3:2:0:0:
160,269,105051,5,10,3:2:0:0:
272,65,105212,1,0,3:3:0:0:
327,292,105373,1,10,3:2:0:0:
291,144,105535,5,2,3:2:0:0:
283,145,105616,1,0,3:3:0:0:
275,146,105696,1,2,3:2:0:0:
377,241,105857,1,0,2:2:0:0:
402,106,106018,1,2,2:2:0:0:
300,290,106180,5,10,2:2:0:0:
438,281,106341,1,2,2:2:0:0:
360,168,106502,1,0,3:3:0:0:
373,384,106664,5,10,2:2:0:0:
489,172,106825,2,0,L|463:187,3,25.0000009536744,2|0|0|2,2:2|2:2|2:2|3:2,0:0:0:0:
126,150,107148,5,10,2:2:0:0:
253,94,107309,1,2,2:2:0:0:
235,231,107470,1,0,3:3:0:0:
147,21,107631,5,10,3:2:0:0:
110,283,107793,1,0,3:3:0:0:
2,60,107954,5,10,3:2:0:0:
101,283,108115,1,0,3:3:0:0:
322,73,108277,6,0,P|307:-8|272:92,1,279.999991455078,10|0,3:2|3:3,0:0:0:0:
404,125,108760,6,0,P|446:205|372:145,1,239.999992675781,10|0,2:2|3:3,0:0:0:0:
436,28,109244,5,10,2:2:0:0:
313,70,109406,1,0,2:2:0:0:
397,118,109567,1,0,3:3:0:0:
204,212,109728,5,12,2:2:0:0:
347,290,109889,1,0,2:2:0:0:
269,344,110051,5,8,2:1:0:0:
272,330,110131,1,8,2:1:0:0:
275,316,110212,1,10,2:2:0:0:
414,210,110373,5,8,2:1:0:0:
421,237,110454,1,8,2:1:0:0:
429,264,110535,2,0,L|403:360,2,66.6666666666667,10|8|8,2:2|2:3|2:3,0:0:0:0:
477,170,110857,6,0,B|311:144|369:323|198:304,1,320,4|2,3:3|2:3,0:0:0:0:
45,201,111825,5,2,2:3:0:0:
45,201,111986,2,0,P|94:204|127:223,2,80,10|0|0,2:2|2:2|2:2,0:0:0:0:
269,48,113115,5,10,2:2:0:0:
269,48,113277,2,0,B|247:98|187:83|155:44|170:-42|273:-53|337:13|315:103|284:138|284:138|246:146|226:182,1,419.999987182618,2|0,2:2|2:2,0:0:0:0:
345,316,114406,5,2,2:2:0:0:
345,316,114567,2,0,P|336:269|315:237,2,80,10|0|0,2:2|3:3|2:2,0:0:0:0:
496,60,115696,6,0,P|478:87|472:116,1,60,10|0,2:2|2:2,0:0:0:0:
498,130,116019,2,0,P|510:152|511:189,1,60,2|0,3:2|2:2,0:0:0:0:
487,205,116341,5,10,2:2:0:0:
487,205,116502,2,0,P|433:215|443:296,1,149.999995422363,2|0,2:2|2:2,0:0:0:0:
471,301,116986,5,2,2:3:0:0:
471,301,117148,2,0,B|378:287|376:366|284:357,1,200,10|0,2:2|2:2,0:0:0:0:
262,343,117631,5,10,2:2:0:0:
262,343,117793,2,0,P|296:266|203:276,1,200,2|0,2:2|2:2,0:0:0:0:
202,292,118277,5,10,2:2:0:0:
202,292,118438,2,0,B|156:431|9:419|-47:351|-43:232|59:212|102:254,1,440,2|0,2:2|2:2,0:0:0:0:
104,278,119406,6,0,P|64:258|28:266,2,80,2|2|10,3:2|2:3|2:2,0:0:0:0:
254,168,119889,2,0,P|227:198|159:207,2,94.9999974632264,2|8|8,2:3|2:3|2:2,0:0:0:0:
387,313,120373,2,0,P|344:284|273:269,1,110.000003356934,10|8,2:2|2:3,0:0:0:0:
502,182,120696,5,8,2:3:0:0:
505,192,120777,1,8,2:3:0:0:
500,217,120857,1,8,2:3:0:0:
470,241,120938,1,8,2:3:0:0:
435,234,121019,1,8,2:3:0:0:
421,214,121099,1,8,2:3:0:0:
419,199,121180,2,0,P|423:181|430:171,1,30,2|0,3:2|2:2,0:0:0:0:
436,167,121502,6,0,P|385:69|355:189,1,300,4|0,2:2|3:3,0:0:0:0:
238,304,122148,5,2,2:3:0:0:
238,304,122309,2,0,P|247:241|198:286,2,160,10|2|2,2:2|3:2|2:2,0:0:0:0:
86,252,123115,5,2,2:3:0:0:
210,127,123330,5,2,2:2:0:0:
354,292,123545,5,2,2:2:0:0:
435,186,123760,5,2,3:3:0:0:
435,186,123922,1,0,3:3:0:0:
232,242,124083,5,10,2:3:0:0:
232,242,124244,2,0,B|158:238|175:172|88:172,1,160,2|0,2:2|3:3,0:0:0:0:
210,379,124728,5,2,2:3:0:0:
210,379,124889,2,0,P|241:346|376:328,1,160,10|0,2:2|3:3,0:0:0:0:
152,308,125373,5,10,2:3:0:0:
163,295,125535,1,2,2:2:0:0:
137,256,125696,1,2,2:3:0:0:
196,209,125857,1,2,3:2:0:0:
112,137,126019,1,10,2:3:0:0:
212,34,126180,5,2,3:2:0:0:
214,44,126260,1,0,3:3:0:0:
216,54,126341,2,0,P|142:55|75:19,1,150,2|0,3:3|2:2,0:0:0:0:
59,0,126664,1,10,2:3:0:0:
12,170,126825,6,0,P|66:169|106:141,1,89.9999972534181,2|2,2:2|2:3,0:0:0:0:
143,261,127148,2,0,P|182:265|239:310,1,100,2|2,3:2|2:3,0:0:0:0:
375,78,127470,2,0,P|319:136|180:156,1,200,10|0,2:2|3:3,0:0:0:0:
261,53,127954,5,10,2:3:0:0:
269,66,128115,1,2,2:2:0:0:
248,93,128277,1,2,2:3:0:0:
275,138,128438,1,2,3:2:0:0:
215,239,128599,5,10,2:3:0:0:
379,174,128760,1,2,3:2:0:0:
346,343,128922,2,0,P|321:314|310:249,1,100,2|0,3:3|3:3,0:0:0:0:
358,77,129244,5,10,2:3:0:0:
462,229,129406,1,2,3:2:0:0:
511,152,129567,5,2,2:3:0:0:
378,192,129782,5,2,2:2:0:0:
241,62,129997,5,2,2:2:0:0:
78,110,130212,5,2,3:3:0:0:
78,110,130373,1,0,3:3:0:0:
181,198,130535,2,0,L|159:311,1,110.000003356934,2|0,3:3|2:2,0:0:0:0:
48,384,130857,5,0,3:3:0:0:
21,331,130965,5,8,2:2:0:0:
62,289,131072,5,8,2:2:0:0:
84,296,131180,5,8,2:3:0:0:
125,254,131287,5,8,2:2:0:0:
98,201,131395,5,8,2:2:0:0:
25,227,131502,6,0,P|101:233|185:156,1,165.000005035401,2|0,3:3|2:2,0:0:0:0:
185,145,131825,5,10,2:2:0:0:
278,166,131986,1,2,2:2:0:0:
278,166,132148,1,2,2:3:0:0:
314,69,132309,2,0,P|363:45|443:57,1,134.999995880127,2|0,3:2|2:2,0:0:0:0:
487,82,132631,5,10,2:3:0:0:
503,116,132712,1,2,2:2:0:0:
492,167,132793,2,0,B|466:219|402:203|402:203|384:181|389:158,2,150,2|2|2,2:2|2:2|2:2,0:0:0:0:
427,328,133438,6,0,P|462:296|516:293,1,100,2|0,2:2|3:3,0:0:0:0:
267,333,133760,2,0,P|340:366|365:414,1,104.999996795654,10|0,2:2|2:2,0:0:0:0:
145,358,134083,2,0,P|182:303|191:226,1,129.999994049073,2|0,3:2|3:3,0:0:0:0:
30,103,134406,5,10,2:2:0:0:
28,108,134567,2,0,P|92:152|218:112,1,179.999994506836,2|0,2:2|2:2,0:0:0:0:
215,153,134889,2,0,P|272:138|357:174,1,150,2|0,3:2|2:2,0:0:0:0:
425,169,135212,2,0,P|367:196|347:245,1,104.999996795654,10|0,2:2|2:2,0:0:0:0:
350,250,135535,1,0,3:3:0:0:
511,24,135696,6,0,L|280:47,1,209.999993591309,12|0,2:2|2:2,0:0:0:0:
246,52,136019,6,0,L|303:57,1,50,8|0,2:3|2:2,0:0:0:0:
303,58,136260,1,8,2:2:0:0:
310,59,136341,1,8,2:2:0:0:
451,150,136502,5,8,2:3:0:0:
441,152,136583,1,8,2:3:0:0:
431,154,136664,2,0,P|365:182|335:270,1,150,4|0,3:3|2:2,0:0:0:0:
336,277,136986,5,2,3:3:0:0:
273,191,137148,1,2,2:2:0:0:
236,297,137309,5,2,3:3:0:0:
264,186,137470,1,2,2:2:0:0:
220,289,137631,1,2,3:3:0:0:
176,142,137793,5,2,2:2:0:0:
176,142,137954,2,0,P|226:145|264:180,1,100,2|0,3:3|2:2,0:0:0:0:
299,349,138277,5,2,3:3:0:0:
299,349,138438,1,2,2:2:0:0:
136,310,138599,5,2,3:3:0:0:
255,189,138760,1,2,2:2:0:0:
144,319,138922,1,2,3:3:0:0:
60,102,139083,5,10,2:2:0:0:
60,102,139244,2,0,P|105:138|170:152,2,119.999996337891,10|2|2,3:3|2:2|2:2,0:0:0:0:
251,217,139889,5,2,3:3:0:0:
162,246,140105,5,2,2:2:0:0:
234,301,140320,5,2,2:2:0:0:
98,358,140535,6,0,P|113:344|155:331,2,53.3333333333333,2|2|2,3:3|2:2|2:2,0:0:0:0:
382,151,141180,6,0,P|340:132|304:57,1,100,2|0,3:3|2:2,0:0:0:0:
471,238,141502,2,0,P|401:276|339:271,1,119.999996337891,2|0,3:3|2:2,0:0:0:0:
130,57,141825,6,0,P|154:4|147:71,1,179.999994506836,0|0,2:2|2:2,0:0:0:0:
110,131,142148,5,0,3:3:0:0:
258,96,142309,1,2,2:2:0:0:
102,144,142470,5,0,3:3:0:0:
325,181,142631,1,2,2:2:0:0:
87,133,142793,5,0,3:3:0:0:
365,72,142954,1,2,2:2:0:0:
93,384,143115,6,0,B|66:365|66:365|99:374,1,66.6666666666667,10|0,3:2|2:2,0:0:0:0:
179,341,143330,2,0,B|216:315|216:315|170:328,1,93.3333304850261,4|0,3:2|2:2,0:0:0:0:
44,267,143545,2,0,B|-5:233|-5:233|55:250,1,119.999996337891,2|0,3:2|2:2,0:0:0:0:
249,139,143760,6,0,B|215:128|215:128|159:184|159:184|235:205|235:205|258:182,1,225.000008583069,4|0,3:2|2:2,0:0:0:0:
278,175,144083,2,0,L|263:131,1,44.999998626709,0|0,2:2|2:2,0:0:0:0:
269,118,144406,6,0,P|303:136|362:128,1,89.9999972534181,4|0,3:3|2:2,0:0:0:0:
379,118,144728,2,0,P|330:174|333:289,1,179.999994506836,12|0,2:3|2:2,0:0:0:0:
393,352,145051,5,4,3:3:0:0:
393,352,145212,1,0,3:3:0:0:
218,212,145373,5,12,2:3:0:0:
459,224,145535,1,2,3:2:0:0:
278,0,145696,6,0,P|291:49|268:128,1,119.999996337891,4|0,2:3|3:3,0:0:0:0:
509,109,146019,2,0,P|434:100|389:117,1,119.999996337891,12|0,2:3|2:2,0:0:0:0:
334,192,146260,5,8,2:3:0:0:
334,192,146341,1,4,3:3:0:0:
506,281,146502,1,0,3:3:0:0:
445,211,146664,6,0,P|422:235|411:277,1,75,12|0,2:3|2:2,0:0:0:0:
412,288,146986,2,0,B|301:261|311:373|198:346,1,225.000008583069,4|0,3:3|2:2,0:0:0:0:
114,264,147309,6,0,P|113:334|39:388,1,150.000005722046,12|0,2:3|2:2,0:0:0:0:
108,138,147631,2,0,P|182:159|227:222,1,150.000005722046,4|0,3:3|3:3,0:0:0:0:
0,83,147954,5,12,2:3:0:0:
139,22,148115,1,2,3:2:0:0:
22,247,148277,5,4,2:3:0:0:
83,133,148438,1,2,3:2:0:0:
171,328,148599,5,12,2:3:0:0:
115,241,148760,1,2,2:2:0:0:
369,205,148922,5,4,3:3:0:0:
275,378,149083,1,2,3:2:0:0:
187,118,149244,6,0,P|224:113|249:122,1,60,4|0,2:2|2:2,0:0:0:0:
274,121,149567,2,0,P|222:98|150:122,1,120,0|0,3:3|2:2,0:0:0:0:
144,127,149889,5,10,2:3:0:0:
392,82,150051,2,0,P|352:64|314:-7,2,119.999996337891,2|2|0,2:2|3:3|3:3,0:0:0:0:
512,71,150535,5,10,2:3:0:0:
419,272,150696,2,0,B|496:368|546:283|519:232|469:211|415:255|401:307|424:334|382:379|277:365,1,349.999989318848,2|0,3:2|2:2,0:0:0:0:
247,339,151180,5,10,2:3:0:0:
220,183,151341,2,0,B|238:164|278:171|334:197|306:296,2,139.999995727539,2|2|0,2:2|3:3|3:3,0:0:0:0:
398,173,151825,5,10,2:3:0:0:
180,271,151986,1,2,2:2:0:0:
332,25,152148,6,0,P|356:94|305:44,1,179.999994506836,2|0,3:3|2:2,0:0:0:0:
258,0,152470,1,10,2:3:0:0:
102,116,152631,2,0,P|152:121|216:182,2,139.999995727539,2|2|0,2:2|3:3|3:3,0:0:0:0:
336,62,153115,5,10,2:3:0:0:
192,276,153277,2,0,P|281:380|276:239,1,349.999989318848,2|0,3:2|2:2,0:0:0:0:
217,185,153760,5,10,2:3:0:0:
42,372,153922,2,0,L|107:386,2,59.9999981689454,10|8|10,2:2|2:2|3:3,0:0:0:0:
198,278,154244,5,8,2:3:0:0:
162,230,154325,1,8,2:3:0:0:
113,229,154406,1,8,2:3:0:0:
88,256,154486,1,8,2:3:0:0:
93,284,154567,1,8,2:3:0:0:
115,295,154648,1,8,2:3:0:0:
129,290,154728,2,0,B|146:197|74:206|79:122,1,179.999994506836,4|0,3:3|2:2,0:0:0:0:
100,45,155051,5,10,3:3:0:0:
189,225,155212,2,0,P|127:256|58:258,2,139.999995727539,2|2|0,2:2|3:3|3:3,0:0:0:0:
333,268,155696,5,10,2:3:0:0:
225,63,155857,2,0,P|262:6|263:76,1,179.999994506836,2|0,3:2|2:2,0:0:0:0:
216,147,156180,1,2,3:2:0:0:
384,0,156341,5,10,2:3:0:0:
307,171,156502,1,0,2:2:0:0:
317,173,156582,1,8,2:1:0:0:
328,176,156664,2,0,P|385:169|450:128,1,119.999996337891,2|0,3:3|3:3,0:0:0:0:
248,262,156986,2,0,P|172:254|119:219,1,139.999995727539,10|0,2:3|2:2,0:0:0:0:
274,3,157309,6,0,L|306:213,1,160,4|0,3:3|2:2,0:0:0:0:
335,262,157551,1,8,2:1:0:0:
331,273,157632,1,10,2:3:0:0:
88,81,157793,6,0,L|160:96,1,64.9999970245363,2|0,3:3|2:2,0:0:0:0:
291,168,158115,6,0,L|219:183,1,64.9999970245363,2|0,3:3|2:2,0:0:0:0:
17,283,158438,6,0,P|28:364|93:260,1,300.000011444092,4|0,3:3|3:3,0:0:0:0:
356,351,158922,5,10,2:3:0:0:
418,281,159083,1,8,2:1:0:0:
415,272,159164,1,8,2:1:0:0:
412,263,159244,1,8,2:3:0:0:
284,163,159406,5,8,2:2:0:0:
267,106,159486,1,8,2:2:0:0:
292,67,159567,1,8,2:3:0:0:
330,65,159648,1,8,2:3:0:0:
352,87,159728,1,8,2:3:0:0:
354,109,159809,1,8,2:3:0:0:
345,121,159889,6,0,P|272:78|173:86,1,179.999994506836,4|0,3:3|2:2,0:0:0:0:
109,125,160212,1,10,2:3:0:0:
255,313,160373,6,0,P|264:269|237:208,2,100,2|2|2,2:2|3:3|3:2,0:0:0:0:
351,367,160857,5,10,2:3:0:0:
474,85,161019,2,0,P|444:175|262:221,1,300.000011444092,4|0,3:3|3:3,0:0:0:0:
146,116,161502,5,10,2:3:0:0:
5,330,161664,2,0,P|62:317|120:253,2,139.999995727539,2|2|0,2:2|3:3|3:3,0:0:0:0:
213,382,162148,5,10,2:3:0:0:
110,79,162309,2,0,P|157:21|176:117,1,209.999993591309,4|0,3:3|2:2,0:0:0:0:
118,163,162631,5,0,3:3:0:0:
37,19,162793,1,10,2:3:0:0:
0,324,162954,5,0,3:3:0:0:
90,85,163115,1,10,2:3:0:0:
277,291,163277,5,0,3:3:0:0:
175,0,163438,1,10,2:3:0:0:
386,211,163599,5,0,3:3:0:0:
468,61,163760,2,0,B|372:3|372:3|491:252|491:252|504:158,1,479.999985351563,4|2,3:3|2:3,0:0:0:0:
504,154,165373,5,2,2:3:0:0:
504,146,165696,1,2,2:3:0:0:
378,81,166019,5,2,2:3:0:0:
82,196,166341,6,0,B|54:232|57:290|104:320|104:320|97:287|115:264,1,200,4|0,3:3|3:3,0:0:0:0:
207,204,166825,2,0,B|234:231|229:276|229:276|274:208|244:132|183:106,1,279.999991455078,4|0,3:3|3:3,0:0:0:0:
190,369,167309,5,8,2:3:0:0:
266,64,167470,2,0,B|136:20|121:154|0:114,1,279.999991455078,4|0,3:2|3:3,0:0:0:0:
367,194,167954,6,0,P|386:97|412:-1,1,200,10|2,2:3|2:3,0:0:0:0:
276,62,168438,1,0,3:3:0:0:
508,205,168599,5,10,2:2:0:0:
476,118,168760,1,2,2:2:0:0:
345,284,168922,5,2,2:3:0:0:
369,205,169083,1,2,3:2:0:0:
377,207,169164,1,0,3:3:0:0:
385,209,169244,1,10,3:3:0:0:
492,302,169406,6,0,L|437:311,2,50,2|2|2,2:2|2:2|2:3,0:0:0:0:
348,381,169728,5,2,3:3:0:0:
333,363,169809,1,2,2:2:0:0:
309,355,169889,2,0,P|265:358|226:392,2,79.9999975585938,2|2|2,3:3|2:2|2:2,0:0:0:0:
168,256,170212,5,4,3:3:0:0:
497,195,170373,1,2,2:2:0:0:
207,83,170535,1,10,2:3:0:0:
405,52,170696,2,0,B|447:120|447:120|288:95,1,239.999992675781,4|0,3:3|2:2,0:0:0:0:
159,7,171180,5,10,2:3:0:0:
87,136,171341,2,0,B|58:182|58:182|165:165,1,160,0|0,2:2|3:3,0:0:0:0:
336,275,171825,6,0,L|257:261,2,80,10|0|2,2:3|2:2|2:3,0:0:0:0:
411,344,172309,1,0,3:3:0:0:
192,384,172470,6,0,L|270:370,1,80,10|0,2:3|2:2,0:0:0:0:
349,278,172793,1,2,3:3:0:0:
419,350,172954,5,2,3:2:0:0:
429,351,173035,1,0,3:3:0:0:
440,353,173115,1,10,3:3:0:0:
508,293,173277,1,2,2:2:0:0:
421,141,173438,5,2,2:3:0:0:
385,209,173599,1,8,2:1:0:0:
392,217,173680,1,8,2:1:0:0:
411,228,173760,1,8,2:2:0:0:
450,223,173841,1,8,2:2:0:0:
469,184,173922,1,8,2:3:0:0:
450,150,174002,1,8,2:3:0:0:
431,142,174083,5,4,3:2:0:0:
312,175,174244,1,2,2:3:0:0:
367,16,174406,1,8,2:3:0:0:
178,89,174567,2,0,L|288:79,1,89.9999972534181,4|0,3:3|2:2,0:0:0:0:
281,74,174889,5,0,3:3:0:0:
358,112,175051,1,8,2:3:0:0:
160,197,175212,2,0,P|149:130|99:30,1,179.999994506836,4|0,3:2|2:2,0:0:0:0:
27,0,175535,5,0,3:3:0:0:
29,226,175696,2,0,P|41:195|48:146,2,80,10|2|2,2:3|2:3|2:3,0:0:0:0:
114,83,176180,5,0,3:3:0:0:
156,298,176341,2,0,P|125:294|104:283,2,53.3333333333333,10|2|2,2:3|2:2|2:2,0:0:0:0:
38,360,176664,5,2,3:3:0:0:
81,323,176771,5,2,2:2:0:0:
80,276,176879,5,2,2:2:0:0:
47,251,176986,5,10,2:3:0:0:
14,260,177094,5,2,2:2:0:0:
3,282,177201,5,2,2:2:0:0:
8,293,177309,6,0,P|32:303|64:295,2,53.3333333333333,2|2|2,2:1|2:3|2:3,0:0:0:0:
108,198,177631,2,0,P|181:202|255:245,1,150,2|0,2:3|2:2,0:0:0:0:
272,273,177954,5,4,3:2:0:0:
307,28,178115,1,2,2:2:0:0:
388,203,178277,1,8,2:3:0:0:
270,127,178438,2,0,P|337:131|387:101,1,122.499996261597,4|8,3:3|2:3,0:0:0:0:
389,95,178760,1,8,2:3:0:0:
512,312,179083,6,0,B|278:202|267:459|51:359,1,489.999985046387,4|2,3:3|2:2,0:0:0:0:
165,173,180535,6,0,P|168:217|152:253,1,80,2|2,2:2|2:2,0:0:0:0:
169,80,181019,2,0,P|209:92|256:153,1,120,2|2,2:2|2:2,0:0:0:0:
416,69,181664,6,0,P|373:81|302:52,1,120,2|2,2:2|2:2,0:0:0:0:
512,71,182309,2,0,P|502:111|447:164,1,120,2|2,2:2|2:2,0:0:0:0:
465,357,182954,6,0,P|386:321|294:323,1,180.000004394531,2|2,2:2|2:2,0:0:0:0:
469,199,185696,6,0,L|449:203,1,20,0|0,3:3|3:3,0:0:0:0:
392,147,186019,2,0,L|354:139,1,29.9999990844727,0|0,3:3|3:3,0:0:0:0:
316,217,186341,2,0,L|266:226,1,40,0|0,3:3|3:3,0:0:0:0:
243,134,186664,2,0,L|184:122,1,50,0|0,3:3|3:3,0:0:0:0:
77,267,186986,5,0,3:3:0:0:
149,302,187148,1,0,3:3:0:0:
68,304,187309,1,0,3:3:0:0:
157,264,187470,1,0,3:3:0:0:
82,341,187631,1,0,3:3:0:0:
144,227,187793,1,0,3:3:0:0:
109,369,187954,1,0,3:3:0:0:
116,199,188115,1,0,3:3:0:0:
145,382,188277,1,0,3:3:0:0:
80,187,188438,1,0,3:3:0:0:
183,377,188599,1,0,3:3:0:0:
283,193,188760,5,8,3:3:0:0:
145,306,188922,1,0,3:3:0:0:
437,288,189083,5,8,3:3:0:0:
289,63,189244,1,8,3:3:0:0:
296,384,189406,1,8,3:3:0:0:
473,125,189567,6,0,B|369:114|404:215|289:200,1,179.999994506836,12|0,3:3|2:2,0:0:0:0:
290,196,189889,1,8,2:3:0:0:
167,59,190051,6,0,P|218:-12|245:89,1,239.999992675781,12|0,2:2|3:3,0:0:0:0:
183,137,190454,1,0,3:3:0:0:
183,137,190535,1,2,3:2:0:0:
27,70,190696,6,0,P|72:141|102:295,1,239.999992675781,12|0,2:3|3:3,0:0:0:0:
97,313,191099,1,0,3:3:0:0:
97,313,191180,1,2,3:2:0:0:
326,225,191341,6,0,P|259:222|125:289,1,200,12|0,2:2|3:3,0:0:0:0:
126,291,191744,1,0,3:3:0:0:
126,291,191825,1,12,3:3:0:0:
301,362,191986,5,2,3:2:0:0:
291,354,192067,1,0,3:3:0:0:
284,345,192148,2,0,P|285:270|328:226,1,119.999996337891,12|0,3:2|3:3,0:0:0:0:
492,257,192470,5,2,3:2:0:0:
200,105,192631,2,0,P|295:123|443:65,1,239.999992675781,12|0,3:3|3:3,0:0:0:0:
473,12,193035,1,0,3:3:0:0:
473,12,193115,1,2,3:2:0:0:
396,253,193277,6,0,P|300:232|359:144,1,239.999992675781,12|0,2:2|3:3,0:0:0:0:
439,181,193680,1,0,3:3:0:0:
439,181,193760,1,2,3:2:0:0:
223,348,193922,6,0,P|200:248|128:201,1,179.999994506836,12|0,2:3|2:2,0:0:0:0:
57,245,194244,5,8,2:1:0:0:
116,282,194325,1,8,2:1:0:0:
184,266,194406,1,8,2:2:0:0:
220,207,194486,1,8,2:2:0:0:
207,137,194567,1,8,2:2:0:0:
145,102,194648,1,8,2:2:0:0:
77,119,194728,2,0,P|128:230|135:326,1,194.999991073609,4|0,3:3|2:2,0:0:0:0:
106,384,195051,5,12,2:1:0:0:
1,251,195212,1,2,2:2:0:0:
247,248,195373,2,0,P|203:295|141:310,1,119.999996337891,4|0,2:1|3:3,0:0:0:0:
11,258,195696,5,4,2:1:0:0:
231,124,195857,2,0,B|355:113|327:217|447:218,1,239.999992675781,10|0,2:2|3:3,0:0:0:0:
512,107,196341,5,12,2:1:0:0:
258,218,196502,1,2,2:2:0:0:
503,321,196664,2,0,P|481:260|435:219,1,119.999996337891,4|0,2:1|3:3,0:0:0:0:
246,236,196986,5,12,2:2:0:0:
337,47,197148,1,2,2:2:0:0:
348,50,197228,1,8,2:1:0:0:
359,53,197309,2,0,P|356:147|283:120,1,194.999991073609,4|0,3:3|2:2,0:0:0:0:
242,42,197631,5,12,2:1:0:0:
492,114,197793,1,2,2:2:0:0:
301,249,197954,2,0,P|270:194|272:135,1,119.999996337891,4|0,2:1|3:3,0:0:0:0:
326,47,198277,5,4,2:1:0:0:
71,0,198438,2,0,B|54:130|167:98|130:233,1,239.999992675781,10|0,2:2|3:3,0:0:0:0:
15,333,198922,5,12,2:1:0:0:
83,118,199083,1,2,2:2:0:0:
171,354,199244,5,12,2:1:0:0:
128,236,199406,1,2,3:2:0:0:
395,296,199567,5,12,2:2:0:0:
302,384,199728,1,2,2:2:0:0:
298,372,199808,1,8,2:1:0:0:
294,360,199889,2,0,L|321:177,1,179.999994506836,0|0,2:2|2:2,0:0:0:0:
325,139,200212,5,10,2:3:0:0:
447,43,200373,2,0,P|470:80|477:146,2,100,2|2|0,2:2|2:3|3:3,0:0:0:0:
301,0,200857,5,2,2:3:0:0:
405,214,201019,2,0,P|363:257|293:272,2,119.999996337891,10|2|0,2:3|2:3|2:2,0:0:0:0:
358,58,201502,5,10,2:3:0:0:
503,240,201664,1,2,2:2:0:0:
229,171,201825,2,0,L|245:96,2,59.9999981689454,2|8|2,2:3|2:2|3:2,0:0:0:0:
510,103,202148,5,10,2:3:0:0:
296,271,202309,1,2,2:2:0:0:
300,281,202389,1,8,2:2:0:0:
305,291,202470,2,0,P|349:325|439:333,2,119.999996337891,2|2|10,3:3|2:3|2:3,0:0:0:0:
207,174,202954,2,0,P|180:231|188:300,2,119.999996337891,2|2|0,2:2|2:3|3:3,0:0:0:0:
330,137,203438,5,2,2:3:0:0:
82,154,203599,2,0,P|40:104|37:39,2,119.999996337891,10|2|0,2:2|2:3|3:3,0:0:0:0:
209,165,204083,5,12,2:1:0:0:
39,269,204244,1,2,2:2:0:0:
159,56,204406,1,10,2:2:0:0:
181,296,204567,5,8,2:2:0:0:
139,338,204648,1,8,2:2:0:0:
86,335,204728,1,8,2:3:0:0:
58,304,204809,1,8,2:3:0:0:
59,268,204889,1,8,2:3:0:0:
74,255,204970,1,8,2:3:0:0:
84,253,205051,2,0,L|283:294,1,179.999994506836,4|0,3:3|2:2,0:0:0:0:
302,297,205373,5,12,2:2:0:0:
396,167,205535,2,0,P|327:167|284:203,2,119.999996337891,2|2|0,2:2|2:3|3:3,0:0:0:0:
497,226,206019,5,2,2:3:0:0:
211,124,206180,2,0,P|174:191|186:269,2,139.999995727539,10|2|0,2:2|2:3|3:3,0:0:0:0:
321,52,206664,5,10,2:2:0:0:
393,273,206825,1,2,2:2:0:0:
497,21,206986,2,0,L|427:36,2,69.9999978637696,0|8|2,2:2|2:1|3:2,0:0:0:0:
274,232,207309,5,4,2:1:0:0:
219,25,207470,1,2,2:2:0:0:
232,27,207551,1,0,3:3:0:0:
245,29,207631,2,0,P|296:60|319:139,2,139.999995727539,2|0|10,3:3|2:2|2:3,0:0:0:0:
70,131,208115,2,0,P|115:109|205:121,2,139.999995727539,2|2|0,2:2|2:3|3:3,0:0:0:0:
79,264,208599,5,2,2:3:0:0:
286,252,208760,2,0,B|352:323|352:323|164:284,1,279.999991455078,12|0,2:2|2:2,0:0:0:0:
63,351,209244,5,8,2:2:0:0:
125,377,209352,5,8,2:2:0:0:
168,333,209459,5,8,2:2:0:0:
154,294,209567,5,8,2:3:0:0:
117,284,209675,5,8,2:1:0:0:
94,299,209782,5,8,2:2:0:0:
96,322,209889,6,0,P|133:339|159:337,2,66.6666666666667,8|8|8,2:3|2:2|2:2,0:0:0:0:
225,311,210212,5,0,3:3:0:0:
226,306,210535,5,8,2:2:0:0:
227,298,210857,5,8,2:2:0:0:
228,288,211180,5,8,2:2:0:0:
229,275,211502,5,8,2:2:0:0:
228,260,211825,5,8,2:2:0:0:
225,242,212148,5,8,2:2:0:0:
218,222,212470,5,8,2:2:0:0:
207,202,212793,5,8,2:2:0:0:
189,184,213115,5,8,2:2:0:0:
166,168,213438,5,8,2:2:0:0:
137,159,213760,5,8,2:2:0:0:
104,156,214083,5,8,2:2:0:0:
203,85,214406,5,0,2:2:0:0:
133,28,214567,1,0,3:3:0:0:
130,37,214648,1,0,3:3:0:0:
127,46,214728,1,8,3:1:0:0:
211,210,214889,5,0,3:3:0:0:
313,7,215051,2,0,P|279:9|256:20,1,60,12|0,2:2|2:2,0:0:0:0:
250,31,215373,6,0,L|270:131,1,80,4|0,3:3|2:2,0:0:0:0:
221,197,215696,1,2,2:3:0:0:
221,197,215857,2,0,L|389:230,1,150,2|2,2:2|3:3,0:0:0:0:
452,309,216503,5,0,2:2:0:0:
452,309,216664,2,0,L|352:329,1,80,2|0,3:3|2:2,0:0:0:0:
290,384,216986,5,2,3:3:0:0:
290,384,217148,2,0,L|133:352,1,150,2|2,2:2|3:3,0:0:0:0:
54,384,217793,1,10,2:2:0:0:
32,160,217954,6,0,P|85:156|128:179,1,100,4|0,3:3|2:2,0:0:0:0:
180,258,218277,1,2,3:3:0:0:
180,258,218438,2,0,P|227:286|344:275,1,160,2|0,2:2|2:2,0:0:0:0:
389,216,218922,5,2,3:3:0:0:
389,216,219083,2,0,P|356:149|312:192,1,160,2|0,2:2|2:2,0:0:0:0:
333,277,219567,1,2,3:3:0:0:
333,277,219728,1,2,2:2:0:0:
466,112,219889,6,0,P|387:108|365:128,1,110.000003356934,2|0,3:3|2:2,0:0:0:0:
236,60,220212,2,0,P|211:102|215:164,1,110.000003356934,2|0,3:3|2:2,0:0:0:0:
476,291,220535,6,0,L|417:300,1,60,2|0,3:3|2:2,0:0:0:0:
399,304,220857,5,0,3:3:0:0:
418,221,221019,1,0,2:2:0:0:
392,322,221180,1,0,3:3:0:0:
345,199,221341,1,0,2:2:0:0:
411,326,221502,1,0,3:3:0:0:
463,162,221664,1,0,2:2:0:0:
398,341,221825,1,0,3:3:0:0:
323,86,221986,5,8,2:3:0:0:
232,384,222148,1,0,3:3:0:0:
197,43,222309,5,8,2:3:0:0:
225,379,222470,1,0,3:3:0:0:
77,62,222631,5,8,2:3:0:0:
214,384,222793,1,0,3:3:0:0:
436,38,222954,5,8,2:3:0:0:
17,265,223115,2,0,B|96:284|96:284|33:257,1,150,0|0,3:3|2:2,0:0:0:0:
428,76,224406,6,0,B|456:44|493:69|493:69|489:115|447:117|447:117|446:118|446:118|485:133|474:177|474:177|430:188|414:148|414:148|414:148|414:148|410:190|365:191|365:191|341:154|374:126|374:126|373:126|373:126|333:136|317:93|317:93|346:59|381:80|381:80|382:81|382:81|362:45|396:17|396:17|420:23|429:48,1,700,6|0,3:3|2:2,0:0:0:0:
417,167,225696,6,0,P|413:212|452:284,1,104.999996795654,6|0,3:3|2:2,0:0:0:0:
453,293,226019,2,0,P|348:273|311:289,1,150.000005722046,14|2,2:3|2:2,0:0:0:0:
255,384,226260,5,8,2:3:0:0:
255,384,226341,1,6,3:3:0:0:
300,302,226502,1,2,3:2:0:0:
132,265,226664,5,14,2:3:0:0:
368,384,226825,1,2,3:2:0:0:
309,94,226986,6,0,P|306:163|252:212,1,129.999994049073,6|2,2:3|3:2,0:0:0:0:
451,318,227309,2,0,P|416:286|395:202,1,129.999994049073,14|2,2:3|2:2,0:0:0:0:
432,138,227551,1,8,2:3:0:0:
432,138,227631,1,6,3:3:0:0:
321,307,227793,1,2,3:2:0:0:
251,24,227954,6,0,P|295:6|346:13,1,89.9999972534181,14|0,2:3|2:2,0:0:0:0:
345,5,228277,2,0,B|231:-32|236:93|116:58,1,240,6|0,3:3|2:2,0:0:0:0:
27,12,228599,6,0,P|91:67|87:173,1,160,14|2,2:3|2:2,0:0:0:0:
51,215,228841,1,0,2:2:0:0:
51,215,228922,1,6,3:3:0:0:
190,153,229083,1,2,3:2:0:0:
96,384,229244,5,14,2:3:0:0:
3,116,229406,1,2,3:2:0:0:
207,307,229567,5,6,2:3:0:0:
273,73,229728,1,2,3:2:0:0:
99,226,229889,5,14,2:3:0:0:
49,31,230051,1,2,2:2:0:0:
174,143,230212,5,6,3:3:0:0:
207,4,230373,1,2,3:2:0:0:
334,154,230535,6,0,P|297:175|251:174,1,75,6|0,2:2|2:2,0:0:0:0:
246,175,230857,2,0,P|298:212|313:289,1,134.999995880127,2|0,3:2|2:2,0:0:0:0:
307,308,231180,5,10,2:3:0:0:
503,259,231341,2,0,P|450:220|380:223,2,129.999994049073,2|2|0,2:2|3:3|3:3,0:0:0:0:
512,371,231825,5,10,2:3:0:0:
396,71,231986,2,0,B|385:4|452:-47|561:22|496:136|401:154|328:127|277:79,1,375.000014305115,2|0,3:2|2:2,0:0:0:0:
236,39,232470,5,10,2:3:0:0:
53,137,232631,1,2,2:2:0:0:
60,147,232712,1,0,2:2:0:0:
68,154,232793,2,0,P|139:174|216:115,1,170.000003242493,2|0,3:3|3:3,0:0:0:0:
12,63,233115,5,10,2:3:0:0:
113,11,233277,1,2,2:2:0:0:
72,278,233438,6,0,P|23:313|52:238,1,194.999991073609,2|0,3:3|2:2,0:0:0:0:
115,209,233760,1,10,2:3:0:0:
296,332,233922,5,2,2:2:0:0:
285,337,234002,1,0,2:2:0:0:
276,342,234083,2,0,P|209:335|147:279,1,150.000005722046,2|0,3:3|3:3,0:0:0:0:
370,313,234406,5,10,2:3:0:0:
240,73,234567,2,0,P|201:184|351:115,1,375.000014305115,2|0,3:2|2:2,0:0:0:0:
317,36,235051,5,10,2:3:0:0:
502,136,235212,2,0,L|486:69,2,64.9999970245363,10|8|10,2:2|2:2|3:3,0:0:0:0:
402,178,235535,5,10,2:3:0:0:
372,225,235615,1,8,2:3:0:0:
385,271,235696,1,10,2:3:0:0:
422,288,235777,1,8,2:3:0:0:
449,280,235857,1,10,2:3:0:0:
461,265,235938,1,8,2:3:0:0:
460,253,236019,2,0,B|361:225|372:323|265:301,1,194.999991073609,6|0,3:3|2:2,0:0:0:0:
205,259,236341,5,10,3:3:0:0:
298,65,236502,2,0,P|318:104|280:211,2,150.000005722046,2|2|2,2:2|3:3|3:2,0:0:0:0:
181,12,236986,5,10,2:3:0:0:
444,72,237148,2,0,P|461:146|414:87,1,194.999991073609,2|0,3:2|2:2,0:0:0:0:
379,22,237470,5,2,3:2:0:0:
283,209,237631,1,10,2:3:0:0:
409,272,237793,5,2,2:2:0:0:
407,262,237874,1,8,2:1:0:0:
405,252,237954,2,0,P|363:213|274:210,1,129.999994049073,2|0,3:3|3:3,0:0:0:0:
189,81,238277,2,0,P|121:122|92:196,1,150.000005722046,10|0,2:3|2:2,0:0:0:0:
245,384,238599,6,0,L|291:147,1,170.000003242493,6|2,3:3|2:2,0:0:0:0:
315,102,238841,1,8,2:1:0:0:
320,113,238922,1,10,2:3:0:0:
512,240,239083,6,0,L|492:156,1,69.9999978637696,2|0,3:3|2:2,0:0:0:0:
448,0,239406,6,0,L|428:84,1,69.9999978637696,2|0,3:3|2:2,0:0:0:0:
184,113,239728,6,0,P|125:187|275:200,1,320,6|2,3:3|3:2,0:0:0:0:
432,371,240212,5,10,2:3:0:0:
383,384,240293,1,2,2:2:0:0:
346,378,240374,1,10,2:1:0:0:
323,364,240455,1,10,2:1:0:0:
314,348,240535,2,0,P|309:338|325:276,1,55.0000016784668,10|2,2:3|2:2,0:0:0:0:
346,220,240696,5,10,2:2:0:0:
397,196,240777,1,10,2:2:0:0:
437,221,240857,1,10,2:3:0:0:
440,258,240938,1,10,2:3:0:0:
420,276,241019,1,10,2:3:0:0:
403,278,241099,1,10,2:3:0:0:
395,272,241180,6,0,P|400:165|441:83,1,194.999991073609,6|0,3:3|2:2,0:0:0:0:
509,27,241502,1,10,2:3:0:0:
252,0,241664,2,0,P|307:47|323:123,2,129.999994049073,2|2|2,2:2|3:3|3:2,0:0:0:0:
391,0,242148,5,10,2:3:0:0:
295,232,242309,2,0,P|198:282|228:165,1,279.999991455078,6|2,3:3|3:2,0:0:0:0:
394,158,242793,5,10,2:3:0:0:
512,303,242954,2,0,P|439:342|359:316,2,150.000005722046,2|2|2,2:2|3:3|3:2,0:0:0:0:
295,379,243438,5,10,2:3:0:0:
463,128,243599,2,0,P|422:53|386:157,1,240,6|0,3:3|2:2,0:0:0:0:
437,233,243922,5,2,3:2:0:0:
296,213,244083,1,10,2:3:0:0:
327,99,244244,5,2,3:2:0:0:
199,220,244406,1,10,2:3:0:0:
138,82,244567,5,2,3:2:0:0:
127,283,244728,1,10,2:3:0:0:
0,184,244889,5,2,3:2:0:0:
120,381,245051,1,10,2:3:0:0:
203,191,245212,5,2,3:2:0:0:
190,146,245293,1,2,3:2:0:0:
149,126,245373,1,10,2:3:0:0:
106,139,245454,1,2,3:2:0:0:
82,177,245535,1,2,3:2:0:0:
89,221,245615,1,2,3:2:0:0:
128,244,245696,2,0,L|181:256,3,50,10|2|2|2,2:3|3:2|3:2|3:2,0:0:0:0:
271,308,246019,5,14,2:1:0:0:
281,244,246099,1,14,2:1:0:0:
291,179,246180,1,2,2:2:0:0:
300,115,246260,1,2,2:2:0:0:
309,50,246341,2,0,B|196:24|195:129|100:121,1,225.000008583069,6|0,3:3|2:2,0:0:0:0:
8,98,246664,5,14,2:3:0:0:
238,355,246825,1,2,3:2:0:0:
218,23,246986,5,14,2:3:0:0:
74,331,247148,1,2,3:2:0:0:
395,230,247309,5,14,2:3:0:0:
6,84,247470,1,2,3:2:0:0:
388,43,247631,5,14,2:3:0:0:
97,230,247793,1,2,3:2:0:0:
469,192,247954,5,14,2:3:0:0:
206,106,248115,1,2,3:2:0:0:
464,100,248277,5,14,2:3:0:0:
287,185,248438,1,2,3:2:0:0:
480,0,248599,5,14,2:1:0:0:
375,362,248760,1,2,3:2:0:0:
159,73,248922,6,0,P|234:32|316:25,1,160,14|2,2:3|3:2,0:0:0:0:
400,38,249164,1,0,3:3:0:0:
400,38,249244,1,14,3:3:0:0:
62,140,249406,5,2,3:2:0:0:
62,140,249486,1,0,3:3:0:0:
62,140,249567,1,14,3:3:0:0:
334,260,249728,1,2,3:2:0:0:
12,260,249889,5,14,2:3:0:0:
361,130,250051,1,2,3:2:0:0:
197,384,250212,5,14,2:3:0:0:
271,48,250373,1,2,3:2:0:0:
79,347,250535,5,14,2:3:0:0:
0,97,250696,1,2,3:2:0:0:
174,305,250857,5,14,2:3:0:0:
213,140,251019,1,2,3:2:0:0:
53,227,251180,6,0,P|91:254|114:249,1,60,14|0,2:3|2:2,0:0:0:0:
115,247,251502,2,0,P|98:151|51:217,1,225.000008583069,6|0,2:2|2:2,0:0:0:0:
51,340,251825,5,14,2:3:0:0:
222,0,251986,1,2,3:2:0:0:
270,384,252148,5,14,2:3:0:0:
233,2,252309,1,2,3:2:0:0:
486,266,252470,5,14,2:3:0:0:
16,117,252631,1,2,3:2:0:0:
511,103,252793,5,14,2:3:0:0:
80,259,252954,1,2,3:2:0:0:
512,350,253115,5,14,2:3:0:0:
312,19,253277,1,2,3:2:0:0:
312,19,253357,1,0,3:3:0:0:
312,19,253438,1,14,3:3:0:0:
511,101,253599,1,2,3:2:0:0:
243,242,253760,5,14,2:1:0:0:
438,0,253922,1,2,3:2:0:0:
505,355,254083,6,0,P|396:359|325:326,1,179.999994506836,14|2,2:3|3:2,0:0:0:0:
256,246,254325,1,0,3:3:0:0:
256,246,254406,1,14,3:3:0:0:
22,369,254567,5,2,3:2:0:0:
22,369,254648,1,0,3:3:0:0:
22,369,254728,1,14,3:3:0:0:
128,111,254889,1,2,3:2:0:0:
407,379,255051,5,14,2:3:0:0:
232,3,255212,1,2,3:2:0:0:
23,352,255373,6,0,L|131:330,1,100.000003814697,2|2,3:3|2:2,0:0:0:0:
183,247,255588,2,0,L|280:266,1,100.000003814697,10|2,2:2|3:3,0:0:0:0:
380,362,255803,5,10,2:2:0:0:
428,348,255911,5,10,2:2:0:0:
476,334,256019,6,0,L|448:233,2,66.6666666666667,2|10|10,2:3|2:2|2:2,0:0:0:0:
371,205,256341,5,10,2:2:0:0:
378,172,256449,5,10,2:2:0:0:
385,139,256556,5,10,2:2:0:0:
430,109,256664,6,0,B|331:68|321:184|213:149,1,225.000008583069,6|0,3:3|2:2,0:0:0:0:
153,104,256986,1,10,3:3:0:0:
245,289,257148,2,0,P|261:238|209:144,2,150.000005722046,2|2|2,2:2|3:3|3:2,0:0:0:0:
130,353,257631,5,10,2:3:0:0:
416,293,257793,2,0,P|428:224|356:270,1,194.999991073609,2|0,3:2|2:2,0:0:0:0:
355,343,258115,5,2,3:2:0:0:
299,96,258277,1,10,2:3:0:0:
446,96,258438,5,2,2:2:0:0:
439,107,258519,1,8,2:1:0:0:
432,118,258599,2,0,P|323:117|296:94,1,129.999994049073,2|0,3:3|3:3,0:0:0:0:
98,221,258922,2,0,P|163:213|226:151,1,150.000005722046,10|0,2:3|2:2,0:0:0:0:
247,0,259244,6,0,L|275:188,1,170.000003242493,6|2,3:3|2:2,0:0:0:0:
238,283,259486,1,8,2:1:0:0:
239,274,259567,1,10,2:3:0:0:
0,116,259728,6,0,L|80:137,1,69.9999978637696,2|0,3:3|2:2,0:0:0:0:
85,329,260051,6,0,L|165:308,1,69.9999978637696,2|0,3:3|2:2,0:0:0:0:
456,227,260373,6,0,P|480:337|378:248,1,320,6|2,3:3|3:2,0:0:0:0:
233,365,260857,5,10,2:3:0:0:
165,304,261019,2,0,L|177:245,2,55.0000016784668,10|8|8,2:1|2:1|2:3,0:0:0:0:
261,198,261341,5,8,2:2:0:0:
278,138,261422,1,8,2:2:0:0:
245,98,261502,1,8,2:3:0:0:
207,103,261583,1,8,2:3:0:0:
192,125,261664,1,10,2:3:0:0:
195,145,261744,1,8,2:3:0:0:
205,153,261825,6,0,P|277:159|373:61,1,194.999991073609,6|0,3:3|2:2,0:0:0:0:
369,0,262148,1,10,2:3:0:0:
512,232,262309,6,0,P|464:193|378:187,2,129.999994049073,2|2|2,2:2|3:3|3:2,0:0:0:0:
512,324,262793,1,10,2:3:0:0:
220,376,262954,6,0,P|232:237|106:88,1,279.999991455078,6|2,3:3|3:2,0:0:0:0:
38,61,263438,1,10,2:3:0:0:
257,20,263599,6,0,P|240:65|155:119,2,150.000005722046,2|2|2,2:2|3:3|3:2,0:0:0:0:
375,55,264083,1,10,2:3:0:0:
53,327,264244,6,0,P|20:266|93:321,1,240,6|0,3:3|2:2,0:0:0:0:
110,384,264567,1,2,3:2:0:0:
275,169,264728,5,10,2:3:0:0:
392,384,264889,1,2,3:2:0:0:
482,80,265051,5,10,2:3:0:0:
314,365,265212,1,2,3:2:0:0:
261,0,265373,5,10,2:3:0:0:
441,321,265535,1,2,3:2:0:0:
512,196,265696,6,0,L|449:213,1,64.9999970245363,6|0,3:3|2:2,0:0:0:0:
206,178,266341,6,0,B|158:106|188:27|309:30|340:133|260:187|233:161|215:204|205:263,1,359.999989013672,6|0,3:3|2:2,0:0:0:0:
275,356,266986,6,0,P|221:306|71:278,1,225.000008583069,6|0,3:3|2:2,0:0:0:0:
0,334,267309,1,2,3:3:0:0:
320,253,267470,6,0,P|370:306|386:384,2,150.000005722046,10|2|2,2:3|2:2|3:2,0:0:0:0:
500,102,267954,2,0,P|454:145|443:235,2,150.000005722046,10|2|2,2:3|2:2|3:3,0:0:0:0:
271,0,268438,2,0,P|333:49|353:117,2,150.000005722046,10|2|2,2:3|2:2|3:2,0:0:0:0:
104,151,268922,6,0,P|171:155|246:93,1,150.000005722046,10|2,2:3|3:2,0:0:0:0:
0,200,269244,2,0,P|30:271|109:316,1,150.000005722046,2|2,2:2|3:2,0:0:0:0:
437,301,269567,6,0,P|355:255|164:272,1,269.999991760254,10|0,2:3|2:2,0:0:0:0:
99,311,269889,1,2,3:3:0:0:
108,0,270051,6,0,P|173:16|241:115,2,179.999994506836,10|2|2,2:3|2:3|3:2,0:0:0:0:
301,0,270535,1,10,2:3:0:0:
132,104,270696,1,2,2:2:0:0:
322,147,270857,1,2,3:3:0:0:
31,195,271019,5,10,2:3:0:0:
238,293,271180,1,2,2:2:0:0:
10,373,271341,1,2,3:2:0:0:
12,364,271422,1,0,3:3:0:0:
13,356,271503,2,0,P|108:313|196:334,1,150.000005722046,10|2,2:3|3:2,0:0:0:0:
222,201,271825,2,0,P|273:276|357:301,1,150.000005722046,10|2,2:3|3:2,0:0:0:0:
511,265,272067,5,0,3:3:0:0:
511,265,272148,2,0,P|462:306|431:386,2,150.000005722046,10|2|2,2:3|2:2|3:3,0:0:0:0:
313,124,272631,2,0,P|357:153|398:239,2,150.000005722046,10|2|2,2:3|2:3|3:2,0:0:0:0:
512,0,273115,2,0,P|476:38|459:143,2,150.000005722046,10|2|2,2:3|2:2|3:3,0:0:0:0:
228,20,273599,2,0,P|304:13|379:52,1,150.000005722046,10|2,2:3|3:3,0:0:0:0:
345,302,273922,5,2,3:2:0:0:
340,309,274002,1,0,3:3:0:0:
333,315,274083,2,0,P|248:326|173:277,1,150.000005722046,10|2,2:3|3:2,0:0:0:0:
76,354,274406,2,0,P|46:271|64:187,1,150.000005722046,2|2,2:3|3:2,0:0:0:0:
121,73,274728,6,0,P|60:105|-1:98,2,129.999994049073,10|2|2,2:3|2:2|3:3,0:0:0:0:
256,216,275212,2,0,P|207:181|137:178,2,115.000002193451,10|2|2,2:3|2:2|3:2,0:0:0:0:
372,54,275696,2,0,P|337:98|269:127,2,100,10|2|2,2:3|2:2|3:3,0:0:0:0:
499,205,276180,5,10,2:3:0:0:
463,113,276341,1,2,2:2:0:0:
406,197,276502,5,2,3:2:0:0:
409,209,276582,1,0,3:3:0:0:
412,221,276663,1,10,3:3:0:0:
504,306,276825,1,2,3:2:0:0:
276,384,276986,5,14,2:2:0:0:
335,269,277148,1,2,3:2:0:0:
22,137,277309,5,6,2:2:0:0:
172,262,277470,1,2,2:2:0:0:
206,71,277631,1,2,3:2:0:0:
37,289,277793,5,10,2:2:0:0:
228,322,277954,1,2,2:2:0:0:
162,139,278115,1,2,3:2:0:0:
125,384,278277,5,10,2:2:0:0:
273,201,278438,2,0,L|240:194,3,28.3333338737488,2|0|0|2,2:2|2:2|2:2|3:2,0:0:0:0:
492,220,278760,5,10,2:2:0:0:
317,303,278921,1,2,2:2:0:0:
329,110,279082,1,2,3:2:0:0:
460,384,279244,5,10,3:2:0:0:
510,59,279406,1,2,3:2:0:0:
294,303,279567,5,10,3:2:0:0:
505,56,279728,1,2,3:2:0:0:
196,140,279889,5,10,2:2:0:0:
370,223,280050,1,2,2:2:0:0:
358,29,280211,1,2,2:2:0:0:
277,301,280373,5,10,2:2:0:0:
469,285,280534,1,2,2:2:0:0:
362,123,280695,1,2,3:2:0:0:
388,384,280857,5,10,2:2:0:0:
485,149,281019,1,2,2:2:0:0:
267,293,281180,1,2,3:2:0:0:
271,28,281341,5,10,2:2:0:0:
367,235,281502,1,2,2:2:0:0:
147,148,281664,1,2,3:2:0:0:
259,384,281825,5,10,3:2:0:0:
264,147,281986,1,2,3:2:0:0:
108,334,282148,1,10,3:2:0:0:
113,141,282309,5,2,3:2:0:0:
125,144,282389,1,0,3:3:0:0:
137,147,282470,1,2,3:2:0:0:
192,283,282631,1,2,2:2:0:0:
49,257,282792,1,2,2:2:0:0:
261,167,282954,5,10,2:2:0:0:
232,384,283115,1,2,2:2:0:0:
58,251,283276,1,2,3:2:0:0:
338,283,283437,5,10,2:2:0:0:
101,380,283599,2,0,L|107:350,3,28.3333338737488,2|0|0|2,2:2|2:2|2:2|3:2,0:0:0:0:
391,172,283922,5,10,2:2:0:0:
229,65,284083,1,2,2:2:0:0:
215,253,284244,1,2,3:2:0:0:
336,66,284406,5,10,3:2:0:0:
375,359,284567,1,2,3:2:0:0:
143,152,284728,5,10,3:2:0:0:
370,363,284889,1,2,3:2:0:0:
466,131,285051,5,10,3:2:0:0:
351,215,285212,1,2,2:2:0:0:
481,274,285373,1,2,2:2:0:0:
288,67,285535,5,10,2:2:0:0:
366,123,285696,1,2,2:2:0:0:
277,163,285857,1,2,3:2:0:0:
426,0,286019,5,10,3:2:0:0:
363,44,286180,1,2,2:2:0:0:
433,77,286341,1,2,3:2:0:0:
183,7,286502,6,0,L|163:138,1,129.999994049073,14|2,2:3|3:2,0:0:0:0:
215,199,286744,1,0,3:3:0:0:
218,211,286825,1,2,3:2:0:0:
222,223,286906,1,0,3:3:0:0:
226,235,286986,5,14,2:2:0:0:
53,29,287148,1,2,3:2:0:0:
23,374,287309,5,14,2:1:0:0:
159,151,287470,1,2,3:2:0:0:
227,328,287631,6,0,P|166:375|166:294,1,179.999994506836,6|0,3:3|2:2,0:0:0:0:
212,254,287954,1,10,2:2:0:0:
417,378,288115,6,0,P|387:309|394:255,2,100,2|2|2,3:3|2:2|2:2,0:0:0:0:
492,134,288599,5,10,2:3:0:0:
492,134,288760,2,0,P|374:132|243:173,1,250,2|0,3:3|2:2,0:0:0:0:
195,239,289244,1,10,2:2:0:0:
73,131,289414,6,0,P|130:138|178:177,2,100,2|2|10,3:3|2:2|2:1,0:0:0:0:
3,167,289840,1,8,2:1:0:0:
3,167,289925,1,2,3:3:0:0:
265,5,290096,5,8,2:2:0:0:
283,31,290181,1,8,2:2:0:0:
273,63,290267,2,0,P|244:79|207:79,1,64.9999970245363,6|0,3:3|2:2,0:0:0:0:
10,355,290831,6,0,P|48:378|106:371,1,89.9999972534181,6|0,3:3|2:2,0:0:0:0:
495,10,291420,6,0,B|452:23|423:72|434:124|434:124|418:126|418:126|434:124|434:124|447:178|461:164|490:220|472:279|472:279|487:283|487:283|472:279|472:279|462:310|439:335|439:335|406:367|354:353|333:317|339:282|339:282|322:278|322:278|339:282|339:282|345:246|382:207|437:218|471:260|468:295|452:322|439:335|439:335|411:362|344:371|290:349|290:349|285:361|285:361|290:349|290:349|240:326|221:270|245:266|224:214|186:201|186:201|215:219|213:252|196:260|188:273|188:273|175:270|158:277|132:258|136:226|136:226|141:260|113:279|96:271|81:274|81:274|76:260|59:252|58:221|86:203|86:203|62:229|29:219|25:201|15:190|15:190|21:178|17:161|41:139|72:149|72:149|37:146|24:115|36:100|35:86|35:86|50:83|61:69|92:73|103:103|103:103|83:75|100:46|118:45|130:36|130:36|140:45|159:45|174:72|158:100|158:100|168:68|201:61|213:76|228:79|228:79|228:94|240:107|228:138|196:142|196:142|232:137|251:151|257:169|260:184|259:180,1,2287.99998603516,6|0,3:2|2:2,0:0:0:0:
