osu file format v14

[General]
AudioFilename: audio.mp3
AudioLeadIn: 0
PreviewTime: 144567
Countdown: 0
SampleSet: Soft
StackLeniency: 0.6
Mode: 0
LetterboxInBreaks: 0
WidescreenStoryboard: 1

[Editor]
Bookmarks: 110101
DistanceSpacing: 0.7
BeatDivisor: 4
GridSize: 16
TimelineZoom: 1

[Metadata]
Title:Masterpiece!
TitleUnicode:マスターピース!
Artist:Shimotsuki Haruka & Yamamoto Mineko
ArtistUnicode:霜月はるか & 山本美禰子
Creator:Nana Abe
Version:Suelle
Source:リディー&スールのアトリエ ~不思議な絵画の錬金術士~
Tags:Atelier Lydie & Suelle: The Alchemists and the Mysterious Paintings jpop japanese video game opening full ver takekii hanasaka yui takeki ~fushigi na kaiga no renkinjutsushi~ gust j-pop ボーカルアルバム vocal album
BeatmapID:2618970
BeatmapSetID:1259704

[Difficulty]
HPDrainRate:5
CircleSize:3.4
OverallDifficulty:8.5
ApproachRate:9.2
SliderMultiplier:1.8
SliderTickRate:1

[Events]
//Background and Video events
0,0,"sue.jpg",0,0
//Break Periods
//Storyboard Layer 0 (Background)
//Storyboard Layer 1 (Fail)
//Storyboard Layer 2 (Pass)
//Storyboard Layer 3 (Foreground)
//Storyboard Layer 4 (Overlay)
//Storyboard Sound Samples

[TimingPoints]
1224,337.078651685393,4,2,1,65,1,0
1224,-142.857142857143,4,2,1,65,0,0
10493,-71.4285714285714,4,2,1,65,0,0
10577,-100,4,2,1,5,0,0
10662,-100,4,2,1,72,0,0
12010,-119.047619047619,4,2,1,72,0,0
13358,-100,4,2,1,72,0,0
13695,-119.047619047619,4,2,1,72,0,0
15886,-100,4,2,1,72,0,0
16223,-119.047619047619,4,2,1,72,0,0
17403,-100,4,2,1,72,0,0
19510,-100,4,2,1,5,0,0
19594,-100,4,2,1,72,0,0
20100,-100,4,2,1,60,0,0
21448,-138.888888888889,4,2,1,60,0,0
23134,-153.846153846154,4,2,1,50,0,0
32909,-76.9230769230769,4,2,1,65,0,0
33920,-111.111111111111,4,2,1,65,0,0
38976,-83.3333333333333,4,2,1,65,0,0
40325,-90.0900900900901,4,2,1,70,0,0
41083,-93.4579439252336,4,2,1,5,0,0
41167,-93.4579439252336,4,2,1,70,0,0
44201,-85.4700854700855,4,2,1,70,0,0
49594,-94.3396226415094,4,2,1,70,0,0
49931,-119.047619047619,4,2,1,70,0,0
50943,-64.9350649350649,4,2,1,70,0,0
51027,-64.9350649350649,4,2,1,5,0,0
51111,-80.6451612903226,4,2,1,75,0,0
53808,-69.9300699300699,4,2,1,75,0,0
54988,-76.9230769230769,4,2,1,75,0,0
55662,-81.3008130081301,4,2,1,75,0,0
59370,-90.9090909090908,4,2,1,75,0,0
61898,-88.4955752212389,4,2,2,75,0,0
62235,-88.4955752212389,4,2,1,75,0,0
63077,-68.0272108843537,4,2,1,75,0,0
63330,-68.0272108843537,4,2,1,5,0,0
63415,-68.0272108843537,4,2,1,75,0,0
64089,-250,4,2,1,75,0,0
64426,-250,4,2,1,5,0,0
64594,-80.6451612903226,4,2,1,80,0,1
65437,-86.2068965517241,4,2,1,80,0,1
67291,-81.3008130081301,4,2,1,80,0,1
67544,-81.3008130081301,4,2,1,5,0,1
67628,-86.9565217391304,4,2,1,80,0,1
71589,-86.9565217391304,4,2,1,5,0,1
71673,-86.9565217391304,4,2,1,80,0,1
73190,-86.9565217391304,4,2,2,80,0,1
73527,-86.9565217391304,4,2,1,80,0,1
74454,-86.9565217391304,4,2,1,5,0,1
74538,-86.9565217391304,4,2,1,80,0,1
75297,-86.9565217391304,4,2,1,5,0,1
75381,-86.9565217391304,4,2,1,80,0,1
75634,-86.9565217391304,4,2,1,5,0,1
75718,-86.9565217391304,4,2,1,80,0,1
75971,-86.9565217391304,4,2,1,5,0,1
76055,-86.9565217391304,4,2,1,80,0,1
76561,-74.0740740740741,4,2,1,80,0,1
76645,-74.0740740740741,4,2,1,5,0,1
76729,-86.9565217391304,4,2,1,80,0,1
82122,-86.9565217391304,4,2,2,80,0,1
82291,-86.9565217391304,4,2,1,80,0,1
86420,-86.9565217391304,4,2,1,5,0,1
86504,-86.9565217391304,4,2,1,80,0,1
87094,-86.9565217391304,4,2,1,5,0,1
87179,-86.9565217391304,4,2,1,80,0,1
87516,-80,4,2,1,80,0,1
87853,-90.9090909090909,4,2,1,65,0,0
88528,337.078651685393,4,2,1,65,1,0
88528,-133.333333333333,4,2,1,65,0,0
89876,-166.666666666667,4,2,1,65,0,0
91224,-133.333333333333,4,2,1,65,0,0
91730,-200,4,2,1,65,0,0
92403,-117.647058823529,4,2,1,65,0,0
93921,-107.52688172043,4,2,1,65,0,0
96617,-93.4579439252336,4,2,1,65,0,0
97797,-90.9090909090909,4,2,1,65,0,0
98134,-58.8235294117647,4,2,1,65,0,0
98219,-58.8235294117647,4,2,1,5,0,0
98303,-90.9090909090909,4,2,1,65,0,0
98808,-100,4,2,1,65,0,0
99314,-142.857142857143,4,2,1,65,0,0
99651,-142.857142857143,4,2,1,50,0,0
107235,-75.7575757575758,4,2,1,50,0,0
107404,-142.857142857143,4,2,1,50,0,0
109426,-76.9230769230769,4,2,1,65,0,0
110438,-111.111111111111,4,2,1,65,0,0
112460,-83.3333333333333,4,2,1,65,0,0
112713,-117.647058823529,4,2,1,5,0,0
112797,-111.111111111111,4,2,1,65,0,0
113977,-97.0873786407767,4,2,1,65,0,0
114314,-111.111111111111,4,2,1,65,0,0
118190,-76.9230769230769,4,2,1,65,0,0
119623,-76.9230769230769,4,2,1,5,0,0
119707,-76.9230769230769,4,2,1,65,0,0
120887,-90.0900900900901,4,2,1,70,0,0
121645,-106.382978723404,4,2,1,5,0,0
121730,-93.4579439252336,4,2,1,70,0,0
123415,-85.4700854700855,4,2,1,70,0,0
128219,-85.4700854700855,4,2,1,5,0,0
128303,-85.4700854700855,4,2,1,70,0,0
131674,-86.9565217391304,4,2,1,75,0,0
134370,-80.6451612903226,4,2,1,75,0,0
135044,-75.7575757575758,4,2,1,75,0,0
136224,-74.6268656716418,4,2,1,75,0,0
136561,-80.6451612903226,4,2,1,75,0,0
138331,-80.6451612903226,4,2,1,5,0,0
138415,-80.6451612903226,4,2,1,75,0,0
139595,-80.6451612903226,4,2,1,75,0,0
139932,-90.9090909090909,4,2,1,75,0,0
142460,-84.7457627118644,4,2,1,75,0,0
143640,-60.6060606060606,4,2,1,75,0,0
143893,-68.9655172413793,4,2,1,5,0,0
143977,-68.9655172413793,4,2,1,75,0,0
144145,-74.0740740740741,4,2,1,75,0,0
144567,-74.0740740740741,4,2,1,5,0,0
144651,-65.359477124183,4,2,1,75,0,0
145072,-65.359477124183,4,2,1,5,0,0
145157,-90.9090909090909,4,2,1,80,0,1
145662,-81.3008130081301,4,2,1,80,0,1
145999,-86.9565217391304,4,2,1,80,0,1
147853,-80.6451612903226,4,2,1,80,0,1
148190,-86.9565217391304,4,2,1,80,0,1
155943,-80,4,2,1,80,0,1
156280,-86.9565217391304,4,2,1,80,0,1
157207,-86.9565217391304,4,2,1,5,0,1
157292,-86.9565217391304,4,2,1,80,0,1
159904,-86.9565217391304,4,2,1,5,0,1
159988,-86.9565217391304,4,2,1,80,0,1
164033,-82.6446280991736,4,2,1,80,0,1
168078,-69.9300699300699,4,2,1,80,0,1
168415,-80,4,2,1,65,0,0
168836,348.837209302326,4,2,1,65,1,8
169359,288.461538461538,4,2,1,65,1,8
169503,355.029585798817,4,2,1,65,1,0
169769,337.078651685393,3,2,1,65,1,0
169769,-125,3,2,1,65,0,0
174993,-100,3,2,1,65,0,0
175330,-125,3,2,1,65,0,0
177353,-108.695652173913,3,2,1,65,0,0
177690,-125,3,2,1,65,0,0
178870,-111.111111111111,3,2,1,65,0,0
181398,-100,3,2,1,65,0,0
181651,-100,3,2,1,5,0,0
181735,-100,3,2,1,65,0,0
183167,-100,3,2,1,5,0,0
183252,-100,3,2,1,65,0,0
183842,-100,3,2,1,5,0,0
183927,-100,3,2,1,65,0,0
188308,-83.3333333333333,3,2,1,65,0,0
189235,-100,3,2,1,5,0,0
189319,-100,3,2,1,65,0,0
191004,337.078651685393,4,2,1,65,1,0
191004,-100,4,2,1,65,0,0
191341,-114.942528735632,4,2,1,65,0,0
199093,-100,4,2,1,65,0,0
201790,-83.3333333333333,4,2,1,65,0,0
202127,-100,4,2,1,65,0,0
206341,-90.9090909090909,4,2,1,65,0,0
206846,-100,4,2,1,65,0,0
207183,-83.3333333333333,4,2,1,65,0,0
210638,-83.3333333333333,4,2,1,5,0,0
210723,-83.3333333333333,4,2,1,65,0,0
210891,-83.3333333333333,4,2,2,65,0,0
211060,-83.3333333333333,4,2,1,65,0,0
211650,-100,4,2,1,5,0,0
211734,-100,4,2,1,65,0,0
212577,-90.9090909090909,4,2,1,72,0,0
213588,-90.9090909090909,4,2,2,72,0,0
213756,-90.9090909090909,4,2,1,72,0,0
215273,-76.9230769230769,4,2,1,72,0,0
215610,-90.9090909090909,4,2,1,72,0,0
216284,-90.9090909090909,4,2,2,72,0,0
216453,-90.9090909090909,4,2,1,72,0,0
217296,-90.9090909090909,4,2,2,72,0,0
217464,-90.9090909090909,4,2,1,72,0,0
218475,-81.3008130081301,4,2,2,72,0,0
218728,-90.9090909090909,4,2,2,5,0,0
218812,-90.9090909090909,4,2,1,72,0,0
220161,-95.2380952380952,4,2,1,75,0,0
220329,-95.2380952380952,4,2,1,84,0,0
220666,-85.4700854700855,4,2,1,72,0,0
221172,-93.4579439252336,4,2,1,72,0,0
221509,-93.4579439252336,4,2,1,72,0,0
222014,-93.4579439252336,4,2,1,72,0,0
223363,-72.992700729927,4,2,2,72,0,0
223700,-93.4579439252336,4,2,1,72,0,0
224205,-93.4579439252336,4,2,1,72,0,0
226060,-93.4579439252336,4,2,2,72,0,0
226397,-93.4579439252336,4,2,1,72,0,0
231453,-85.4700854700855,4,2,1,72,0,0
231790,-93.4579439252336,4,2,1,72,0,0
234150,-88.4955752212389,4,2,1,72,0,0
242239,-88.4955752212389,4,2,2,72,0,0
242577,-88.4955752212389,4,2,1,72,0,0
243503,-95.2380952380952,4,2,1,5,0,0
243588,-88.4955752212389,4,2,1,72,0,0
244262,-88.4955752212389,4,2,2,72,0,0
244430,-88.4955752212389,4,2,1,72,0,0
244936,-84.8231520131539,4,2,2,72,0,0
245273,-84.8231520131539,4,2,1,72,0,0
245947,-84.8231520131539,4,2,2,72,0,0
246284,-84.8231520131539,4,2,1,72,0,0
247296,-84.8231520131539,4,2,2,72,0,0
247464,-84.8231520131539,4,2,1,72,0,0
248307,-84.8231520131539,4,2,2,72,0,0
248475,-84.8231520131539,4,2,1,72,0,0
248812,-84.8231520131539,4,2,2,72,0,0
248981,-84.8231520131539,4,2,1,72,0,0
249318,-80,4,2,1,72,0,0
249655,-84.8231520131539,4,2,1,72,0,0
249824,-84.8231520131539,4,2,2,72,0,0
249992,-84.8231520131539,4,2,1,72,0,0
250835,-84.8231520131539,4,2,2,72,0,0
251172,-84.8231520131539,4,2,1,72,0,0
253026,-84.8231520131539,4,2,2,72,0,0
253700,-200,4,2,1,65,0,0
254206,-200,4,2,1,40,0,0
254374,-200,4,2,1,60,0,0
254880,-200,4,2,1,35,0,0
255048,-200,4,2,1,55,0,0
255723,-200,4,2,1,30,0,0
256902,-200,4,2,1,26,0,0
257745,-250,4,2,1,65,0,0
257998,-250,4,2,1,5,0,0
258082,337.078651685393,4,2,1,80,1,0
258082,-90.9090909090909,4,2,1,80,0,1
259346,-90.9090909090909,4,2,1,5,0,1
259430,-61.3496932515337,4,2,1,80,0,1
260104,-90.9090909090909,4,2,1,80,0,1
261958,-80,4,2,1,80,0,1
262295,-90.9090909090909,4,2,1,80,0,1
263475,-86.9565217391304,4,2,1,80,0,1
266171,-80,4,2,1,80,0,1
267520,-80,4,2,1,87,0,1
268868,-90.9090909090909,4,2,1,80,0,1
269374,-71.4285714285714,4,2,1,80,0,1
269711,-80,4,2,1,80,0,1
271565,-71.4285714285714,4,2,1,80,0,1
271902,-83.3333333333333,4,2,1,80,0,1
273924,-200,4,2,1,80,0,1
274177,-125,4,2,1,5,0,1
274261,-90.9090909090909,4,2,1,80,0,1
275610,-75.187969924812,4,2,1,87,0,1
276958,-75.187969924812,4,2,1,80,0,1
277969,-75.187969924812,4,2,2,80,0,1
278138,-75.187969924812,4,2,1,80,0,1
281677,-81.3008130081301,4,2,1,87,0,1
282351,-69.9300699300699,4,2,1,87,0,1
283025,-78.125,4,2,1,87,0,1
283531,-81.3008130081301,4,2,1,80,0,1
290441,-303.030303030303,4,2,1,80,0,1
290694,-303.030303030303,4,2,1,5,0,1
290778,-69.9300699300699,4,2,1,80,0,1
291621,-81.3008130081301,4,2,1,87,0,1
293138,-66.6666666666667,4,2,1,80,0,1
293643,-80,4,2,1,80,0,1
299037,-80,4,2,2,80,0,1
299374,-80,4,2,1,80,0,1
300216,-71.4285714285714,4,2,1,80,0,1
300553,-75.7575757575758,4,2,1,80,0,1
302239,-70.4225352112676,4,2,1,80,0,1
302576,-65.7894736842105,4,2,1,80,0,1
302913,-100,4,2,1,5,0,0
303924,-100,4,2,1,75,0,0
304261,337.078651685393,4,2,1,75,1,0
304767,-111.111111111111,4,2,1,60,0,0
305778,-125,4,2,1,65,0,0
306284,-142.857142857143,4,2,1,53,0,0
306789,389.61038961039,4,2,1,43,1,0
306789,-166.666666666667,4,2,1,43,0,0
307298,483.870967741935,4,2,1,43,1,8
307298,-285.714285714286,4,2,1,43,0,0
309113,-221.092195445501,4,2,1,60,0,0
309476,526.315789473684,4,2,1,65,1,8
310528,337.078651685393,4,2,1,65,1,8
310696,297.029702970297,4,2,1,65,1,8
314557,-100,4,2,1,5,0,0

[Colours]
Combo1 : 250,180,240
Combo2 : 255,175,128
Combo3 : 255,230,130
Combo4 : 163,234,155

[HitObjects]
83,136,718,5,0,0:0:0:0:
134,130,887,1,0,0:0:0:0:
182,144,1055,1,0,0:0:0:0:
211,185,1224,1,10,0:1:0:0:
211,185,1729,1,0,0:0:0:0:
70,224,1898,2,0,P|22:196|2:113,1,125.999996154785,2|0,0:0|0:0,0:0:0:0:
153,250,2403,2,0,P|152:305|91:365,2,125.999996154785,2|0|2,0:0|0:0|0:0,0:0:0:0:
153,250,3415,5,0,0:0:0:0:
200,292,3583,1,0,0:0:0:0:
260,304,3752,2,0,P|302:292|338:292,1,62.9999980773926,2|8,0:0|0:1,0:0:0:0:
321,290,4426,2,0,P|363:302|397:303,1,62.9999980773926,2|2,0:0|0:0,0:0:0:0:
382,303,5100,2,0,P|424:291|461:290,1,62.9999980773926,2|2,0:0|0:0,0:0:0:0:
510,176,5606,1,2,0:0:0:0:
321,290,5774,6,0,P|363:302|398:302,1,62.9999980773926,2|0,0:0|0:0,0:0:0:0:
382,303,6111,2,0,P|416:291|451:289,1,62.9999980773926,2|0,0:0|0:0,0:0:0:0:
244,348,6448,1,2,0:0:0:0:
258,223,6617,6,0,B|256:149|317:119|317:119|326:149|311:182,1,188.999994232178,10|0,0:1|0:0,0:0:0:0:
409,210,7459,2,0,P|402:151|414:85,1,125.999996154785,2|0,0:2|0:0,0:0:0:0:
283,31,7965,2,0,P|236:68|173:88,1,125.999996154785,2|2,0:1|0:0,0:0:0:0:
7,61,8471,1,2,0:0:0:0:
7,61,8808,2,0,P|53:97|95:153,1,125.999996154785,2|2,0:0|0:0,0:0:0:0:
28,335,9313,6,0,P|-4:294|111:288,1,251.999992309571,10|2,0:1|0:0,0:0:0:0:
115,292,10493,6,0,B|118:311|106:327|106:327|102:304|98:294,1,62.9999980773926,4|0,0:2|0:0,0:0:0:0:
268,168,10662,5,8,0:1:0:0:
167,130,10830,1,8,0:1:0:0:
301,272,10999,1,8,0:3:0:0:
352,110,11167,1,8,0:3:0:0:
196,351,11336,1,8,0:0:0:0:
120,23,11504,1,8,0:0:0:0:
208,364,11673,1,4,0:1:0:0:
208,364,12010,6,0,P|275:343|356:347,1,151.199995385742,6|8,0:0|0:0,0:0:0:0:
496,222,12516,2,0,P|424:224|349:196,1,151.199995385742,4|0,0:1|0:0,0:0:0:0:
304,36,13021,1,8,0:1:0:0:
383,106,13190,1,8,0:0:0:0:
269,260,13358,2,0,B|169:242,1,90,10|8,0:1|0:1,0:0:0:0:
66,159,13695,5,8,0:1:0:0:
34,269,13864,1,8,0:3:0:0:
170,138,14032,1,10,0:0:0:0:
40,143,14201,1,8,0:1:0:0:
97,349,14370,1,8,0:3:0:0:
110,57,14538,1,4,0:3:0:0:
348,162,14707,5,4,0:2:0:0:
348,162,15044,2,0,P|335:128|336:89,1,75.5999976928712,8|0,0:1|0:0,0:0:0:0:
465,219,15381,2,0,L|444:368,1,151.199995385742,10|0,0:0|0:0,0:0:0:0:
502,51,15886,6,0,B|472:17|472:17|417:66|451:140,1,180,4|8,0:0|0:1,0:0:0:0:
443,368,16392,1,8,0:0:0:0:
266,275,16561,2,0,P|264:239|280:199,1,75.5999976928712,2|0,0:0|0:0,0:0:0:0:
338,350,16898,1,2,0:0:0:0:
157,214,17066,1,10,0:0:0:0:
357,123,17235,1,2,0:0:0:0:
142,228,17403,6,0,L|45:275,1,90,4|0,0:1|3:0,0:0:0:0:
114,18,17740,2,0,P|157:26|183:62,1,90,8|0,0:0|3:0,0:0:0:0:
5,180,18077,2,0,P|86:141|196:153,1,180,10|8,0:1|0:0,0:0:0:0:
377,134,18583,2,0,P|398:94|398:41,1,90,2|8,3:2|0:1,0:0:0:0:
276,178,18920,2,0,P|300:216|345:241,1,90,2|8,3:2|0:0,0:0:0:0:
471,371,19257,2,0,P|391:329|290:329,1,180,2|2,3:2|3:2,0:0:0:0:
193,366,19763,1,10,0:0:0:0:
69,341,19931,1,2,0:0:0:0:
20,220,20100,5,6,0:0:0:0:
94,168,20353,1,2,0:0:0:0:
179,196,20606,1,2,0:0:0:0:
14,92,20774,1,2,0:0:0:0:
88,144,21027,1,2,0:0:0:0:
173,116,21280,1,2,0:0:0:0:
189,112,21364,1,2,0:0:0:0:
199,103,21448,6,0,P|245:68|313:88,1,129.600003164063,2|0,0:0|0:0,0:0:0:0:
123,42,21954,2,0,P|76:6|10:23,1,129.600003164063,2|0,0:0|0:0,0:0:0:0:
324,78,22459,2,0,P|333:55|334:31,2,32.4000007910156,2|2|2,0:0|0:0|0:0,0:0:0:0:
186,269,22797,5,4,0:0:0:0:
186,269,23134,6,0,P|184:311|189:333,1,58.4999973220826,2|8,0:0|0:1,0:0:0:0:
262,373,23471,1,2,0:0:0:0:
288,376,23808,1,8,0:0:0:0:
318,374,24061,1,8,0:0:0:0:
341,363,24145,1,8,0:1:0:0:
344,166,24650,2,0,P|290:179|277:234,1,116.999994644165,8|8,0:0|0:1,0:0:0:0:
418,204,25156,1,2,0:0:0:0:
417,90,25325,1,10,0:1:0:0:
408,75,25409,1,8,0:0:0:0:
397,70,25493,6,0,L|267:66,1,116.999994644165,10|0,0:1|0:0,0:0:0:0:
195,110,25999,2,0,P|138:96|80:86,1,116.999994644165,10|0,0:0|0:0,0:0:0:0:
0,52,26504,1,2,0:0:0:0:
112,180,26673,2,0,L|235:207,1,116.999994644165,2|0,0:0|0:0,0:0:0:0:
10,159,27179,1,2,0:0:0:0:
135,310,27347,2,0,P|100:264|44:254,1,116.999994644165,8|0,0:2|0:0,0:0:0:0:
44,374,27853,1,2,0:0:0:0:
319,334,28106,1,8,0:0:0:0:
311,330,28190,6,0,P|313:272|353:231,1,116.999994644165,2|8,0:3|0:1,0:0:0:0:
502,161,28695,2,0,B|514:194|514:194|457:140|383:137,1,175.499991966248,10|8,0:0|0:0,0:0:0:0:
473,22,29454,1,8,0:0:0:0:
470,37,29538,2,0,P|439:51|392:51,1,58.4999973220826,10|0,0:1|0:0,0:0:0:0:
305,26,29875,2,0,P|274:12|227:12,1,58.4999973220826,2|8,0:0|0:0,0:0:0:0:
136,142,30212,6,0,P|190:144|243:88,1,116.999994644165,2|8,0:0|0:0,0:0:0:0:
53,103,30718,1,8,0:1:0:0:
46,119,30802,1,8,0:1:0:0:
48,134,30886,2,0,L|31:276,1,116.999994644165,10|0,0:1|0:0,0:0:0:0:
210,317,31392,2,0,P|174:271|120:251,1,116.999994644165,8|0,0:0|0:0,0:0:0:0:
293,368,31898,2,0,L|343:356,3,29.2499986610413,8|0|0|0,0:0|0:0|0:0|0:0,0:0:0:0:
349,126,32235,5,8,0:1:0:0:
378,156,32909,6,0,L|355:283,1,116.999994644165,4|0,0:0|0:0,0:0:0:0:
496,15,33246,6,0,L|473:142,1,116.999994644165,4|0,0:0|0:0,0:0:0:0:
250,255,33583,6,0,B|211:273|195:311|195:311|142:228|192:166,1,233.999989288331,4|8,0:1|0:1,0:0:0:0:
343,46,34089,1,2,3:2:0:0:
296,142,34257,1,8,0:1:0:0:
193,53,34426,2,0,P|160:22|118:-2,1,80.9999975280763,2|8,3:0|0:1,0:0:0:0:
340,278,34763,1,2,0:0:0:0:
340,278,35100,2,0,P|322:314|300:349,1,80.9999975280763,0|8,3:0|0:1,0:0:0:0:
434,312,35437,1,0,3:0:0:0:
275,368,35606,2,0,P|236:378|195:383,1,80.9999975280763,10|0,0:1|3:0,0:0:0:0:
14,314,35943,2,0,P|53:324|93:329,1,80.9999975280763,10|0,0:1|3:0,0:0:0:0:
222,266,36280,6,0,B|190:257|190:257|160:191|210:139,2,161.999995056153,10|8|8,0:1|0:1|0:1,0:0:0:0:
112,88,37122,2,0,P|89:50|50:18,1,80.9999975280763,0|10,3:0|0:1,0:0:0:0:
307,153,37459,2,0,P|377:114|454:91,1,161.999995056153,2|2,3:0|3:0,0:0:0:0:
312,38,37965,1,0,0:3:0:0:
436,268,38134,2,0,P|489:246|423:175,1,161.999995056153,2|2,3:0|0:0,0:0:0:0:
262,303,38639,2,0,P|295:275|344:266,1,80.9999975280763,8|2,0:3|0:0,0:0:0:0:
498,373,38976,1,4,0:1:0:0:
495,348,39061,1,0,0:0:0:0:
485,326,39144,1,0,0:0:0:0:
469,307,39228,1,0,0:0:0:0:
450,294,39313,1,2,0:0:0:0:
426,286,39397,1,2,0:0:0:0:
402,285,39481,1,2,0:0:0:0:
380,291,39565,1,2,0:0:0:0:
359,304,39650,5,8,0:0:0:0:
482,19,39819,1,8,0:0:0:0:
482,19,40325,5,4,0:1:0:0:
500,134,40493,1,2,0:0:0:0:
363,17,40662,1,8,0:0:0:0:
244,134,40830,2,0,L|141:242,1,149.850003658447,2|0,0:0|0:0,0:0:0:0:
84,299,41167,5,8,0:1:0:0:
117,102,41336,1,8,0:0:0:0:
304,299,41504,2,0,B|321:325|319:357|319:357|282:296|225:263,1,192.599994122315,6|0,0:0|0:0,0:0:0:0:
382,122,42010,1,8,0:0:0:0:
422,253,42179,1,10,0:1:0:0:
243,61,42347,1,8,0:1:0:0:
469,15,42516,1,10,0:1:0:0:
222,185,42684,1,8,0:0:0:0:
222,185,43021,6,0,P|182:149|61:154,1,144.449995591736,4|0,0:1|0:0,0:0:0:0:
9,187,43358,1,2,0:0:0:0:
204,152,43527,2,0,P|240:112|237:-9,1,144.449995591736,8|0,0:0|0:0,0:0:0:0:
176,8,43864,1,8,0:3:0:0:
341,103,44032,1,4,0:3:0:0:
196,290,44201,6,0,B|125:353|59:325|59:325|49:295|80:263,1,210.600000803375,12|8,0:0|0:1,0:0:0:0:
362,317,44707,1,8,0:3:0:0:
326,124,44875,2,0,P|330:167|385:218,1,105.300000401688,4|2,0:0|0:0,0:0:0:0:
464,40,45212,5,8,0:3:0:0:
204,152,45381,1,8,0:0:0:0:
464,40,45549,2,0,P|460:83|405:134,1,105.300000401688,10|4,0:1|0:1,0:0:0:0:
190,39,45886,5,10,0:1:0:0:
438,138,46055,1,8,0:0:0:0:
190,39,46223,2,0,L|92:-4,1,105.300000401688,12|8,0:0|0:1,0:0:0:0:
477,34,46561,5,8,0:3:0:0:
338,137,46729,1,8,0:0:0:0:
444,355,46898,2,0,P|472:294|354:275,1,210.600000803375,4|8,0:2|0:1,0:0:0:0:
175,317,47403,1,8,0:0:0:0:
265,251,47572,1,8,0:1:0:0:
273,353,47740,1,8,0:3:0:0:
169,113,47909,1,4,0:3:0:0:
55,340,48077,1,10,0:0:0:0:
330,192,48246,1,8,0:3:0:0:
53,119,48415,6,0,P|43:60|60:-1,1,105.300000401688,4|0,0:1|0:0,0:0:0:0:
110,257,48752,1,8,0:1:0:0:
348,185,48920,6,0,B|422:149|443:81|443:81|452:118|426:161,1,210.600000803375,12|0,0:2|0:0,0:0:0:0:
231,333,49426,1,8,0:0:0:0:
258,99,49594,5,4,0:1:0:0:
398,278,49763,2,0,P|442:292|489:286,1,95.4000001455689,8|8,0:0|0:1,0:0:0:0:
351,41,50100,1,8,0:3:0:0:
311,318,50268,5,2,0:0:0:0:
153,129,50437,1,8,0:0:0:0:
398,178,50606,1,8,0:3:0:0:
467,142,50690,1,8,0:3:0:0:
484,67,50774,1,8,0:1:0:0:
478,56,50943,6,0,B|488:37|485:20|485:20|507:31|510:56,1,69.2999986253357,12|0,0:0|0:0,0:0:0:0:
170,146,51111,6,0,P|114:147|65:123,1,111.59999557251,4|8,0:1|0:1,0:0:0:0:
296,31,51448,1,8,0:0:0:0:
270,142,51617,5,8,0:3:0:0:
94,10,51785,1,8,0:1:0:0:
188,47,51954,1,8,0:3:0:0:
40,298,52122,1,8,0:0:0:0:
170,146,52291,5,6,0:3:0:0:
356,366,52459,2,0,P|411:366|457:337,1,111.59999557251,10|8,0:1|0:3,0:0:0:0:
301,197,52797,2,0,P|273:244|274:299,1,111.59999557251,10|12,0:0|0:3,0:0:0:0:
505,229,53134,2,0,P|477:181|429:154,1,111.59999557251,8|8,0:1|0:3,0:0:0:0:
166,265,53471,2,0,P|168:319|198:365,1,111.59999557251,8|8,0:0|2:2,0:0:0:0:
64,25,53808,6,0,P|185:39|230:153,2,257.400003534851,6|8|8,0:1|0:0|0:1,0:0:0:0:
273,235,54650,1,8,0:3:0:0:
304,20,54819,1,4,0:3:0:0:
119,240,54988,6,0,P|18:188|5:77,1,233.999989288331,6|2,0:1|0:0,0:0:0:0:
138,334,55493,1,2,0:0:0:0:
326,236,55662,6,0,P|433:227|511:300,1,221.400003378296,12|2,0:0|0:0,0:0:0:0:
201,158,56167,1,8,0:3:0:0:
355,47,56336,1,4,0:3:0:0:
259,354,56504,5,12,0:0:0:0:
241,255,56673,1,8,0:1:0:0:
423,263,56841,5,8,0:0:0:0:
337,315,57010,1,8,0:3:0:0:
136,84,57179,5,8,0:0:0:0:
335,231,57347,1,4,0:3:0:0:
439,1,57516,1,10,0:0:0:0:
220,174,57684,6,0,B|86:141|137:225|6:186,1,221.400003378296,6|0,0:1|0:0,0:0:0:0:
328,123,58190,2,0,P|357:72|332:0,1,110.700001689148,12|0,0:0|0:0,0:0:0:0:
158,275,58527,1,8,0:0:0:0:
343,357,58695,1,8,0:1:0:0:
404,284,58864,1,8,0:3:0:0:
80,367,59032,6,0,B|46:355|22:327|22:327|2:253|43:182,1,221.400003378296,6|0,0:1|3:0,0:0:0:0:
174,47,59538,2,0,P|171:96|145:138,1,99.0000030212403,8|0,0:0|3:0,0:0:0:0:
0,26,59875,2,0,P|38:56|86:65,1,99.0000030212403,10|0,0:1|3:0,0:0:0:0:
248,127,60212,2,0,P|296:117|334:87,1,99.0000030212403,10|0,0:0|3:0,0:0:0:0:
481,36,60549,2,0,P|442:66|423:111,1,99.0000030212403,4|0,0:0|3:0,0:0:0:0:
396,234,60886,2,0,P|412:280|448:313,1,99.0000030212403,10|0,0:0|3:0,0:0:0:0:
283,373,61223,2,0,P|285:324|312:283,1,99.0000030212403,8|0,0:1|3:0,0:0:0:0:
417,209,61561,2,0,P|466:213|508:239,1,99.0000030212403,8|8,0:0|3:2,0:0:0:0:
192,317,61898,6,0,P|111:372|17:345,1,203.400000620728,12|8,0:2|0:0,0:0:0:0:
170,77,62403,1,8,0:1:0:0:
96,273,62572,1,8,0:0:0:0:
210,206,62740,1,8,0:3:0:0:
59,153,62909,1,4,0:3:0:0:
420,274,63077,6,0,P|466:186|462:88,1,198.449990764275,4|0,0:1|0:0,0:0:0:0:
421,22,63415,1,8,0:3:0:0:
397,355,63583,1,8,0:0:0:0:
397,355,63920,1,8,0:3:0:0:
282,73,64089,2,0,P|309:70|354:94,1,72,12|0,0:1|0:0,0:0:0:0:
307,267,64594,5,12,0:0:0:0:
362,173,64763,1,8,0:1:0:0:
166,24,64931,1,10,0:0:0:0:
383,183,65100,2,0,P|463:124|419:22,1,223.19999114502,10|8,0:1|0:1,0:0:0:0:
196,212,65606,2,0,P|148:193|117:152,1,104.400003186035,8|8,0:0|0:1,0:0:0:0:
336,301,65943,5,10,0:0:0:0:
201,120,66111,1,8,0:1:0:0:
348,88,66280,5,10,0:0:0:0:
244,344,66448,1,8,0:3:0:0:
126,73,66617,5,10,0:0:0:0:
302,228,66785,1,4,0:3:0:0:
48,331,66954,5,8,0:0:0:0:
64,245,67122,1,12,0:3:0:0:
441,333,67291,6,0,B|475:321|499:293|499:293|519:219|478:148,1,221.400003378296,14|8,0:0|0:0,0:0:0:0:
239,44,67797,1,8,0:1:0:0:
350,164,67965,1,8,0:0:0:0:
437,10,68134,1,8,0:3:0:0:
351,67,68302,1,6,0:3:0:0:
64,157,68471,6,0,B|-5:99|42:9|42:9|103:48,1,207.000003948212,6|8,0:0|0:1,0:0:0:0:
298,253,68976,2,0,P|246:259|197:246,1,103.500001974106,4|0,0:1|0:0,0:0:0:0:
365,131,69313,1,8,0:3:0:0:
294,353,69482,1,12,0:3:0:0:
477,115,69650,1,10,0:0:0:0:
477,115,69988,6,0,P|453:160|444:211,1,103.500001974106,6|0,0:0|3:0,0:0:0:0:
243,43,70325,2,0,B|314:61|328:156|328:156|340:120|333:98,1,207.000003948212,10|8,0:0|0:1,0:0:0:0:
63,218,70830,1,2,3:2:0:0:
166,128,70999,1,8,0:0:0:0:
89,338,71167,1,2,3:3:0:0:
34,108,71336,6,0,L|14:3,1,103.500001974106,10|0,0:1|0:0,0:0:0:0:
163,256,71673,2,0,L|183:361,1,103.500001974106,10|0,0:2|0:0,0:0:0:0:
334,102,72010,2,0,B|340:120|328:156|328:156|314:61|243:43,1,207.000003948212,10|8,0:1|0:2,0:0:0:0:
242,42,72684,5,12,0:1:0:0:
390,201,72853,1,8,0:1:0:0:
297,349,73021,1,10,0:1:0:0:
511,104,73190,6,0,L|494:-17,1,103.500001974106,14|0,0:0|0:0,0:0:0:0:
463,248,73527,1,8,0:1:0:0:
265,130,73695,6,0,L|158:62,1,103.500001974106,14|2,0:0|0:0,0:0:0:0:
481,230,74032,1,8,0:1:0:0:
218,322,74201,6,0,L|112:357,1,103.500001974106,4|0,0:0|0:0,0:0:0:0:
500,212,74538,1,8,0:3:0:0:
330,355,74707,1,8,0:0:0:0:
357,267,74875,1,8,0:3:0:0:
249,32,75044,1,10,0:1:0:0:
304,114,75212,1,12,0:3:0:0:
60,146,75381,6,0,P|62:84|122:137,1,155.250002961159,8|0,0:0|0:0,0:0:0:0:
8,110,75718,6,0,P|37:57|91:35,1,103.500001974106,12|0,0:0|0:0,0:0:0:0:
270,213,76055,1,10,0:1:0:0:
248,69,76223,2,0,P|204:27|145:23,1,103.500001974106,4|8,0:3|0:3,0:0:0:0:
361,131,76561,6,0,P|380:102|395:71,1,60.7500002317429,6|0,0:1|0:0,0:0:0:0:
178,184,76729,2,0,P|129:169|80:184,1,103.500001974106,2|0,0:2|0:0,0:0:0:0:
10,380,77066,2,0,P|44:342|93:329,1,103.500001974106,12|0,0:2|0:0,0:0:0:0:
319,364,77403,1,8,0:1:0:0:
197,287,77572,1,8,0:3:0:0:
453,151,77740,1,8,0:0:0:0:
453,151,78077,6,0,P|434:248|502:321,1,207.000003948212,6|8,0:0|3:2,0:0:0:0:
506,70,78583,1,8,0:1:0:0:
297,298,78752,2,0,P|202:329|121:271,1,207.000003948212,10|8,0:1|0:0,0:0:0:0:
389,345,79257,1,0,3:0:0:0:
248,107,79426,5,10,0:1:0:0:
216,228,79594,1,8,0:3:0:0:
347,108,79763,1,4,0:3:0:0:
129,26,79931,2,0,P|115:75|129:124,1,103.500001974106,10|8,3:1|0:1,0:0:0:0:
321,5,80268,1,8,3:1:0:0:
111,135,80437,2,0,P|59:135|16:108,1,103.500001974106,10|8,0:0|3:1,0:0:0:0:
246,359,80774,5,12,0:0:0:0:
269,370,81111,5,8,0:0:0:0:
159,285,81280,1,8,0:1:0:0:
424,329,81448,5,10,0:0:0:0:
455,198,81617,1,8,0:1:0:0:
297,337,81785,5,8,0:0:0:0:
301,107,81954,1,8,0:1:0:0:
114,359,82122,5,14,0:0:0:0:
69,135,82291,1,8,0:1:0:0:
234,258,82459,5,8,0:0:0:0:
23,310,82628,1,8,0:3:0:0:
203,59,82797,5,10,0:0:0:0:
155,273,82965,1,8,0:3:0:0:
31,28,83134,1,4,0:3:0:0:
394,352,83471,6,0,P|491:341|509:246,1,207.000003948212,6|8,0:0|0:1,0:0:0:0:
264,300,83976,2,0,P|232:207|311:150,1,207.000003948212,8|2,0:0|0:0,0:0:0:0:
189,367,84482,1,0,0:0:0:0:
132,135,84650,6,0,L|102:18,1,103.500001974106,12|8,0:0|0:1,0:0:0:0:
175,337,84988,1,8,0:0:0:0:
407,172,85156,6,0,B|468:97|423:24|423:24|397:29|379:45,1,207.000003948212,6|8,0:1|0:1,0:0:0:0:
213,142,85662,2,0,P|162:132|123:99,1,103.500001974106,10|8,0:0|0:1,0:0:0:0:
289,4,85999,2,0,P|306:52|296:102,1,103.500001974106,2|8,0:0|0:0,0:0:0:0:
204,244,86336,2,0,P|199:274|203:315,1,51.7500009870529,2|0,0:1|0:0,0:0:0:0:
351,357,86504,2,0,P|337:308|291:287,1,103.500001974106,6|8,0:0|0:1,0:0:0:0:
15,299,86841,2,0,P|76:298|129:263,1,103.500001974106,12|0,0:0|0:0,0:0:0:0:
384,117,87179,6,0,L|511:96,1,103.500001974106,4|0,0:0|0:0,0:0:0:0:
206,361,87516,6,0,B|132:346|132:346|79:365|79:365|-12:348,1,225,4|2,0:1|0:0,0:0:0:0:
208,26,88527,5,2,0:0:0:0:
202,38,88696,1,0,0:0:0:0:
196,50,88865,2,0,L|169:112,1,67.5000025749208,0|0,0:0|0:0,0:0:0:0:
310,83,89202,5,2,0:0:0:0:
315,91,89370,2,0,L|352:164,1,67.5000025749208,0|0,0:0|0:0,0:0:0:0:
173,256,89707,5,2,0:0:0:0:
166,261,89876,2,0,L|116:289,1,53.9999983520508,0|0,0:0|0:0,0:0:0:0:
325,337,90213,5,2,0:0:0:0:
332,339,90381,2,0,L|402:355,1,53.9999983520508,0|0,0:0|0:0,0:0:0:0:
494,211,90719,5,2,0:0:0:0:
416,185,90887,1,0,0:0:0:0:
377,257,91056,1,2,0:0:0:0:
503,227,91224,6,0,P|514:184|493:82,1,135.000005149842,2|0,0:0|0:0,0:0:0:0:
439,12,91730,2,0,P|431:33|406:50,1,45,2|0,0:0|0:0,0:0:0:0:
364,139,92067,2,0,P|349:121|347:92,1,45,2|0,0:0|0:0,0:0:0:0:
351,93,92404,6,0,P|314:155|216:133,1,153.000002918243,2|0,0:0|0:0,0:0:0:0:
224,143,92910,1,2,0:0:0:0:
171,26,93078,2,0,P|171:63|150:96,1,76.5000014591217,2|0,0:0|0:0,0:0:0:0:
45,158,93415,1,0,0:0:0:0:
18,68,93584,2,0,P|55:72|79:88,1,51.0000009727478,2|2,0:0|0:0,0:0:0:0:
178,227,93808,1,2,0:0:0:0:
178,227,93921,6,0,L|267:369,1,167.400005236359,14|0,0:0|0:0,0:0:0:0:
178,227,94426,1,8,0:1:0:0:
368,305,94595,2,0,B|423:353|474:332|474:332|482:308|464:280,1,167.400005236359,14|8,0:0|0:1,0:0:0:0:
178,227,95101,2,0,B|161:252|169:276|169:276|220:297|275:249,1,167.400005236359,14|8,0:0|0:1,0:0:0:0:
369,28,95606,2,0,P|371:80|355:127,1,83.7000026181794,6|8,0:0|0:1,0:0:0:0:
294,154,95859,1,8,0:1:0:0:
294,154,95943,1,8,0:1:0:0:
386,225,96112,1,8,0:1:0:0:
174,117,96280,1,10,0:0:0:0:
262,54,96449,1,2,0:0:0:0:
63,157,96617,6,0,P|30:72|98:14,1,192.599994122315,12|8,0:1|0:0,0:0:0:0:
89,185,97123,1,0,0:0:0:0:
8,78,97292,1,10,0:1:0:0:
130,8,97460,1,10,0:3:0:0:
69,215,97629,1,6,0:3:0:0:
245,355,97797,6,0,L|409:326,1,148.50000453186,6|0,0:0|0:0,0:0:0:0:
467,286,98134,2,0,B|478:274|496:264|496:264|474:259|443:274,1,76.5000014591217,4|0,0:0|0:0,0:0:0:0:
190,220,98303,2,0,B|181:182|200:161|200:161|268:176|288:266,1,198.000006042481,6|8,0:1|0:1,0:0:0:0:
404,25,98808,2,0,B|342:120|440:100|393:192,1,180,4|8,0:0|0:1,0:0:0:0:
373,226,99230,1,8,0:1:0:0:
366,239,99314,1,4,0:0:0:0:
133,37,99651,5,2,3:2:0:0:
147,77,99820,1,0,0:0:0:0:
131,124,99988,2,0,P|70:131|29:87,1,125.999996154785,2|0,3:2|3:1,0:0:0:0:
159,147,100494,2,0,P|194:230|143:305,1,188.999994232178,2|0,0:0|3:2,0:0:0:0:
5,230,101168,2,0,P|34:239|57:261,1,62.9999980773926,2|0,0:0|3:1,0:0:0:0:
75,360,101505,1,10,0:1:0:0:
178,325,101674,1,10,0:0:0:0:
255,367,101842,1,10,0:1:0:0:
262,371,101926,1,8,0:0:0:0:
270,371,102011,6,0,P|301:344|390:355,1,125.999996154785,10|0,0:1|0:0,0:0:0:0:
512,281,102516,2,0,P|451:292|400:258,1,125.999996154785,10|8,0:0|0:1,0:0:0:0:
409,170,103022,1,8,0:0:0:0:
264,224,103190,2,0,P|203:234|152:200,1,125.999996154785,2|10,0:0|0:1,0:0:0:0:
84,106,103696,1,2,0:0:0:0:
213,105,103865,2,0,P|227:45|272:2,1,125.999996154785,2|0,0:0|0:0,0:0:0:0:
137,6,104370,1,8,0:0:0:0:
444,146,104707,6,0,P|475:147|503:134,1,62.9999980773926,10|0,0:1|0:0,0:0:0:0:
390,62,105044,1,0,0:0:0:0:
354,192,105213,2,0,L|319:328,1,125.999996154785,10|0,0:0|0:0,0:0:0:0:
305,111,105719,1,8,0:0:0:0:
225,346,105887,2,0,P|163:345|118:304,1,125.999996154785,2|0,0:0|0:0,0:0:0:0:
199,200,106393,1,8,0:1:0:0:
105,294,106561,1,10,0:1:0:0:
65,307,106645,1,8,0:0:0:0:
32,302,106730,6,0,P|2:248|14:187,1,125.999996154785,2|8,0:0|0:0,0:0:0:0:
191,135,107235,2,0,P|178:163|149:183,1,59.3999998187256,10|8,0:1|0:0,0:0:0:0:
23,45,107404,2,0,P|77:15|138:29,1,125.999996154785,10|2,0:1|0:0,0:0:0:0:
225,137,107910,2,0,P|285:149|339:120,1,125.999996154785,8|8,0:0|0:1,0:0:0:0:
429,33,108415,1,8,0:0:0:0:
424,9,108584,1,8,0:1:0:0:
381,262,108752,5,4,0:3:0:0:
381,262,109426,6,0,L|503:246,1,116.999994644165,4|0,0:1|0:1,0:0:0:0:
202,382,109763,6,0,L|324:366,1,116.999994644165,4|0,0:1|0:1,0:0:0:0:
17,202,110101,6,0,B|45:179|65:121|65:121|51:189|81:273,1,233.999989288331,4|8,0:2|0:1,0:0:0:0:
266,240,110606,1,2,0:0:0:0:
166,309,110775,1,8,0:1:0:0:
177,129,110943,2,0,P|159:172|161:213,1,80.9999975280763,2|8,0:0|0:1,0:0:0:0:
400,99,111280,6,0,P|319:97|246:63,1,161.999995056153,2|0,0:0|0:0,0:0:0:0:
484,105,111786,2,0,P|507:72|513:27,1,80.9999975280763,10|0,0:1|0:0,0:0:0:0:
364,139,112123,2,0,P|370:178|393:211,1,80.9999975280763,10|0,0:1|0:0,0:0:0:0:
497,334,112460,2,0,B|516:306|516:306|449:276|391:319,1,161.999995056153,10|0,0:1|0:0,0:0:0:0:
316,362,112797,6,0,P|274:372|237:365,1,80.9999975280763,10|0,0:1|0:0,0:0:0:0:
184,280,113134,1,8,0:1:0:0:
79,357,113303,2,0,P|39:363|0:353,1,80.9999975280763,2|0,0:0|0:0,0:0:0:0:
203,262,113640,1,0,0:0:0:0:
160,355,113808,1,8,0:1:0:0:
92,206,113977,6,0,L|25:31,1,185.399998444061,2|0,0:0|0:0,0:0:0:0:
24,271,114483,1,10,0:1:0:0:
175,172,114651,2,0,P|215:165|254:175,1,80.9999975280763,0|10,0:0|0:1,0:0:0:0:
115,250,114988,1,0,0:0:0:0:
272,161,115157,1,2,0:0:0:0:
287,136,115241,1,2,0:0:0:0:
293,106,115325,1,2,0:0:0:0:
290,76,115409,1,2,0:0:0:0:
277,49,115494,5,10,0:1:0:0:
368,155,115662,2,0,P|433:198|509:179,1,161.999995056153,2|2,0:0|0:0,0:0:0:0:
325,227,116168,2,0,P|306:262|303:302,1,80.9999975280763,2|0,3:2|0:0,0:0:0:0:
448,107,116505,1,0,3:0:0:0:
362,362,116674,6,0,P|287:380|227:329,1,161.999995056153,2|0,0:0|0:0,0:0:0:0:
31,290,117179,2,0,P|65:269|106:268,1,80.9999975280763,10|0,0:1|0:0,0:0:0:0:
78,139,117516,2,0,P|44:118|4:117,1,80.9999975280763,0|0,3:3|0:0,0:0:0:0:
218,207,117853,2,0,P|258:205|292:184,1,80.9999975280763,0|0,3:0|0:0,0:0:0:0:
138,34,118190,6,0,P|189:62|221:111,1,116.999994644165,4|0,0:0|0:0,0:0:0:0:
81,348,118527,2,0,P|90:291|125:245,1,116.999994644165,4|0,0:0|0:0,0:0:0:0:
465,260,118865,1,12,0:0:0:0:
380,233,119033,1,8,0:1:0:0:
312,287,119202,1,8,0:3:0:0:
481,6,119370,6,0,L|446:189,1,175.499991966248,6|0,0:1|0:0,0:0:0:0:
380,233,119707,1,8,2:1:0:0:
189,87,119876,2,0,P|215:8|297:20,1,175.499991966248,12|0,0:0|0:0,0:0:0:0:
303,96,120213,1,4,0:3:0:0:
93,142,120381,1,10,0:1:0:0:
80,117,120465,1,10,0:0:0:0:
74,87,120550,1,10,0:0:0:0:
39,132,120634,1,10,0:1:0:0:
43,189,120718,1,10,0:1:0:0:
83,230,120802,1,6,0:3:0:0:
140,233,120887,5,6,0:1:0:0:
31,179,121056,1,8,0:1:0:0:
2,293,121224,1,10,3:1:0:0:
229,236,121393,2,0,L|391:193,1,149.850003658447,10|0,0:0|0:0,0:0:0:0:
454,174,121730,5,8,0:1:0:0:
339,326,121898,1,2,3:2:0:0:
272,141,122067,2,0,P|264:94|275:48,1,96.2999970611573,10|0,0:2|0:0,0:0:0:0:
460,178,122404,1,8,0:1:0:0:
385,18,122572,1,10,0:0:0:0:
162,96,122741,2,0,P|98:106|38:54,1,144.449995591736,10|0,0:1|0:0,0:0:0:0:
58,36,123078,2,0,P|85:87|79:135,1,96.2999970611573,10|8,0:3|0:0,0:0:0:0:
158,320,123415,6,0,P|107:235|8:247,1,210.600000803375,6|0,0:3|0:0,0:0:0:0:
176,352,123921,1,10,3:1:0:0:
0,240,124089,1,12,0:0:0:0:
255,143,124258,2,0,P|257:194|227:237,1,105.300000401688,10|4,3:0|2:3,0:0:0:0:
157,18,124595,1,10,3:0:0:0:
273,159,124763,6,0,P|319:184|371:176,1,105.300000401688,10|0,0:0|0:0,0:0:0:0:
137,33,125101,1,8,0:1:0:0:
430,119,125269,2,0,P|448:70|434:20,1,105.300000401688,12|0,0:0|0:0,0:0:0:0:
225,171,125606,5,10,0:1:0:0:
366,67,125775,1,8,0:3:0:0:
331,291,125943,1,12,0:0:0:0:
98,222,126112,2,0,P|46:212|-7:222,1,105.300000401688,10|4,2:1|0:1,0:0:0:0:
192,367,126449,5,10,0:3:0:0:
252,60,126617,1,4,0:3:0:0:
349,306,126786,2,0,P|400:315|451:305,1,105.300000401688,10|8,0:0|0:3,0:0:0:0:
219,152,127123,1,10,0:3:0:0:
243,268,127292,1,8,0:3:0:0:
338,83,127460,1,6,2:3:0:0:
21,25,127629,6,0,B|5:70|5:70|75:118|161:61,1,210.600000803375,2|0,0:0|0:0,0:0:0:0:
442,57,128134,2,0,P|430:29|411:11,1,52.6500002008438,8|0,0:0|0:0,0:0:0:0:
326,190,128303,1,2,0:0:0:0:
244,65,128471,1,8,0:1:0:0:
253,31,128555,1,8,0:1:0:0:
292,11,128639,1,8,0:0:0:0:
440,171,128808,1,8,0:3:0:0:
235,342,128977,6,0,B|107:310|155:390|31:353,1,210.600000803375,6|0,0:0|3:0,0:0:0:0:
373,344,129483,2,0,P|404:302|412:251,1,105.300000401688,8|0,0:0|3:0,0:0:0:0:
280,42,129820,1,0,0:0:0:0:
390,138,129988,1,2,3:2:0:0:
78,243,130157,6,0,B|36:190|36:190|60:43,1,210.600000803375,12|8,0:0|0:1,0:0:0:0:
282,18,130662,1,8,0:0:0:0:
385,129,130831,2,0,P|446:122|488:97,1,105.300000401688,10|0,0:1|3:0,0:0:0:0:
214,122,131168,1,10,0:1:0:0:
402,43,131336,1,10,0:0:0:0:
460,246,131505,1,8,0:3:0:0:
486,218,131589,1,8,0:3:0:0:
480,179,131673,1,4,0:0:0:0:
356,241,131842,5,0,0:0:0:0:
437,328,132011,1,8,3:1:0:0:
247,251,132179,2,0,P|218:293|218:355,1,103.500001974106,2|0,0:0|0:0,0:0:0:0:
368,225,132516,1,0,3:0:0:0:
195,140,132685,2,0,P|148:161|116:214,1,103.500001974106,10|0,0:0|3:0,0:0:0:0:
371,51,133022,6,0,P|319:52|267:19,1,103.500001974106,10|0,0:1|3:0,0:0:0:0:
390,226,133359,2,0,P|441:224|485:250,1,103.500001974106,10|0,0:0|3:0,0:0:0:0:
104,98,133696,2,0,L|205:122,1,103.500001974106,10|0,0:1|3:0,0:0:0:0:
367,314,134033,2,0,L|467:338,1,103.500001974106,10|0,0:0|3:0,0:0:0:0:
131,374,134370,6,0,P|207:327|184:203,1,223.19999114502,4|8,0:2|0:0,0:0:0:0:
45,121,134876,1,8,0:1:0:0:
184,201,135044,1,8,0:3:0:0:
151,120,135213,1,4,3:0:0:0:
137,284,135381,1,8,0:0:0:0:
438,354,135550,6,0,B|488:280|442:206|442:206|395:210|374:242,1,237.599999274902,4|8,0:1|0:1,0:0:0:0:
218,357,136056,1,8,0:0:0:0:
76,133,136224,6,0,L|10:8,1,120.599994295349,4|0,0:0|0:0,0:0:0:0:
173,284,136561,1,4,0:1:0:0:
189,160,136730,1,10,0:0:0:0:
48,258,136898,1,8,0:3:0:0:
144,55,137067,5,10,0:0:0:0:
169,160,137235,1,8,0:3:0:0:
8,112,137404,5,10,0:0:0:0:
130,29,137572,1,8,0:3:0:0:
182,286,137741,5,10,0:0:0:0:
425,102,137910,1,10,0:3:0:0:
263,41,138078,1,12,0:3:0:0:
506,346,138247,6,0,P|491:325|444:296,1,55.799997786255,14|0,0:0|0:0,0:0:0:0:
298,231,138415,2,0,P|242:227|190:245,1,111.59999557251,2|0,0:0|0:0,0:0:0:0:
414,115,138752,1,12,0:0:0:0:
189,340,138921,2,0,B|108:392|46:353|46:353|43:312|84:295,1,223.19999114502,2|8,0:0|0:1,0:0:0:0:
302,347,139426,1,8,0:0:0:0:
116,187,139595,6,0,P|132:119|23:30,1,223.19999114502,6|8,0:1|0:1,0:0:0:0:
182,256,140101,2,0,P|210:216|224:168,1,99.0000030212403,8|0,0:0|3:0,0:0:0:0:
2,231,140438,2,0,P|16:279|45:319,1,99.0000030212403,8|0,0:1|3:0,0:0:0:0:
208,371,140775,2,0,P|246:341|293:327,1,99.0000030212403,10|0,0:0|3:0,0:0:0:0:
502,291,141112,2,0,P|452:294|405:281,1,99.0000030212403,10|0,0:1|3:0,0:0:0:0:
285,192,141449,2,0,P|261:148|254:99,1,99.0000030212403,8|0,0:0|3:0,0:0:0:0:
475,190,141786,2,0,P|426:183|383:159,1,99.0000030212403,10|0,0:1|3:0,0:0:0:0:
194,17,142123,2,0,P|162:55|147:101,1,99.0000030212403,8|8,0:0|3:0,0:0:0:0:
248,372,142460,6,0,B|284:285|221:217|156:217|156:217|123:264|157:313,1,318.599988818665,6|0,0:1|0:0,0:0:0:0:
345,376,143134,2,0,P|354:329|351:298,1,53.0999981364442,6|2,0:0|0:0,0:0:0:0:
295,192,143303,2,0,P|259:160|231:146,1,53.0999981364442,2|2,0:0|0:0,0:0:0:0:
24,249,143471,2,0,P|61:218|78:193,1,53.0999981364442,14|2,0:3|0:0,0:0:0:0:
128,36,143640,6,0,L|156:266,1,222.75000212431,6|0,0:1|0:0,0:0:0:0:
163,339,143977,1,12,0:0:0:0:
125,20,144145,1,12,0:1:0:0:
124,7,144483,2,0,P|124:38|135:66,1,60.7500002317429,12|0,0:0|0:0,0:0:0:0:
374,143,144651,1,8,3:3:0:0:
288,174,144820,6,0,P|301:76|393:40,1,206.550009297524,2|0,3:2|0:0,0:0:0:0:
470,81,145157,5,12,0:0:0:0:
267,72,145325,1,8,0:1:0:0:
388,294,145494,1,10,0:2:0:0:
244,61,145662,2,0,P|140:41|73:123,1,221.400003378296,10|8,0:1|0:1,0:0:0:0:
401,144,146168,2,0,P|450:136|489:103,1,103.500001974106,8|8,0:0|0:1,0:0:0:0:
254,215,146505,5,10,0:0:0:0:
326,34,146674,1,8,0:1:0:0:
353,335,146842,1,8,0:0:0:0:
313,147,147011,1,8,0:3:0:0:
240,355,147179,1,8,0:0:0:0:
432,219,147348,1,4,0:3:0:0:
166,155,147516,1,10,0:0:0:0:
337,247,147685,1,8,0:3:0:0:
7,15,147853,6,0,B|65:60|67:139|67:139|81:104|129:85,1,223.19999114502,14|8,0:0|0:0,0:0:0:0:
331,89,148359,1,8,0:3:0:0:
194,35,148527,1,8,0:0:0:0:
367,212,148696,1,8,0:3:0:0:
412,215,148780,1,8,0:2:0:0:
451,194,148865,1,6,0:3:0:0:
228,349,149033,6,0,P|151:282|49:277,1,207.000003948212,6|8,0:1|0:1,0:0:0:0:
401,186,149539,2,0,P|420:139|407:90,1,103.500001974106,12|0,0:2|0:0,0:0:0:0:
332,337,149876,1,8,0:3:0:0:
461,294,150044,1,12,0:3:0:0:
231,150,150213,1,10,0:0:0:0:
139,231,150381,1,8,0:3:0:0:
101,60,150550,6,0,P|72:103|69:154,1,103.500001974106,6|0,0:0|0:0,0:0:0:0:
353,93,150887,2,0,B|293:26|202:58|202:58|187:19,1,207.000003948212,10|8,0:0|0:1,0:0:0:0:
340,237,151393,1,2,0:0:0:0:
157,127,151561,1,8,0:0:0:0:
376,10,151730,1,10,0:1:0:0:
404,309,151898,6,0,P|433:254|427:195,1,103.500001974106,10|4,0:3|0:3,0:0:0:0:
68,153,152235,2,0,P|72:102|101:60,1,103.500001974106,10|0,0:2|0:0,0:0:0:0:
353,93,152572,2,0,B|293:26|202:58|202:58|187:19,1,207.000003948212,10|8,0:1|0:0,0:0:0:0:
187,19,153247,5,12,0:1:0:0:
262,152,153415,1,8,0:1:0:0:
209,265,153584,1,8,0:0:0:0:
418,137,153752,6,0,L|510:68,1,103.500001974106,2|8,0:0|0:1,0:0:0:0:
198,299,154089,1,10,0:1:0:0:
312,227,154258,1,10,0:0:0:0:
336,354,154426,1,10,0:3:0:0:
158,169,154595,5,12,0:2:0:0:
238,376,154763,1,8,0:3:0:0:
207,28,154932,5,12,0:0:0:0:
110,70,155101,1,8,0:3:0:0:
358,359,155269,6,0,P|421:363|459:317,1,103.500001974106,8|4,0:0|0:3,0:0:0:0:
397,192,155522,1,0,0:0:0:0:
374,221,155606,1,10,0:3:0:0:
371,255,155690,1,8,0:3:0:0:
381,277,155775,1,4,0:3:0:0:
390,281,155859,1,4,0:3:0:0:
398,281,155943,6,0,B|424:240|424:240|328:187|266:261,1,225,12|12,0:0|0:0,0:0:0:0:
485,182,156449,2,0,L|503:78,1,103.500001974106,8|10,0:3|0:1,0:0:0:0:
273,103,156786,1,4,0:3:0:0:
372,19,156954,1,2,0:3:0:0:
253,180,157123,6,0,P|219:164|194:140,1,51.7500009870529,8|0,0:2|0:0,0:0:0:0:
390,112,157292,2,0,P|405:167|379:229,1,103.500001974106,2|8,0:0|0:3,0:0:0:0:
165,356,157629,2,0,P|152:306|167:257,1,103.500001974106,10|8,0:0|0:3,0:0:0:0:
381,358,157966,1,8,0:1:0:0:
153,250,158134,1,8,0:3:0:0:
116,238,158218,1,8,0:0:0:0:
78,244,158302,1,8,0:0:0:0:
47,267,158386,1,8,0:3:0:0:
30,302,158471,1,12,0:3:0:0:
34,315,158556,1,12,0:3:0:0:
41,325,158640,6,0,L|61:95,1,207.000003948212,6|8,0:0|0:0,0:0:0:0:
253,22,159145,1,8,0:1:0:0:
233,124,159314,2,0,P|189:96|138:92,1,103.500001974106,10|0,0:1|0:0,0:0:0:0:
59,18,159651,1,8,0:0:0:0:
261,204,159820,2,0,P|294:191|323:166,1,51.7500009870529,2|0,0:0|0:0,0:0:0:0:
136,243,159988,6,0,L|157:351,1,103.500001974106,6|8,0:2|0:3,0:0:0:0:
113,112,160325,1,4,0:3:0:0:
300,340,160494,2,0,P|398:361|470:293,1,207.000003948212,10|8,0:1|0:3,0:0:0:0:
280,137,160999,2,0,P|300:183|290:233,1,103.500001974106,10|8,0:0|0:3,0:0:0:0:
512,58,161336,6,0,B|414:94|414:94|323:27,1,207.000003948212,6|8,0:1|0:0,0:0:0:0:
120,19,161842,1,2,0:1:0:0:
153,234,162011,2,0,P|183:179|79:172,1,207.000003948212,10|8,0:1|0:0,0:0:0:0:
291,112,162516,1,2,0:1:0:0:
191,322,162685,6,0,B|71:331|118:255|-5:266,1,207.000003948212,2|8,0:0|0:0,0:0:0:0:
353,209,163191,1,10,0:1:0:0:
276,288,163359,1,10,0:3:0:0:
148,153,163527,1,12,0:3:0:0:
473,349,163696,1,8,0:2:0:0:
337,61,164033,6,0,B|273:-4|194:27|194:27|186:60|209:84,1,217.799993851776,6|8,0:0|0:1,0:0:0:0:
425,249,164539,2,0,P|336:189|228:193,1,217.799993851776,12|2,0:0|0:0,0:0:0:0:
510,45,165044,2,0,P|506:96|463:154,1,108.899996925888,4|0,0:1|0:0,0:0:0:0:
212,214,165381,1,8,0:2:0:0:
499,298,165550,1,8,0:0:0:0:
209,357,165719,6,0,P|120:297|12:301,1,217.799993851776,6|8,0:0|0:1,0:0:0:0:
186,81,166224,2,0,P|190:134|220:179,1,108.899996925888,10|0,0:0|0:0,0:0:0:0:
21,17,166561,1,2,0:0:0:0:
97,202,166730,1,8,0:0:0:0:
457,110,166898,2,0,P|420:64|273:127,1,217.799993851776,10|8,0:2|0:1,0:0:0:0:
412,283,167404,2,0,P|452:251|461:189,1,108.899996925888,12|0,0:0|0:0,0:0:0:0:
175,367,167741,6,0,L|153:231,1,108.899996925888,4|0,0:0|0:0,0:0:0:0:
319,28,168078,6,0,L|275:313,1,257.400003534851,4|2,0:1|0:0,0:0:0:0:
29,37,168752,5,8,0:0:0:0:
34,47,168836,1,8,0:0:0:0:
119,100,169097,1,4,0:3:0:0:
209,56,169359,1,8,0:0:0:0:
213,46,169431,1,12,0:3:0:0:
212,21,169503,1,8,0:0:0:0:
182,189,169680,1,12,0:3:0:0:
174,207,169769,5,6,0:0:0:0:
86,225,169937,1,0,0:0:0:0:
1,184,170106,1,10,3:1:0:0:
159,299,170274,2,0,P|176:338|170:380,1,72,2|0,0:0|3:0,0:0:0:0:
281,231,170611,2,0,P|296:191|330:165,1,72,2|8,0:0|0:0,0:0:0:0:
496,340,170948,2,0,P|434:316|337:296,1,144,2|8,3:0|0:1,0:0:0:0:
491,188,171454,1,8,3:2:0:0:
255,37,171791,5,6,0:0:0:0:
337,86,171960,1,0,0:0:0:0:
406,17,172128,1,2,3:0:0:0:
248,132,172297,2,0,P|212:130|177:122,1,72,10|0,0:2|3:0,0:0:0:0:
31,12,172634,2,0,P|51:42|76:69,1,72,10|0,0:1|3:0,0:0:0:0:
68,340,172971,2,0,P|90:271|96:200,1,144,10|8,0:0|0:1,0:0:0:0:
146,365,173476,1,8,0:0:0:0:
283,272,173813,6,0,P|288:308|280:343,1,72,6|0,0:1|0:0,0:0:0:0:
183,230,174151,1,10,3:1:0:0:
360,377,174319,2,0,P|391:339|401:302,1,72,10|0,0:0|3:0,0:0:0:0:
304,134,174656,2,0,P|311:169|331:198,1,72,2|0,0:0|3:0,0:0:0:0:
483,40,174993,2,0,B|403:79|389:5|310:43,1,180,10|2,0:0|0:0,0:0:0:0:
194,133,175499,2,0,P|186:97|166:68,1,72,10|0,3:2|0:0,0:0:0:0:
53,32,175836,1,8,0:3:0:0:
32,316,176173,6,0,L|133:288,1,72,6|0,0:0|0:0,0:0:0:0:
126,200,176510,1,10,3:2:0:0:
29,150,176679,2,0,P|10:187|23:246,1,72,2|0,0:0|3:0,0:0:0:0:
104,315,177016,2,0,P|145:312|190:272,1,72,10|0,0:1|3:0,0:0:0:0:
358,213,177353,2,0,P|439:221|510:263,1,165.599994440918,10|2,0:0|0:0,0:0:0:0:
274,137,177858,1,8,3:0:0:0:
281,270,178027,1,0,3:0:0:0:
312,294,178111,1,8,0:1:0:0:
359,306,178195,1,8,0:3:0:0:
208,202,178364,1,8,0:0:0:0:
105,253,178533,1,8,0:0:0:0:
11,170,178701,1,8,0:3:0:0:
1,258,178870,5,6,0:0:0:0:
58,180,179038,1,0,0:0:0:0:
19,90,179207,1,10,0:0:0:0:
136,23,179375,2,0,P|172:45|221:49,1,80.9999975280763,2|0,3:0|0:0,0:0:0:0:
362,113,179712,2,0,P|322:118|288:140,1,80.9999975280763,2|8,3:0|0:0,0:0:0:0:
464,244,180049,2,0,P|440:168|469:94,1,161.999995056153,2|0,3:0|3:0,0:0:0:0:
503,327,180555,1,8,0:0:0:0:
366,229,180724,1,8,0:1:0:0:
255,355,180892,5,6,0:1:0:0:
273,261,181061,1,8,0:1:0:0:
364,325,181229,1,10,3:1:0:0:
147,354,181398,2,0,P|103:354|-4:318,1,135,12|0,0:0|0:0,0:0:0:0:
10,250,181735,2,0,L|3:155,1,90,2|8,0:0|0:3,0:0:0:0:
128,42,182072,1,10,0:1:0:0:
96,139,182240,1,8,0:3:0:0:
8,15,182409,1,8,0:3:0:0:
35,39,182493,1,8,0:2:0:0:
32,75,182577,1,8,0:2:0:0:
153,23,182746,1,12,0:3:0:0:
254,197,182915,6,0,L|329:316,1,135,4|0,0:2|0:0,0:0:0:0:
344,335,183252,2,0,B|387:347|387:347|427:328,1,90,10|0,0:0|3:0,0:0:0:0:
195,297,183589,2,0,B|119:287|136:330|62:322,1,135,10|0,0:1|0:0,0:0:0:0:
34,302,183926,2,0,P|17:264|26:217,1,90,10|0,0:0|3:0,0:0:0:0:
233,95,184263,2,0,L|54:72,1,180,10|10,0:1|0:0,0:0:0:0:
259,9,184769,1,0,3:0:0:0:
149,176,184937,5,2,0:0:0:0:
233,95,185106,1,0,3:0:0:0:
151,6,185274,1,10,0:0:0:0:
390,119,185443,2,0,P|411:84|416:36,2,90,2|8|0,3:0|0:1|3:0,0:0:0:0:
379,224,185948,2,0,P|382:264|409:304,1,90,10|0,0:0|3:0,0:0:0:0:
276,129,186285,6,0,P|251:160|242:210,1,90,10|0,0:1|3:0,0:0:0:0:
235,332,186622,2,0,P|201:353|152:361,1,90,10|0,0:0|3:0,0:0:0:0:
8,159,186960,2,0,P|54:224|147:255,1,180,6|8,0:1|0:0,0:0:0:0:
304,262,187465,1,0,3:0:0:0:
178,83,187634,2,0,P|159:122|157:177,1,90,2|8,0:0|3:1,0:0:0:0:
303,19,187971,1,10,0:0:0:0:
384,351,188308,6,0,B|435:373|488:339|488:339|472:276|422:262,1,215.999993408203,6|0,0:1|0:0,0:0:0:0:
258,351,188813,1,12,0:0:0:0:
337,158,188982,2,0,P|401:119|487:144,1,161.999995056153,2|0,0:0|0:0,0:0:0:0:
512,61,189319,1,8,0:0:0:0:
427,14,189488,1,8,0:1:0:0:
318,213,189656,5,14,0:2:0:0:
339,57,189825,1,8,0:3:0:0:
193,235,189993,5,10,3:2:0:0:
185,40,190162,1,8,0:3:0:0:
40,255,190330,5,10,0:0:0:0:
253,119,190499,1,8,0:1:0:0:
335,128,190583,1,8,0:0:0:0:
385,189,190667,1,10,0:0:0:0:
114,125,190836,1,14,0:3:0:0:
442,78,191004,1,4,0:1:0:0:
442,78,191341,6,0,P|392:139|394:229,1,156.60000131424,10|0,0:0|0:0,0:0:0:0:
347,51,191846,2,0,P|316:29|278:23,1,78.3000006571198,2|8,3:0|0:0,0:0:0:0:
150,185,192183,2,0,P|188:178|219:156,1,78.3000006571198,2|0,3:0|0:0,0:0:0:0:
81,74,192520,1,0,3:0:0:0:
43,223,192689,2,0,L|21:310,1,78.3000006571198,8|0,0:0|0:0,0:0:0:0:
74,107,193026,2,0,L|96:20,1,78.3000006571198,8|0,0:1|3:0,0:0:0:0:
40,236,193363,1,8,0:0:0:0:
150,185,193532,1,0,3:0:0:0:
162,373,193700,6,0,P|193:305|267:307,1,156.60000131424,2|8,0:1|0:0,0:0:0:0:
377,360,194206,1,0,3:0:0:0:
472,265,194374,2,0,P|484:214|476:185,1,78.3000006571198,2|8,0:0|3:1,0:0:0:0:
363,266,194711,1,8,0:0:0:0:
251,103,194880,6,0,P|317:143|393:130,1,156.60000131424,2|0,3:2|3:0,0:0:0:0:
476,28,195386,1,10,0:0:0:0:
231,128,195554,1,2,0:0:0:0:
316,20,195723,1,8,0:1:0:0:
316,20,195807,2,0,L|335:66,1,39.1500003285599,8|0,0:0|3:0,0:0:0:0:
359,202,196060,1,8,0:0:0:0:
280,253,196228,1,0,3:3:0:0:
105,121,196397,6,0,P|47:68|-6:0,1,156.60000131424,6|8,0:0|0:0,0:0:0:0:
201,203,197071,2,0,P|126:229|51:271,1,156.60000131424,10|8,0:1|0:0,0:0:0:0:
407,372,197745,2,0,P|338:334|264:308,1,156.60000131424,10|8,0:1|0:0,0:0:0:0:
446,84,198419,2,0,P|443:199|480:321,1,234.900001971359,2|0,0:0|3:0,0:0:0:0:
191,120,199093,6,0,P|267:73|331:10,1,180,2|8,0:0|0:0,0:0:0:0:
471,72,199599,1,0,3:0:0:0:
221,217,199768,2,0,P|136:188|59:141,1,180,2|8,0:0|0:0,0:0:0:0:
309,151,200273,1,2,0:0:0:0:
305,324,200442,5,12,0:0:0:0:
305,324,200526,1,8,0:1:0:0:
305,324,200610,1,8,0:1:0:0:
191,120,200779,1,12,0:0:0:0:
346,64,200947,1,8,0:1:0:0:
167,343,201116,1,10,0:3:0:0:
145,349,201200,1,2,0:0:0:0:
122,350,201284,1,10,0:3:0:0:
100,348,201368,1,10,0:3:0:0:
79,341,201453,1,10,0:0:0:0:
64,299,201537,1,2,0:0:0:0:
82,259,201621,1,10,0:1:0:0:
122,242,201705,1,2,0:0:0:0:
164,257,201790,6,0,P|215:202|200:119,1,161.999995056153,6|0,0:0|0:0,0:0:0:0:
98,66,202127,2,0,P|97:111|126:153,1,90,10|0,0:0|0:0,0:0:0:0:
230,31,202464,1,10,0:1:0:0:
297,217,202633,2,0,P|336:195|358:149,1,90,2|8,3:0|0:0,0:0:0:0:
191,362,202970,6,0,P|152:338|101:342,1,90,2|0,3:0|0:0,0:0:0:0:
0,231,203307,1,2,3:0:0:0:
101,362,203475,1,8,0:0:0:0:
309,269,203644,2,0,P|353:267|390:291,1,90,2|8,3:0|0:1,0:0:0:0:
206,377,203981,1,2,3:0:0:0:
224,170,204150,1,10,0:0:0:0:
471,197,204318,1,2,3:0:0:0:
472,172,204402,1,0,0:0:0:0:
458,145,204487,5,2,0:0:0:0:
389,232,204655,1,0,3:0:0:0:
485,298,204824,1,10,0:0:0:0:
369,133,204992,2,0,P|370:84|391:48,1,90,2|8,3:0|0:1,0:0:0:0:
467,27,205245,1,8,0:0:0:0:
467,27,205329,1,2,3:0:0:0:
289,158,205498,1,10,0:0:0:0:
161,29,205666,6,0,P|112:30|76:51,1,90,2|0,3:0|0:0,0:0:0:0:
311,141,206004,2,0,P|290:101|253:76,1,90,2|8,3:0|0:0,0:0:0:0:
13,204,206341,2,0,P|135:165|227:287,1,297.000009063721,2|8,3:0|0:0,0:0:0:0:
226,283,207183,5,14,0:0:0:0:
402,170,207352,1,8,0:1:0:0:
183,102,207520,5,10,0:0:0:0:
331,270,207689,2,0,L|409:357,1,107.999996704102,10|8,0:1|0:0,0:0:0:0:
492,87,208026,5,8,0:1:0:0:
445,271,208195,1,10,0:0:0:0:
290,91,208363,6,0,L|212:4,1,107.999996704102,10|8,0:1|0:0,0:0:0:0:
242,251,208700,5,10,0:1:0:0:
372,45,208869,1,8,0:0:0:0:
109,182,209037,6,0,P|55:183|8:159,1,107.999996704102,10|8,0:1|0:0,0:0:0:0:
201,17,209374,1,10,0:1:0:0:
144,279,209543,1,10,0:0:0:0:
157,330,209627,1,2,0:0:0:0:
196,366,209711,1,2,0:0:0:0:
248,375,209795,1,2,0:0:0:0:
296,352,209880,5,6,0:1:0:0:
234,284,210048,1,8,0:1:0:0:
196,366,210217,1,8,0:1:0:0:
415,211,210386,6,0,P|437:148|444:35,1,161.999995056153,6|0,0:0|0:0,0:0:0:0:
350,8,210723,1,8,0:1:0:0:
234,284,210891,2,0,L|288:158,1,107.999996704102,14|0,0:0|0:0,0:0:0:0:
16,52,211228,5,8,0:0:0:0:
214,92,211397,1,6,0:0:0:0:
60,198,211565,5,8,0:0:0:0:
125,24,211734,1,8,0:1:0:0:
77,314,211902,5,8,0:3:0:0:
101,123,212071,1,10,0:1:0:0:
135,105,212155,1,10,0:0:0:0:
181,104,212239,2,0,P|208:111|237:129,1,45,10|2,0:0|0:0,0:0:0:0:
22,173,212408,2,0,P|14:146|15:112,1,45,2|2,0:0|0:0,0:0:0:0:
180,317,212577,5,14,0:0:0:0:
274,284,212745,1,8,0:1:0:0:
280,376,212914,1,8,0:1:0:0:
335,100,213082,6,0,P|371:57|532:74,1,198.000006042481,14|8,0:0|0:1,0:0:0:0:
210,159,213588,2,0,P|191:104|206:54,1,99.0000030212403,14|8,0:0|0:1,0:0:0:0:
426,13,213925,1,10,0:1:0:0:
204,250,214093,6,0,L|93:211,1,99.0000030212403,12|0,0:0|0:0,0:0:0:0:
335,100,214430,1,10,0:1:0:0:
396,352,214599,2,0,P|444:348|484:320,1,99.0000030212403,12|0,0:0|0:0,0:0:0:0:
179,111,214936,1,10,0:0:0:0:
128,122,215020,1,8,0:1:0:0:
96,175,215104,1,8,0:3:0:0:
112,226,215188,1,4,0:3:0:0:
159,248,215273,6,0,P|135:145|6:110,1,233.999989288331,6|8,0:1|0:1,0:0:0:0:
312,350,215779,2,0,P|352:318|385:169,1,198.000006042481,12|8,0:0|0:1,0:0:0:0:
464,27,216284,2,0,P|430:63|386:84,1,99.0000030212403,12|8,0:0|0:1,0:0:0:0:
182,14,216621,1,2,0:0:0:0:
389,182,216790,2,0,P|341:97|252:57,1,198.000006042481,12|8,0:0|0:1,0:0:0:0:
37,152,217296,1,14,0:0:0:0:
172,30,217464,1,8,0:1:0:0:
13,9,217633,1,8,0:0:0:0:
146,298,217801,5,8,0:3:0:0:
146,298,217886,1,4,0:3:0:0:
146,298,217970,2,0,B|117:346|60:342|60:342|45:287|87:244,1,198.000006042481,6|8,0:0|0:1,0:0:0:0:
21,14,218475,2,0,P|28:80|119:117,1,166.050002533722,14|0,0:2|0:0,0:0:0:0:
172,69,218812,1,8,0:1:0:0:
265,284,218981,6,0,L|307:391,1,99.0000030212403,14|0,0:0|0:0,0:0:0:0:
381,106,219318,1,10,0:1:0:0:
141,313,219487,2,0,P|47:316|7:232,1,198.000006042481,12|8,0:0|0:1,0:0:0:0:
284,144,219992,1,8,0:0:0:0:
251,291,220161,1,8,0:0:0:0:
30,10,220329,1,8,0:0:0:0:
359,339,220666,6,0,B|439:388|499:349|499:349|504:318|480:287,1,210.600000803375,6|0,0:1|0:0,0:0:0:0:
192,231,221172,1,10,0:0:0:0:
139,297,221341,2,0,P|91:298|45:283,1,96.2999970611573,8|8,0:1|0:1,0:0:0:0:
307,112,221678,1,10,3:2:0:0:
415,211,221846,2,0,P|462:212|508:197,1,96.2999970611573,8|8,0:1|0:1,0:0:0:0:
173,10,222183,6,0,P|90:51|69:142,1,192.599994122315,4|2,0:0|0:0,0:0:0:0:
218,85,222689,1,8,0:2:0:0:
30,226,222857,1,8,0:1:0:0:
16,18,223026,1,8,0:2:0:0:
65,355,223195,1,8,0:3:0:0:
152,308,223363,6,0,B|286:354|242:245|387:303,1,246.600006961212,14|0,0:0|0:0,0:0:0:0:
228,136,223869,2,0,P|199:187|203:240,1,96.2999970611573,10|8,3:2|0:1,0:0:0:0:
361,146,224206,1,8,0:1:0:0:
224,36,224374,2,0,P|166:48|129:87,1,96.2999970611573,10|0,3:2|0:0,0:0:0:0:
346,187,224711,1,10,0:1:0:0:
486,57,224880,5,8,3:2:0:0:
474,162,225048,1,8,0:1:0:0:
373,65,225217,1,8,0:1:0:0:
125,239,225386,6,0,P|77:235|37:209,1,96.2999970611573,10|0,3:2|0:0,0:0:0:0:
284,279,225723,1,8,0:0:0:0:
178,356,225891,1,8,0:1:0:0:
34,114,226060,6,0,P|62:26|151:1,1,192.599994122315,14|8,0:0|0:1,0:0:0:0:
374,86,226565,1,8,3:2:0:0:
248,122,226734,2,0,P|196:108|145:99,1,96.2999970611573,8|8,0:1|0:1,0:0:0:0:
355,301,227071,1,8,3:2:0:0:
433,239,227239,2,0,P|440:185|452:135,1,96.2999970611573,10|8,0:1|0:1,0:0:0:0:
170,205,227577,1,8,3:2:0:0:
232,260,227746,2,0,P|225:313|213:363,1,96.2999970611573,8|8,0:1|0:1,0:0:0:0:
41,138,228082,5,10,0:3:0:0:
74,245,228251,1,8,0:0:0:0:
194,44,228419,1,8,0:0:0:0:
138,366,228588,1,8,0:0:0:0:
393,24,228756,5,6,0:1:0:0:
292,109,228925,1,8,0:1:0:0:
297,16,229093,1,8,0:1:0:0:
457,180,229262,6,0,P|442:275|417:368,1,192.599994122315,10|0,3:2|0:0,0:0:0:0:
186,210,229768,2,0,P|151:120|126:27,1,192.599994122315,10|2,3:2|0:0,0:0:0:0:
383,110,230273,1,8,3:2:0:0:
174,295,230442,2,0,P|118:278|66:269,1,96.2999970611573,8|8,0:1|0:1,0:0:0:0:
359,269,230779,2,0,P|331:227|309:184,1,96.2999970611573,10|8,0:0|0:1,0:0:0:0:
16,326,231116,1,12,0:3:0:0:
16,326,231453,6,0,P|114:304|180:379,1,210.600000803375,6|0,0:1|0:0,0:0:0:0:
480,225,231959,1,10,0:0:0:0:
456,307,232127,2,0,P|411:331|355:319,1,96.2999970611573,8|8,0:1|0:1,0:0:0:0:
186,130,232464,1,10,0:0:0:0:
212,174,232632,2,0,P|257:198|313:186,1,96.2999970611573,8|8,0:1|0:1,0:0:0:0:
458,50,232970,6,0,B|387:44|387:44|335:72|335:72|251:60,1,192.599994122315,14|0,0:0|0:0,0:0:0:0:
20,19,233475,1,8,0:1:0:0:
72,113,233644,1,8,0:0:0:0:
125,89,233728,1,8,0:0:0:0:
145,38,233812,1,8,0:1:0:0:
40,137,233981,2,8,P|40:163|57:198,1,48.1499985305787,8|8,0:1|0:1,0:1:0:0:
178,272,234150,6,0,P|227:259|277:253,1,101.700000310364,6|0,0:0|0:0,0:0:0:0:
349,367,234487,1,0,3:0:0:0:
338,196,234655,2,0,P|315:149|286:108,1,101.700000310364,10|0,0:0|3:0,0:0:0:0:
390,280,234992,1,0,0:0:0:0:
479,259,235161,2,0,P|473:309|460:358,1,101.700000310364,10|8,3:2|0:1,0:0:0:0:
395,97,235498,6,0,P|322:30|224:40,1,203.400000620728,2|0,3:0|3:0,0:0:0:0:
55,129,236003,1,10,0:0:0:0:
39,13,236172,2,0,P|86:28|122:64,1,101.700000310364,8|8,3:1|0:1,0:0:0:0:
7,200,236509,2,0,P|24:151|62:117,1,101.700000310364,10|0,3:2|0:0,0:0:0:0:
76,317,236846,6,0,P|171:294|247:356,2,203.400000620728,2|0|0,3:0|3:0|0:0,0:0:0:0:
61,349,237689,1,8,0:1:0:0:
288,263,237857,2,0,P|319:223|330:174,1,101.700000310364,10|0,3:2|0:0,0:0:0:0:
128,58,238195,2,0,B|132:136|198:168|198:168|211:140|195:105,1,203.400000620728,2|0,3:2|3:0,0:0:0:0:
25,143,238700,1,10,0:0:0:0:
114,23,238869,1,10,3:1:0:0:
272,91,239037,1,8,0:1:0:0:
406,30,239206,1,8,3:2:0:0:
423,125,239374,5,8,0:1:0:0:
402,117,239459,1,8,0:1:0:0:
384,107,239543,1,2,3:2:0:0:
475,205,239711,2,0,P|464:262|433:295,1,101.700000310364,0|0,0:0|3:0,0:0:0:0:
156,262,240048,2,0,P|253:233|354:223,1,203.400000620728,10|8,0:0|0:1,0:0:0:0:
501,102,240554,1,10,3:2:0:0:
436,325,240723,1,8,0:1:0:0:
436,325,240807,1,8,0:0:0:0:
436,325,240891,1,10,3:1:0:0:
266,143,241060,6,0,L|204:49,1,101.700000310364,2|0,0:0|3:0,0:0:0:0:
217,324,241397,1,8,0:0:0:0:
179,229,241565,1,2,3:2:0:0:
293,256,241734,1,8,0:1:0:0:
458,101,241902,2,0,P|466:51|450:3,1,101.700000310364,8|0,3:2|0:0,0:0:0:0:
255,164,242239,6,0,P|173:106|75:119,1,203.400000620728,14|0,0:0|3:0,0:0:0:0:
365,228,242745,1,8,0:0:0:0:
405,124,242914,1,0,3:0:0:0:
324,32,243082,1,8,0:1:0:0:
404,355,243251,6,0,P|485:298|507:201,1,203.400000620728,10|10,3:2|3:1,0:0:0:0:
272,311,243756,2,0,P|215:331|167:339,1,101.700000310364,12|0,0:0|0:0,0:0:0:0:
383,218,244093,1,8,0:1:0:0:
183,75,244262,5,12,3:2:0:0:
254,184,244430,1,8,0:1:0:0:
62,339,244599,1,12,3:3:0:0:
62,339,244936,6,0,B|94:327|117:300|117:300|136:229|97:161,1,212.206218058381,14|8,0:0|0:1,0:0:0:0:
383,52,245442,2,0,P|357:97|356:150,1,106.103109029191,14|0,0:0|0:0,0:0:0:0:
178,27,245779,1,8,0:1:0:0:
398,182,245947,6,0,P|450:181|496:155,1,106.103109029191,14|0,0:0|0:0,0:0:0:0:
269,73,246284,1,2,0:0:0:0:
156,305,246453,2,0,P|110:330|57:331,1,106.103109029191,8|0,0:0|0:0,0:0:0:0:
344,358,246790,1,8,0:1:0:0:
141,131,246959,6,0,L|64:39,1,106.103109029191,12|0,0:0|0:0,0:0:0:0:
403,274,247296,6,0,L|480:366,1,106.103109029191,12|8,0:2|0:0,0:0:0:0:
441,98,247633,5,8,0:1:0:0:
275,261,247801,1,8,0:0:0:0:
383,22,247970,6,0,P|356:66|354:119,1,106.103109029191,4|0,0:2|0:0,0:0:0:0:
89,151,248307,6,0,P|87:98|60:53,1,106.103109029191,4|8,0:0|0:0,0:0:0:0:
416,13,248644,1,0,3:0:0:0:
162,286,248812,6,0,L|69:375,1,106.103109029191,12|2,0:0|0:0,0:0:0:0:
175,37,249150,1,0,3:3:0:0:
366,261,249318,6,0,B|396:314|366:370|366:370|301:363|270:294,1,225,12|10,0:0|0:1,0:0:0:0:
268,97,249824,1,12,0:0:0:0:
202,363,249992,1,8,3:0:0:0:
459,291,250161,1,8,0:0:0:0:
103,184,250329,6,0,P|38:106|82:15,1,212.206218058381,6|0,0:0|3:0,0:0:0:0:
147,259,250835,2,0,P|131:318|97:359,1,106.103109029191,14|0,0:0|0:0,0:0:0:0:
42,145,251172,1,8,0:1:0:0:
344,261,251341,2,0,P|395:248|438:217,1,106.103109029191,10|0,0:0|0:0,0:0:0:0:
455,101,251678,1,2,3:2:0:0:
255,344,251846,6,0,L|209:115,1,212.206218058381,12|8,0:0|3:0,0:0:0:0:
357,28,252352,2,0,P|352:80|325:125,1,106.103109029191,4|8,3:0|0:1,0:0:0:0:
99,62,252689,1,8,0:3:0:0:
201,19,252857,1,4,0:3:0:0:
440,358,253026,1,12,0:0:0:0:
440,358,253700,6,0,P|443:294|385:265,1,135,2|0,0:0|3:0,0:0:0:0:
370,266,254290,1,0,3:0:0:0:
351,262,254374,2,0,P|358:198|420:178,1,135,2|0,3:2|3:0,0:0:0:0:
441,189,254964,1,0,3:0:0:0:
456,203,255048,2,0,P|504:160|441:80,1,180,2|0,3:0|3:0,0:0:0:0:
415,95,256312,1,0,3:0:0:0:
400,110,256397,1,0,3:0:0:0:
367,130,256902,1,0,3:0:0:0:
457,111,257071,1,0,3:0:0:0:
120,306,257745,6,0,P|112:337|120:369,1,54,2|0,0:0|0:0,0:0:0:0:
216,262,258082,5,6,0:0:0:0:
119,206,258250,1,2,0:0:0:0:
30,248,258419,1,2,0:0:0:0:
251,361,258587,6,0,B|342:308|338:391|442:343,1,198.000006042481,10|0,0:0|0:0,0:0:0:0:
208,261,259093,2,0,P|197:201|233:114,1,148.50000453186,10|0,0:0|0:0,0:0:0:0:
307,65,259430,2,0,P|381:66|446:102,1,146.699999888077,10|4,0:1|0:1,0:0:0:0:
443,99,259935,1,2,0:0:0:0:
127,110,260104,6,0,L|14:92,1,99.0000030212403,12|0,0:0|0:0,0:0:0:0:
447,250,260441,1,12,0:3:0:0:
52,340,260778,6,0,P|30:297|33:248,1,99.0000030212403,14|0,0:0|0:0,0:0:0:0:
349,143,261115,2,0,P|322:184|278:206,1,99.0000030212403,10|0,0:1|0:0,0:0:0:0:
81,11,261452,1,10,0:3:0:0:
205,323,261621,1,8,0:3:0:0:
51,241,261789,1,6,0:3:0:0:
369,137,261958,6,0,B|436:73|434:-5|434:-5|457:30|444:85,1,225,14|0,0:0|0:0,0:0:0:0:
161,199,262464,2,0,P|114:186|79:153,1,99.0000030212403,2|0,3:2|0:0,0:0:0:0:
273,17,262801,2,0,P|286:64|274:111,1,99.0000030212403,10|8,0:1|0:0,0:0:0:0:
250,233,263053,1,8,0:0:0:0:
250,233,263138,2,0,P|238:280|251:327,1,99.0000030212403,10|8,0:0|0:1,0:0:0:0:
407,328,263390,1,8,0:3:0:0:
407,328,263475,6,0,P|357:288|291:286,1,103.500001974106,6|0,0:1|0:0,0:0:0:0:
52,320,263812,2,0,B|59:353|87:362|87:362|157:302|113:217,1,207.000003948212,8|8,0:0|0:1,0:0:0:0:
0,112,264317,1,2,3:2:0:0:
40,218,264486,1,8,0:0:0:0:
180,35,264655,1,2,3:2:0:0:
387,150,264823,6,0,P|437:151|478:120,1,103.500001974106,10|0,0:1|3:2,0:0:0:0:
407,328,265160,2,0,P|357:288|291:286,1,103.500001974106,10|0,0:0|0:0,0:0:0:0:
52,320,265497,2,0,B|59:353|87:362|87:362|157:302|113:217,1,207.000003948212,10|8,0:1|0:0,0:0:0:0:
1,169,266003,1,8,0:1:0:0:
213,107,266171,5,14,0:0:0:0:
93,74,266340,1,8,0:1:0:0:
298,29,266508,1,10,0:0:0:0:
424,244,266677,6,0,P|426:299|407:352,1,112.5,10|8,0:3|0:0,0:0:0:0:
223,139,267014,1,8,0:3:0:0:
418,66,267183,1,10,0:0:0:0:
184,15,267351,1,6,0:3:0:0:
130,348,267520,6,0,L|-20:325,1,112.5,14|8,0:0|0:3,0:0:0:0:
332,141,267857,1,14,0:0:0:0:
246,353,268025,1,10,0:3:0:0:
20,117,268194,2,0,P|17:61|36:8,1,112.5,14|8,0:0|0:1,0:0:0:0:
144,224,268531,1,8,0:3:0:0:
201,234,268615,1,8,0:3:0:0:
248,192,268699,2,0,P|280:180|321:177,1,56.25,4|4,0:3|0:3,0:0:0:0:
445,364,268868,5,10,0:1:0:0:
338,324,269037,1,10,0:1:0:0:
464,25,269205,1,12,0:0:0:0:
352,20,269374,2,0,B|444:155|319:131|416:263,1,251.999992309571,2|14,0:0|0:0,0:0:0:0:
409,254,270048,1,8,0:1:0:0:
97,119,270216,6,0,B|101:89|114:66|114:66|114:34|125:0,1,112.5,10|8,0:0|0:3,0:0:0:0:
95,339,270553,1,10,0:0:0:0:
18,61,270722,1,4,0:3:0:0:
324,94,270890,1,8,0:2:0:0:
67,233,271059,5,8,0:1:0:0:
72,153,271143,1,8,0:1:0:0:
144,109,271228,1,8,0:2:0:0:
220,135,271312,1,8,0:3:0:0:
233,154,271396,1,4,0:3:0:0:
238,169,271480,1,12,0:3:0:0:
235,180,271565,6,0,B|189:197|147:155|199:99|272:99|321:163|314:214,1,251.999992309571,6|8,0:1|0:0,0:0:0:0:
474,115,272070,2,0,P|454:62|440:-4,1,107.999996704102,2|8,3:2|0:1,0:0:0:0:
294,247,272407,2,0,P|314:300|328:366,1,107.999996704102,2|8,3:2|0:0,0:0:0:0:
366,83,272744,1,0,3:0:0:0:
131,324,272913,6,0,P|77:335|14:307,1,107.999996704102,6|0,0:0|0:0,0:0:0:0:
140,154,273250,1,10,0:0:0:0:
472,332,273419,2,0,P|365:313|258:303,1,215.999993408203,2|0,3:2|3:0,0:0:0:0:
173,148,273924,6,0,P|196:172|202:204,1,67.5,2|0,0:0|0:0,0:0:0:0:
75,36,274261,5,14,0:0:0:0:
102,24,274598,5,8,0:0:0:0:
72,216,274767,1,8,0:1:0:0:
339,90,274935,5,8,0:0:0:0:
98,124,275104,1,8,0:1:0:0:
374,212,275273,5,8,0:0:0:0:
187,39,275441,1,10,0:1:0:0:
469,368,275610,6,0,L|491:237,1,119.699995068512,14|8,0:0|0:3,0:0:0:0:
284,12,275947,5,12,0:0:0:0:
383,308,276115,1,10,0:1:0:0:
105,223,276284,5,14,0:0:0:0:
399,327,276452,1,8,0:3:0:0:
478,8,276621,6,0,L|459:127,1,119.699995068512,12|4,0:0|0:3,0:0:0:0:
142,316,276958,6,0,P|184:273|196:215,1,119.699995068512,6|8,0:1|0:1,0:0:0:0:
87,88,277295,1,10,0:1:0:0:
297,291,277464,6,0,L|385:379,1,119.699995068512,14|8,0:0|0:1,0:0:0:0:
354,85,277801,1,2,0:0:0:0:
53,173,277969,6,0,P|11:130|0:72,1,119.699995068512,12|6,0:0|0:2,0:0:0:0:
314,0,278306,6,0,P|272:42|260:100,1,119.699995068512,8|8,0:0|0:1,0:0:0:0:
487,240,278643,5,12,0:0:0:0:
365,89,278812,1,8,0:1:0:0:
78,348,278980,1,10,0:0:0:0:
21,329,279065,1,8,0:0:0:0:
21,269,279149,1,8,0:0:0:0:
78,251,279233,1,8,0:0:0:0:
113,299,279317,2,8,P|138:323|179:337,1,59.8499975342561,8|8,0:1|0:3,0:0:0:0:
316,322,279486,2,8,P|338:295|350:253,1,59.8499975342561,12|8,0:3|0:3,0:0:0:0:
257,53,279655,5,6,0:1:0:0:
350,187,279823,1,2,0:0:0:0:
492,97,279992,1,10,0:0:0:0:
184,150,280160,2,0,P|189:91|231:50,1,119.699995068512,2|8,0:0|0:1,0:0:0:0:
472,179,280497,1,8,0:3:0:0:
372,19,280666,1,10,0:1:0:0:
138,87,280834,6,0,L|1:50,1,119.699995068512,12|10,0:0|0:1,0:0:0:0:
287,25,281171,1,8,0:3:0:0:
114,211,281340,1,10,0:0:0:0:
19,163,281508,1,8,0:3:0:0:
260,150,281677,5,6,0:3:0:0:
204,350,281846,1,8,0:3:0:0:
53,14,282014,1,10,0:0:0:0:
148,136,282183,1,8,0:3:0:0:
422,44,282351,6,0,B|462:58|491:91|491:91|515:180|466:265,1,257.400003534851,14|10,0:2|0:0,0:0:0:0:
156,329,282857,1,8,0:1:0:0:
391,204,283025,2,0,P|350:163|297:144,1,115.2,10|8,0:0|0:1,0:0:0:0:
150,343,283362,1,10,0:3:0:0:
68,117,283531,6,0,P|61:63|65:-24,1,110.700001689148,14|0,0:2|0:0,0:0:0:0:
47,344,283868,1,8,0:1:0:0:
203,207,284037,1,10,3:2:0:0:
0,183,284205,1,10,0:1:0:0:
75,251,284374,1,8,0:3:0:0:
266,134,284542,1,10,0:1:0:0:
337,88,284626,1,8,0:1:0:0:
407,43,284711,1,10,0:0:0:0:
165,42,284879,1,8,0:3:0:0:
342,326,285048,6,0,P|395:334|441:304,1,110.700001689148,6|0,0:1|0:0,0:0:0:0:
116,360,285385,2,0,B|72:277|113:223|113:223|160:230|177:276,1,221.400003378296,8|8,0:0|0:1,0:0:0:0:
0,298,285890,1,2,3:2:0:0:
207,359,286059,1,8,0:0:0:0:
237,107,286228,1,2,3:2:0:0:
52,159,286396,6,0,P|13:111|1:50,1,110.700001689148,10|0,0:1|3:0,0:0:0:0:
318,38,286733,2,0,P|269:63|236:107,1,110.700001689148,10|0,0:2|0:0,0:0:0:0:
116,360,287070,2,0,B|72:277|113:223|113:223|160:230|177:276,1,221.400003378296,8|8,0:1|0:2,0:0:0:0:
332,369,287576,1,0,0:0:0:0:
466,174,287744,5,6,0:0:0:0:
457,320,287913,1,2,0:0:0:0:
329,247,288082,1,8,0:1:0:0:
344,29,288250,6,0,P|373:85|363:165,1,110.700001689148,10|0,0:0|0:0,0:0:0:0:
96,89,288587,1,8,0:1:0:0:
238,22,288756,1,14,0:0:0:0:
218,172,288924,1,10,0:1:0:0:
20,25,289093,5,12,0:0:0:0:
206,127,289261,1,8,0:3:0:0:
318,20,289430,5,12,0:0:0:0:
63,122,289598,1,12,0:3:0:0:
384,297,289767,2,0,P|437:280|511:266,1,110.700001689148,12|8,0:0|0:3,0:0:0:0:
166,159,290104,5,4,0:3:0:0:
248,344,290273,1,4,0:3:0:0:
452,63,290441,6,0,P|439:88|429:114,1,44.5499998640442,2|0,0:0|0:0,0:0:0:0:
357,16,290778,6,0,B|456:78|404:177|404:177|366:181|330:154,1,257.400003534851,14|8,0:0|0:3,0:0:0:0:
103,80,291284,1,8,0:1:0:0:
233,64,291452,1,8,0:3:0:0:
65,329,291621,1,6,0:3:0:0:
3,183,291789,1,10,0:1:0:0:
292,363,291958,1,8,0:3:0:0:
388,164,292126,1,10,0:0:0:0:
164,375,292295,1,12,0:3:0:0:
380,50,292464,6,0,P|441:40|500:25,1,110.700001689148,14|0,0:0|0:0,0:0:0:0:
117,284,292801,2,0,P|63:271|8:262,1,110.700001689148,14|0,0:0|0:0,0:0:0:0:
466,348,293138,6,0,B|496:273|442:214|386:214|386:214|358:255|387:297,1,270.000010299683,6|8,0:1|0:0,0:0:0:0:
494,123,293643,1,0,3:2:0:0:
228,214,293812,2,0,P|173:209|123:185,1,112.5,10|0,0:1|0:0,0:0:0:0:
267,11,294149,1,8,0:0:0:0:
354,144,294317,1,0,3:0:0:0:
137,308,294486,6,0,P|86:283|31:279,1,112.5,6|0,0:2|3:0,0:0:0:0:
298,370,294823,1,10,0:0:0:0:
195,127,294992,2,0,L|151:14,1,112.5,2|0,3:2|0:0,0:0:0:0:
121,329,295329,1,0,3:0:0:0:
364,182,295497,2,0,P|414:157|469:153,1,112.5,10|0,0:0|3:0,0:0:0:0:
160,80,295834,6,0,B|88:144|20:116|20:116|10:85|42:52,1,225,6|8,0:1|0:0,0:0:0:0:
284,20,296340,1,2,3:2:0:0:
357,221,296508,2,0,P|352:276|328:326,1,112.5,10|0,0:1|3:0,0:0:0:0:
473,77,296846,1,8,0:0:0:0:
243,264,297014,2,0,P|191:282|135:282,1,112.5,2|8,3:2|0:1,0:0:0:0:
316,122,297351,1,0,3:2:0:0:
234,356,297520,1,8,0:0:0:0:
368,235,297688,1,2,3:2:0:0:
62,176,297857,6,0,P|29:75|113:11,1,225,10|12,0:1|0:3,0:0:0:0:
38,251,298362,1,0,3:0:0:0:
297,73,298531,2,0,P|366:61|454:79,1,112.5,14|0,0:0|0:0,0:0:0:0:
201,27,298868,1,8,0:1:0:0:
258,259,299037,6,0,L|288:375,1,112.5,14|0,0:0|0:0,0:0:0:0:
117,103,299374,1,10,0:1:0:0:
7,372,299542,2,0,P|54:343|109:339,1,112.5,8|2,0:0|0:0,0:0:0:0:
391,365,299879,2,0,P|446:361|493:331,1,112.5,12|0,0:0|0:0,0:0:0:0:
240,131,300216,6,0,P|359:127|400:237,1,251.999992309571,14|10,0:0|0:1,0:0:0:0:
133,124,300722,2,0,P|113:56|144:3,1,118.799999637451,10|0,0:0|0:0,0:0:0:0:
258,259,301059,1,10,0:1:0:0:
32,106,301228,1,8,0:0:0:0:
403,5,301396,6,0,L|364:253,1,237.599999274902,6|8,0:1|0:1,0:0:0:0:
56,362,301902,2,0,P|59:295|106:249,1,118.799999637451,12|0,0:0|0:0,0:0:0:0:
445,329,302239,6,0,P|378:318|295:319,1,127.799993564759,4|0,0:0|0:0,0:0:0:0:
136,14,302576,6,0,P|164:108|252:266,1,273.599996660156,6|0,0:1|0:0,0:0:0:0:
284,252,303924,5,12,0:3:0:0:
161,206,304093,1,8,0:3:0:0:
362,181,304261,6,0,P|396:161|320:138,1,180,14|0,0:0|0:0,0:0:0:0:
176,105,304767,6,0,P|160:62|248:61,1,161.999995056153,14|0,0:0|0:0,0:0:0:0:
56,150,305273,6,0,P|21:131|94:104,1,161.999995056153,14|0,0:0|0:1,0:0:0:0:
129,195,305778,6,0,P|126:261|74:327,1,144,14|0,0:0|0:0,0:0:0:0:
256,384,306284,6,0,P|217:329|217:258,1,125.999996154785,14|2,0:1|0:0,0:0:0:0:
294,229,306789,6,0,P|342:237|367:290,1,107.999996704102,12|0,0:0|0:0,0:0:0:0:
507,359,307298,6,0,P|446:287|477:181,1,204.749993751526,10|0,0:1|0:0,0:0:0:0:
419,101,309113,6,0,B|346:70|289:123|289:178|289:178|329:206|376:176,1,266.584504934189,2|0,0:0|0:0,0:0:0:0:
256,192,310993,12,0,314557,0:0:0:0:
