osu file format v14

[General]
AudioFilename: audio.mp3
AudioLeadIn: 0
PreviewTime: 144567
Countdown: 0
SampleSet: Soft
StackLeniency: 0.4
Mode: 0
LetterboxInBreaks: 0
WidescreenStoryboard: 0

[Editor]
Bookmarks: 110101
DistanceSpacing: 0.7
BeatDivisor: 4
GridSize: 8
TimelineZoom: 1

[Metadata]
Title:Masterpiece!
TitleUnicode:マスターピース!
Artist:Shimotsuki Haruka & Yamamoto Mineko
ArtistUnicode:霜月はるか & 山本美禰子
Creator:Nana Abe
Version:Lydie
Source:リディー&スールのアトリエ ~不思議な絵画の錬金術士~
Tags:Atelier Lydie & Suelle: The Alchemists and the Mysterious Paintings jpop japanese video game opening full ver takekii hanasaka yui takeki ~fushigi na kaiga no renkinjutsushi~ gust j-pop ボーカルアルバム vocal album
BeatmapID:2618969
BeatmapSetID:1259704

[Difficulty]
HPDrainRate:5
CircleSize:5
OverallDifficulty:8.5
ApproachRate:8.5
SliderMultiplier:1.7
SliderTickRate:1

[Events]
//Background and Video events
0,0,"lydie.jpg",0,0
//Break Periods
//Storyboard Layer 0 (Background)
//Storyboard Layer 1 (Fail)
//Storyboard Layer 2 (Pass)
//Storyboard Layer 3 (Foreground)
//Storyboard Layer 4 (Overlay)
//Storyboard Sound Samples

[TimingPoints]
1224,337.078651685393,4,2,1,65,1,0
1224,-142.857142857143,4,2,1,65,0,0
10493,-100,4,2,1,65,0,0
10577,-100,4,2,1,5,0,0
10662,-100,4,2,1,72,0,0
12010,-119.047619047619,4,2,1,72,0,0
12516,-100,4,2,1,72,0,0
13021,-119.047619047619,4,2,1,72,0,0
17403,-108.695652173913,4,2,1,72,0,0
19510,-108.695652173913,4,2,1,5,0,0
19594,-108.695652173913,4,2,1,72,0,0
20100,-108.695652173913,4,2,1,60,0,0
21448,-138.888888888889,4,2,1,60,0,0
23134,-153.846153846154,4,2,1,50,0,0
32909,-100,4,2,1,65,0,0
33920,-111.111111111111,4,2,1,65,0,0
38976,-83.3333333333333,4,2,1,65,0,0
40325,-106.382978723404,4,2,1,70,0,0
41083,-106.382978723404,4,2,1,5,0,0
41167,-106.382978723404,4,2,1,70,0,0
43190,-119.047619047619,4,2,1,70,0,0
49594,-100,4,2,1,70,0,0
49931,-119.047619047619,4,2,1,70,0,0
50943,-64.9350649350649,4,2,1,70,0,0
51027,-64.9350649350649,4,2,1,5,0,0
51111,-119.047619047619,4,2,1,75,0,0
53134,-103.092783505155,4,2,1,75,0,0
53808,-88.4955752212389,4,2,1,75,0,0
54988,-96.1538461538461,4,2,1,75,0,0
59370,-111.111111111111,4,2,1,75,0,0
61898,-97.0873786407767,4,2,2,75,0,0
62235,-97.0873786407767,4,2,1,75,0,0
63077,-75.187969924812,4,2,1,75,0,0
63330,-75.187969924812,4,2,1,5,0,0
63415,-75.187969924812,4,2,1,75,0,0
64089,-250,4,2,1,75,0,0
64426,-250,4,2,1,5,0,0
64594,-84.0336134453781,4,2,1,80,0,1
65437,-90.9090909090909,4,2,1,80,0,1
67544,-90.9090909090909,4,2,1,5,0,1
67628,-90.9090909090909,4,2,1,80,0,1
71589,-90.9090909090909,4,2,1,5,0,1
71673,-90.9090909090909,4,2,1,80,0,1
73190,-90.9090909090909,4,2,2,80,0,1
73527,-90.9090909090909,4,2,1,80,0,1
74454,-90.9090909090909,4,2,1,5,0,1
74538,-90.9090909090909,4,2,1,80,0,1
75297,-90.9090909090909,4,2,1,5,0,1
75381,-90.9090909090909,4,2,1,80,0,1
75634,-90.9090909090909,4,2,1,5,0,1
75718,-90.9090909090909,4,2,1,80,0,1
75971,-90.9090909090909,4,2,1,5,0,1
76055,-90.9090909090909,4,2,1,80,0,1
76645,-90.9090909090909,4,2,1,5,0,1
76729,-90.9090909090909,4,2,1,80,0,1
82122,-90.9090909090909,4,2,2,80,0,1
82291,-90.9090909090909,4,2,1,80,0,1
87094,-90.9090909090909,4,2,1,5,0,1
87179,-90.9090909090909,4,2,1,80,0,1
87516,-80,4,2,1,80,0,1
87853,-90.9090909090909,4,2,1,65,0,0
88528,337.078651685393,4,2,1,65,1,0
89876,-166.666666666667,4,2,1,65,0,0
93921,-125,4,2,1,65,0,0
97797,-100,4,2,1,65,0,0
98303,-111.111111111111,4,2,1,65,0,0
98808,-100,4,2,1,65,0,0
99314,-142.857142857143,4,2,1,65,0,0
99651,-142.857142857143,4,2,1,50,0,0
109426,-100,4,2,1,65,0,0
110438,-117.647058823529,4,2,1,65,0,0
112713,-117.647058823529,4,2,1,5,0,0
112797,-117.647058823529,4,2,1,65,0,0
118190,-100,4,2,1,65,0,0
119623,-100,4,2,1,5,0,0
119707,-100,4,2,1,65,0,0
120887,-106.382978723404,4,2,1,70,0,0
121645,-106.382978723404,4,2,1,5,0,0
121730,-106.382978723404,4,2,1,70,0,0
131674,-106.382978723404,4,2,1,75,0,0
134370,-95.2380952380952,4,2,1,75,0,0
135044,-106.382978723404,4,2,1,75,0,0
135550,-87.7192982456139,4,2,1,75,0,0
136224,-87.7192982456139,4,2,1,75,0,0
136561,-106.382978723404,4,2,1,75,0,0
138247,-96.153846153846,4,2,1,75,0,0
139258,-106.382978723404,4,2,1,75,0,0
139595,-100,4,2,1,75,0,0
139932,-106.382978723404,4,2,1,75,0,0
142460,-93.4579439252336,4,2,1,75,0,0
143640,-68.9655172413793,4,2,1,75,0,0
143893,-68.9655172413793,4,2,1,5,0,0
143977,-68.9655172413793,4,2,1,75,0,0
144145,-74.0740740740741,4,2,1,75,0,0
144567,-74.0740740740741,4,2,1,5,0,0
144651,-74.0740740740741,4,2,1,75,0,0
145072,-74.0740740740741,4,2,1,5,0,0
145157,-90.9090909090909,4,2,1,80,0,1
145662,-81.3008130081301,4,2,1,80,0,1
145999,-90.9090909090909,4,2,1,80,0,1
168078,-80,4,2,1,80,0,1
168415,-80,4,2,1,65,0,0
168836,348.837209302326,4,2,1,65,1,8
169359,288.461538461538,4,2,1,65,1,8
169503,355.029585798817,4,2,1,65,1,8
169769,337.078651685393,3,2,1,65,1,0
169769,-125,3,2,1,65,0,0
178870,-111.111111111111,3,2,1,65,0,0
188308,-100,3,2,1,65,0,0
189235,-100,3,2,1,5,0,0
189319,-100,3,2,1,65,0,0
191004,337.078651685393,4,2,1,65,1,0
191004,-114.942528735632,4,2,1,65,0,0
199093,-100,4,2,1,65,0,0
210891,-100,4,2,2,65,0,0
211060,-100,4,2,1,65,0,0
211650,-100,4,2,1,5,0,0
211734,-100,4,2,1,65,0,0
212239,-76.9230769230769,4,2,1,65,0,0
212577,-95.2380952380952,4,2,1,72,0,0
213588,-95.2380952380952,4,2,2,72,0,0
213925,-95.2380952380952,4,2,1,72,0,0
216284,-95.2380952380952,4,2,2,72,0,0
216621,-95.2380952380952,4,2,1,72,0,0
217296,-95.2380952380952,4,2,2,72,0,0
217464,-95.2380952380952,4,2,1,72,0,0
218475,-95.2380952380952,4,2,2,72,0,0
218812,-95.2380952380952,4,2,1,72,0,0
220161,-95.2380952380952,4,2,1,75,0,0
220329,-95.2380952380952,4,2,1,84,0,0
220666,-95.2380952380952,4,2,1,72,0,0
223363,-95.2380952380952,4,2,2,72,0,0
223700,-95.2380952380952,4,2,1,72,0,0
225386,-81.9672131147541,4,2,1,72,0,0
225723,-95.2380952380952,4,2,1,72,0,0
226060,-95.2380952380952,4,2,2,72,0,0
226397,-95.2380952380952,4,2,1,72,0,0
242239,-95.2380952380952,4,2,2,72,0,0
242577,-95.2380952380952,4,2,1,72,0,0
243503,-95.2380952380952,4,2,1,5,0,0
243588,-95.2380952380952,4,2,1,72,0,0
244262,-95.2380952380952,4,2,2,72,0,0
244430,-95.2380952380952,4,2,1,72,0,0
244936,-95.2380952380952,4,2,2,72,0,0
245273,-95.2380952380952,4,2,1,72,0,0
245947,-95.2380952380952,4,2,2,72,0,0
246284,-95.2380952380952,4,2,1,72,0,0
247296,-95.2380952380952,4,2,2,72,0,0
247464,-95.2380952380952,4,2,1,72,0,0
248307,-95.2380952380952,4,2,2,72,0,0
248475,-95.2380952380952,4,2,1,72,0,0
248812,-95.2380952380952,4,2,2,72,0,0
248981,-95.2380952380952,4,2,1,72,0,0
249824,-95.2380952380952,4,2,2,72,0,0
249992,-95.2380952380952,4,2,1,72,0,0
250835,-95.2380952380952,4,2,2,72,0,0
251172,-95.2380952380952,4,2,1,72,0,0
253026,-95.2380952380952,4,2,2,72,0,0
253700,-200,4,2,1,65,0,0
254374,-200,4,2,1,60,0,0
254880,-200,4,2,1,40,0,0
255048,-200,4,2,1,55,0,0
255723,-200,4,2,1,30,0,0
256902,-200,4,2,1,26,0,0
257745,-250,4,2,1,65,0,0
257998,-250,4,2,1,5,0,0
258082,337.078651685393,4,2,1,80,1,0
258082,-90.9090909090909,4,2,1,80,0,1
259346,-90.9090909090909,4,2,1,5,0,1
259430,-65.359477124183,4,2,1,80,0,1
259598,-90.9090909090909,4,2,1,80,0,1
267520,-90.9090909090909,4,2,1,87,0,1
268868,-90.9090909090909,4,2,1,80,0,1
269374,-80,4,2,1,80,0,1
269711,-90.9090909090909,4,2,1,80,0,1
273924,-125,4,2,1,80,0,1
274177,-125,4,2,1,5,0,1
274261,-90.9090909090909,4,2,1,80,0,1
275610,-81.3008130081301,4,2,1,87,0,1
276958,-76.9230769230769,4,2,1,80,0,1
277295,-81.3008130081301,4,2,1,80,0,1
277969,-81.3008130081301,4,2,2,80,0,1
278138,-81.3008130081301,4,2,1,80,0,1
281677,-81.3008130081301,4,2,1,87,0,1
283531,-74.0740740740741,4,2,1,80,0,1
283868,-81.3008130081301,4,2,1,80,0,1
290441,-232.558139534884,4,2,1,80,0,1
290694,-232.558139534884,4,2,1,5,0,1
290778,-81.3008130081301,4,2,1,80,0,1
291621,-81.3008130081301,4,2,1,87,0,1
292464,-75.187969924812,4,2,1,87,0,1
293138,-76.9230769230769,4,2,1,80,0,1
294486,-81.3008130081301,4,2,1,80,0,1
299037,-81.3008130081301,4,2,2,80,0,1
299374,-81.3008130081301,4,2,1,80,0,1
301396,-74.0740740740741,4,2,2,80,0,1
301733,-81.3008130081301,4,2,1,80,0,1
302576,-69.9300699300699,4,2,1,80,0,1
302913,-100,4,2,1,5,0,0
303924,-100,4,2,1,75,0,0
304261,337.078651685393,4,2,1,75,1,0
304767,-111.111111111111,4,2,1,60,0,0
305778,-125,4,2,1,65,0,0
306284,-142.857142857143,4,2,1,53,0,0
306789,389.61038961039,4,2,1,43,1,0
306789,-166.666666666667,4,2,1,43,0,0
307298,483.870967741935,4,2,1,43,1,8
307298,-285.714285714286,4,2,1,43,0,0
309113,-207.900207900208,4,2,1,60,0,0
309476,526.315789473684,4,2,1,65,1,8
310528,337.078651685393,4,2,1,65,1,8
310696,297.029702970297,4,2,1,65,1,8
314557,-100,4,2,1,5,0,0

[Colours]
Combo1 : 251,185,239
Combo2 : 110,190,225
Combo3 : 255,175,128
Combo4 : 96,96,255

[HitObjects]
449,59,718,5,0,0:0:0:0:
406,61,887,1,0,0:0:0:0:
366,49,1055,1,0,0:0:0:0:
333,23,1224,1,10,0:1:0:0:
333,23,1729,1,0,0:0:0:0:
332,123,1898,2,0,P|315:172|254:192,1,118.999996368408,2|0,0:0|0:0,0:0:0:0:
94,113,2403,2,0,P|145:112|185:162,1,118.999996368408,2|0,0:0|0:0,0:0:0:0:
187,179,3077,6,0,L|177:307,1,118.999996368408,2|0,0:0|0:0,0:0:0:0:
175,323,3583,1,0,0:0:0:0:
91,296,3752,2,0,P|79:258|89:220,1,59.4999981842042,2|8,0:0|0:1,0:0:0:0:
81,239,4426,2,0,P|93:201|83:163,1,59.4999981842042,2|2,0:0|0:0,0:0:0:0:
90,182,5100,2,0,P|78:144|88:106,1,59.4999981842042,2|2,0:0|0:0,0:0:0:0:
138,38,5606,1,2,0:0:0:0:
81,239,5774,6,0,P|93:201|83:163,1,59.4999981842042,2|0,0:0|0:0,0:0:0:0:
90,182,6111,2,0,P|78:144|88:106,1,59.4999981842042,2|0,0:0|0:0,0:0:0:0:
138,38,6448,1,2,0:0:0:0:
218,126,6617,2,0,B|256:169|318:146|318:146|315:109|282:91,1,178.499994552612,10|0,0:1|0:0,0:0:0:0:
281,90,7459,2,0,P|321:103|402:57,1,118.999996368408,2|0,0:2|0:0,0:0:0:0:
512,201,7965,6,0,P|460:173|403:186,1,118.999996368408,2|2,0:1|0:0,0:0:0:0:
390,242,8471,2,0,P|403:215|404:186,1,59.4999981842042,2|0,0:0|0:0,0:0:0:0:
388,258,8808,2,0,P|397:286|417:307,1,59.4999981842042,2|0,0:0|0:0,0:0:0:0:
486,328,9145,1,2,0:0:0:0:
286,365,9313,2,0,P|258:275|332:324,1,237.999992736817,10|2,0:1|0:0,0:0:0:0:
148,122,10493,6,0,P|155:141|156:162,1,42.5,4|0,0:2|0:0,0:0:0:0:
57,216,10662,5,8,0:1:0:0:
82,151,10830,1,8,0:1:0:0:
119,289,10999,1,8,0:3:0:0:
148,366,11167,1,8,0:3:0:0:
40,300,11336,1,8,0:0:0:0:
160,104,11504,1,8,0:0:0:0:
35,375,11673,5,4,0:1:0:0:
35,375,12010,6,0,P|90:357|193:390,1,142.79999564209,6|8,0:0|0:0,0:0:0:0:
348,355,12516,2,0,P|243:373|168:254,1,255,4|8,0:1|0:1,0:0:0:0:
320,227,13190,1,8,0:0:0:0:
256,154,13358,2,0,P|239:191|244:233,1,71.399997821045,10|8,0:1|0:1,0:0:0:0:
372,146,13695,1,8,0:1:0:0:
314,91,13864,1,8,0:3:0:0:
417,204,14032,1,10,0:0:0:0:
480,142,14201,1,8,0:1:0:0:
406,213,14370,1,8,0:3:0:0:
453,291,14538,1,4,0:3:0:0:
434,55,14707,5,4,0:2:0:0:
427,62,15044,2,0,P|392:71|357:65,1,71.399997821045,8|0,0:1|0:0,0:0:0:0:
190,13,15381,2,0,P|241:5|283:87,1,142.79999564209,10|0,0:0|0:0,0:0:0:0:
222,190,15886,2,0,B|197:164|199:124|199:124|167:141|129:128,1,142.79999564209,4|8,0:0|0:1,0:0:0:0:
23,53,16392,1,8,0:0:0:0:
93,8,16561,2,0,P|99:44|82:80,1,71.399997821045,2|0,0:0|0:0,0:0:0:0:
22,199,16898,1,2,0:0:0:0:
31,128,17066,1,10,0:0:0:0:
25,227,17235,1,2,0:0:0:0:
183,355,17403,6,0,P|141:333|115:300,1,78.199997374878,4|0,0:1|3:0,0:0:0:0:
89,244,17740,2,0,P|109:286|109:327,1,78.199997374878,8|0,0:0|3:0,0:0:0:0:
231,213,18077,2,0,P|303:182|380:168,1,156.399994749756,10|8,0:1|0:0,0:0:0:0:
162,189,18583,2,0,P|115:181|80:159,1,78.199997374878,2|8,3:2|0:1,0:0:0:0:
243,286,18920,2,0,P|275:319|290:358,1,78.199997374878,2|8,3:2|0:0,0:0:0:0:
411,218,19257,2,0,P|387:164|377:107,1,117.299996062317,2|0,3:2|0:0,0:0:0:0:
422,52,19594,1,2,3:2:0:0:
357,0,19763,1,10,0:0:0:0:
447,125,19931,1,2,0:0:0:0:
349,273,20100,5,6,0:0:0:0:
423,253,20353,1,2,0:0:0:0:
498,260,20606,1,2,0:0:0:0:
335,300,20774,1,2,0:0:0:0:
261,280,21027,1,2,0:0:0:0:
186,287,21280,1,2,0:0:0:0:
175,293,21364,1,2,0:0:0:0:
168,302,21448,2,0,P|110:313|68:271,1,122.400002988281,2|0,0:0|0:0,0:0:0:0:
299,368,21954,2,0,P|356:378|398:336,1,122.400002988281,2|0,0:0|0:0,0:0:0:0:
274,361,22459,2,0,P|250:362|229:368,2,30.6000007470703,2|2|2,0:0|0:0|0:0,0:0:0:0:
467,373,22797,1,4,0:0:0:0:
232,171,23134,6,0,L|175:161,1,55.2499974708558,2|8,0:0|0:1,0:0:0:0:
146,157,23471,1,2,0:0:0:0:
118,170,23808,1,8,0:0:0:0:
102,196,24061,1,8,0:0:0:0:
102,225,24145,1,8,0:1:0:0:
122,255,24650,2,0,P|104:291|26:296,1,110.499994941712,8|8,0:0|0:1,0:0:0:0:
3,199,25156,1,2,0:0:0:0:
17,204,25325,2,0,P|25:224|27:243,1,27.6249987354279,10|8,0:1|0:0,0:0:0:0:
48,361,25493,6,0,P|103:364|167:370,1,110.499994941712,10|0,0:1|0:0,0:0:0:0:
241,318,25999,2,0,P|296:314|351:309,1,110.499994941712,10|0,0:0|0:0,0:0:0:0:
435,331,26504,1,2,0:0:0:0:
338,299,26673,2,0,P|285:274|242:243,1,110.499994941712,2|0,0:0|0:0,0:0:0:0:
407,253,27179,1,2,0:0:0:0:
275,292,27347,2,0,P|220:282|168:263,1,110.499994941712,8|0,0:2|0:0,0:0:0:0:
348,204,27853,1,2,0:0:0:0:
132,255,28106,1,8,0:0:0:0:
114,240,28190,6,0,P|78:221|9:266,1,110.499994941712,2|8,0:3|0:1,0:0:0:0:
142,230,28695,2,0,P|172:154|155:74,1,165.749992412568,10|8,0:0|0:0,0:0:0:0:
21,82,29454,1,8,0:0:0:0:
31,88,29538,2,0,P|73:87|102:70,1,55.2499974708558,10|0,0:1|0:0,0:0:0:0:
136,8,29875,2,0,P|163:5|189:13,1,55.2499974708558,2|8,0:0|0:0,0:0:0:0:
297,98,30212,6,0,B|280:108|273:128|273:128|272:165|297:194,1,110.499994941712,2|8,0:0|0:0,0:0:0:0:
372,94,30718,1,8,0:1:0:0:
378,84,30802,1,8,0:1:0:0:
380,74,30886,2,0,B|380:54|366:37|366:37|335:18|297:24,1,110.499994941712,10|0,0:1|0:0,0:0:0:0:
405,171,31392,2,0,B|422:181|444:177|444:177|475:160|489:124,1,110.499994941712,8|0,0:0|0:0,0:0:0:0:
461,66,31813,2,0,P|456:52|455:39,4,27.6249987354279,0|8|0|0|0,0:0|0:0|0:0|0:0|0:0,0:0:0:0:
299,205,32235,1,8,0:1:0:0:
427,333,32909,6,0,L|441:220,1,85,4|0,0:0|0:0,0:0:0:0:
246,367,33246,2,0,L|235:282,1,85,4|0,0:0|0:0,0:0:0:0:
447,245,33583,6,0,P|451:307|367:301,1,170,4|8,0:1|0:1,0:0:0:0:
297,236,34089,1,2,3:2:0:0:
297,236,34257,1,8,0:1:0:0:
211,291,34426,2,0,P|170:301|127:294,1,76.4999976654053,2|8,3:0|0:1,0:0:0:0:
309,155,34763,1,2,0:0:0:0:
299,142,35100,2,0,P|268:112|227:97,1,76.4999976654053,0|8,3:0|0:1,0:0:0:0:
170,64,35437,1,0,3:0:0:0:
54,99,35606,2,0,P|86:120|124:128,1,76.4999976654053,10|0,0:1|3:0,0:0:0:0:
266,94,35943,2,0,P|297:72|318:41,1,76.4999976654053,10|0,0:1|3:0,0:0:0:0:
104,36,36280,6,0,P|160:58|186:168,2,152.999995330811,10|8|8,0:1|0:1|0:1,0:0:0:0:
2,63,37122,1,0,3:0:0:0:
43,7,37291,1,10,0:1:0:0:
63,176,37459,2,0,P|55:213|34:245,1,76.4999976654053,2|8,3:0|0:1,0:0:0:0:
7,134,37797,1,2,3:0:0:0:
91,114,37965,1,0,0:3:0:0:
71,334,38134,2,0,P|33:326|1:305,1,76.4999976654053,2|8,3:0|0:1,0:0:0:0:
132,286,38471,1,2,0:0:0:0:
220,378,38639,6,0,P|257:369|289:350,1,76.4999976654053,8|2,0:3|0:0,0:0:0:0:
267,176,38976,6,0,P|310:236|384:248,1,152.999995330811,4|0,0:1|0:0,0:0:0:0:
443,216,39313,1,2,0:0:0:0:
479,223,39397,1,2,0:0:0:0:
504,251,39481,1,2,0:0:0:0:
507,288,39565,1,2,0:0:0:0:
486,319,39650,5,8,0:0:0:0:
238,286,39819,1,8,0:0:0:0:
222,279,40325,5,4,0:1:0:0:
305,289,40493,1,2,0:0:0:0:
207,282,40662,1,8,0:0:0:0:
81,324,40830,2,0,P|26:307|12:251,1,119.849998171234,2|0,0:0|0:0,0:0:0:0:
44,197,41167,1,8,0:1:0:0:
138,223,41336,1,8,0:0:0:0:
223,164,41504,6,0,P|289:138|284:55,1,159.799997561646,6|0,0:0|0:0,0:0:0:0:
183,33,42010,1,8,0:0:0:0:
382,85,42179,2,0,P|404:51|410:12,1,79.8999987808228,10|8,0:1|0:1,0:0:0:0:
296,150,42516,2,0,P|260:131|236:100,1,79.8999987808228,10|8,0:1|0:0,0:0:0:0:
423,232,42853,6,0,P|431:158|504:146,1,159.799997561646,2|0,0:0|0:0,0:0:0:0:
410,311,43358,2,0,P|406:346|414:380,1,71.399997821045,2|8,0:0|0:0,0:0:0:0:
298,249,43695,2,0,P|277:220|268:185,1,71.399997821045,2|8,0:0|0:3,0:0:0:0:
311,82,44032,1,4,0:3:0:0:
202,209,44201,6,0,B|161:247|110:230|110:230|118:209|144:199,1,142.79999564209,12|8,0:0|0:1,0:0:0:0:
356,164,44707,1,8,0:3:0:0:
190,122,44875,2,0,P|169:93|160:58,1,71.399997821045,4|2,0:0|0:0,0:0:0:0:
277,11,45212,1,8,0:3:0:0:
323,64,45381,1,8,0:0:0:0:
269,112,45549,2,0,L|260:189,1,71.399997821045,10|4,0:1|0:1,0:0:0:0:
311,327,45886,5,10,0:1:0:0:
392,245,46055,1,8,0:0:0:0:
295,336,46223,2,0,L|284:243,1,71.399997821045,12|8,0:0|0:1,0:0:0:0:
445,203,46561,1,8,0:3:0:0:
400,341,46729,1,8,0:0:0:0:
218,345,46898,6,0,P|151:318|80:311,1,142.79999564209,4|8,0:2|0:1,0:0:0:0:
0,349,47403,1,8,0:0:0:0:
160,66,47740,2,0,L|133:0,1,71.399997821045,8|8,0:1|0:1,0:0:0:0:
33,44,48077,2,0,L|59:110,1,71.399997821045,10|0,0:0|0:0,0:0:0:0:
260,88,48415,6,0,P|320:103|353:178,1,142.79999564209,4|8,0:1|0:1,0:0:0:0:
121,224,48920,2,0,P|159:175|241:175,1,142.79999564209,12|0,0:2|0:0,0:0:0:0:
127,319,49426,1,8,0:0:0:0:
77,134,49594,6,0,B|61:70|1:54|1:54|-4:80|14:106,1,170,4|8,0:1|0:1,0:0:0:0:
32,226,50100,1,8,0:3:0:0:
157,76,50268,2,0,L|217:-6,1,71.399997821045,2|8,0:0|0:0,0:0:0:0:
289,251,50606,1,8,0:3:0:0:
289,251,50690,1,8,0:3:0:0:
289,251,50774,1,8,0:1:0:0:
193,190,50943,2,0,B|177:176|159:186|159:186|176:184|189:198,1,65.449998701706,12|0,0:0|0:0,0:0:0:0:
394,228,51111,5,4,0:1:0:0:
329,168,51280,1,8,0:1:0:0:
370,298,51448,5,8,0:0:0:0:
356,90,51617,1,8,0:3:0:0:
257,139,51785,5,8,0:1:0:0:
434,141,51954,1,8,0:3:0:0:
327,8,52122,1,8,0:0:0:0:
339,94,52291,1,6,0:3:0:0:
509,13,52459,6,0,P|476:-1|441:-6,1,71.399997821045,10|8,0:1|0:3,0:0:0:0:
413,162,52797,2,0,P|448:156|480:141,1,71.399997821045,10|12,0:0|0:3,0:0:0:0:
183,12,53134,2,8,P|170:52|151:88,1,82.4500019500351,8|8,0:1|0:3,0:0:0:0:
388,304,53471,2,0,P|368:267|356:228,1,82.4500019500351,8|8,0:0|2:2,0:0:0:0:
74,310,53808,6,0,B|175:344|132:199|265:257,2,192.100000586243,6|8|8,0:1|0:0|0:1,0:0:0:0:
11,243,54650,1,8,0:3:0:0:
29,165,54819,1,4,0:3:0:0:
231,323,54988,6,0,P|299:375|386:368,1,176.799998920898,6|2,0:1|0:0,0:0:0:0:
298,384,55493,1,2,0:0:0:0:
456,318,55662,2,0,B|489:311|504:281|504:281|515:217|487:162,1,176.799998920898,12|2,0:0|0:0,0:0:0:0:
306,152,56167,1,8,0:3:0:0:
376,202,56336,1,4,0:3:0:0:
464,69,56504,5,12,0:0:0:0:
402,17,56673,1,8,0:1:0:0:
384,127,56841,5,8,0:0:0:0:
463,153,57010,1,8,0:3:0:0:
296,58,57179,5,8,0:0:0:0:
375,32,57348,1,4,0:3:0:0:
292,157,57516,1,10,0:0:0:0:
111,54,57684,6,0,P|193:68|209:150,1,176.799998920898,6|0,0:1|0:0,0:0:0:0:
20,264,58190,2,0,P|101:249|117:167,1,176.799998920898,12|8,0:0|0:0,0:0:0:0:
0,113,58695,1,8,0:1:0:0:
20,264,58864,1,8,0:3:0:0:
235,257,59032,6,0,P|315:255|404:305,1,176.799998920898,6|0,0:1|3:0,0:0:0:0:
208,258,59538,2,0,P|192:221|202:168,1,76.4999976654053,8|0,0:0|3:0,0:0:0:0:
134,363,59875,2,0,P|97:344|70:298,1,76.4999976654053,10|0,0:1|3:0,0:0:0:0:
340,234,60212,2,0,P|362:204|369:167,1,76.4999976654053,10|0,0:0|3:0,0:0:0:0:
388,353,60549,6,0,P|427:343|464:304,1,76.4999976654053,4|0,0:0|3:0,0:0:0:0:
289,173,60886,2,0,P|273:136|282:83,1,76.4999976654053,10|0,0:0|3:0,0:0:0:0:
472,236,61223,2,0,P|438:218|416:187,1,76.4999976654053,8|0,0:1|3:0,0:0:0:0:
388,86,61561,2,0,P|410:55|444:38,1,76.4999976654053,8|8,0:0|3:2,0:0:0:0:
194,193,61898,6,0,P|117:152|31:157,1,175.099998530502,12|8,0:2|0:0,0:0:0:0:
264,291,62403,1,8,0:1:0:0:
155,63,62572,1,8,0:0:0:0:
100,142,62740,2,0,P|71:109|62:67,1,87.5499992652512,8|4,0:3|0:3,0:0:0:0:
70,58,63077,6,0,L|55:238,1,169.574993013726,4|0,0:1|0:0,0:0:0:0:
48,293,63415,1,8,0:3:0:0:
74,30,63583,1,8,0:0:0:0:
78,9,63920,1,8,0:3:0:0:
233,121,64089,6,0,L|308:108,1,68,12|0,0:1|0:0,0:0:0:0:
190,229,64594,5,12,0:0:0:0:
89,191,64763,1,8,0:1:0:0:
181,320,64931,1,10,0:0:0:0:
292,203,65100,2,0,B|337:175|385:197|385:197|377:252|318:267,1,202.299995987091,10|8,0:1|0:1,0:0:0:0:
155,145,65606,2,0,P|153:98|173:57,1,93.5000028533936,8|8,0:0|0:1,0:0:0:0:
335,40,65943,5,10,0:0:0:0:
254,21,66111,1,8,0:1:0:0:
394,144,66280,5,10,0:0:0:0:
458,74,66448,1,8,0:3:0:0:
235,137,66617,5,10,0:0:0:0:
269,248,66785,1,4,0:3:0:0:
351,13,66954,1,8,0:0:0:0:
134,357,67291,6,0,P|67:368|22:318,1,140.25000428009,14|0,0:0|0:0,0:0:0:0:
20,250,67628,2,0,P|63:251|91:297,1,93.5000028533936,8|0,0:0|0:0,0:0:0:0:
225,368,67965,1,8,0:0:0:0:
178,163,68134,1,8,0:3:0:0:
132,216,68302,1,6,0:3:0:0:
352,377,68471,6,0,P|411:310|500:324,1,187.000005706787,6|8,0:0|0:1,0:0:0:0:
276,309,68976,2,0,P|225:264|234:198,1,140.25000428009,4|0,0:1|0:0,0:0:0:0:
334,103,69313,2,8,P|343:119|346:152,1,46.7500014266968,8|8,0:3|0:3,0:0:0:0:
331,221,69482,2,8,P|317:233|286:244,1,46.7500014266968,12|12,0:3|0:3,0:0:0:0:
188,29,69650,1,10,0:0:0:0:
183,41,69988,6,0,P|129:47|89:16,1,93.5000028533936,6|0,0:0|3:0,0:0:0:0:
304,72,70325,2,0,P|383:24|474:34,1,187.000005706787,10|8,0:0|0:1,0:0:0:0:
373,0,70830,5,2,3:2:0:0:
235,100,70999,1,8,0:0:0:0:
272,221,71167,1,2,3:3:0:0:
132,154,71336,2,0,B|95:114|101:74|101:74|121:48|151:49,1,140.25000428009,10|0,0:1|0:0,0:0:0:0:
183,41,71673,6,0,P|129:47|89:16,1,93.5000028533936,10|0,0:2|0:0,0:0:0:0:
304,72,72010,2,0,P|383:24|474:34,1,187.000005706787,10|8,0:1|0:0,0:0:0:0:
119,351,72684,5,12,0:1:0:0:
137,261,72853,1,8,0:1:0:0:
74,199,73021,1,8,0:0:0:0:
224,379,73190,2,0,P|282:355|242:246,1,187.000005706787,14|8,0:0|0:1,0:0:0:0:
325,363,73695,2,0,P|362:388|408:383,1,93.5000028533936,14|2,0:0|0:0,0:0:0:0:
512,278,74032,1,8,0:1:0:0:
388,126,74201,6,0,P|405:174|412:268,1,140.25000428009,4|0,0:0|0:0,0:0:0:0:
381,317,74538,1,8,0:3:0:0:
478,152,74707,1,8,0:0:0:0:
477,138,75044,2,0,P|448:74|405:19,1,140.25000428009,2|0,0:0|0:0,0:0:0:0:
292,36,75381,6,0,P|291:86|347:56,1,140.25000428009,8|0,0:0|0:0,0:0:0:0:
260,43,75718,6,0,P|257:98|281:199,1,140.25000428009,12|0,0:0|0:0,0:0:0:0:
324,240,76055,1,10,0:1:0:0:
173,121,76223,2,0,P|171:69|181:1,1,93.5000028533936,4|8,0:3|0:3,0:0:0:0:
159,312,76561,6,0,P|156:282|143:255,1,46.7500014266968,6|0,0:1|0:0,0:0:0:0:
91,188,76729,2,0,P|57:153|-5:142,1,93.5000028533936,2|0,0:2|0:0,0:0:0:0:
178,334,77066,2,0,P|217:358|263:360,1,93.5000028533936,12|0,0:2|0:0,0:0:0:0:
467,290,77403,1,8,0:1:0:0:
327,219,77572,1,8,0:3:0:0:
148,346,77740,1,8,0:0:0:0:
136,355,78077,6,0,P|75:363|114:278,1,187.000005706787,6|8,0:0|3:2,0:0:0:0:
241,282,78583,1,8,0:1:0:0:
209,159,78752,2,0,P|142:117|131:196,1,187.000005706787,10|8,0:1|0:0,0:0:0:0:
107,294,79257,1,0,3:0:0:0:
24,191,79426,2,0,P|25:141|46:100,1,93.5000028533936,10|8,0:1|0:3,0:0:0:0:
171,20,79763,1,4,0:3:0:0:
22,28,79931,2,0,B|71:20|107:56|107:56|143:102|196:89,1,187.000005706787,10|8,3:1|3:1,0:0:0:0:
326,6,80437,2,0,P|296:48|295:92,1,93.5000028533936,10|8,0:0|3:1,0:0:0:0:
471,157,80774,1,12,0:0:0:0:
486,141,81111,5,8,0:0:0:0:
397,108,81280,1,8,0:1:0:0:
265,219,81448,5,10,0:0:0:0:
370,184,81617,1,8,0:1:0:0:
259,259,81785,1,8,0:0:0:0:
128,184,81954,1,8,0:1:0:0:
211,33,82122,6,0,P|233:73|232:119,1,93.5000028533936,14|8,0:0|0:1,0:0:0:0:
58,72,82459,1,8,0:0:0:0:
132,4,82628,1,8,0:3:0:0:
224,151,82797,5,10,0:0:0:0:
38,73,82965,1,8,0:3:0:0:
3,166,83134,1,4,0:3:0:0:
3,166,83471,6,0,P|88:160|137:236,1,187.000005706787,6|8,0:0|0:1,0:0:0:0:
288,376,83976,2,0,P|231:356|257:238,1,187.000005706787,8|2,0:0|0:0,0:0:0:0:
227,259,84650,2,0,P|178:280|126:274,1,93.5000028533936,12|8,0:0|0:1,0:0:0:0:
5,241,84988,1,8,0:0:0:0:
240,272,85156,6,0,P|286:271|328:291,1,93.5000028533936,6|8,0:1|0:1,0:0:0:0:
401,372,85493,1,8,0:1:0:0:
303,244,85662,2,0,P|302:197|322:155,1,93.5000028533936,10|8,0:0|0:1,0:0:0:0:
498,76,85999,2,0,P|478:117|442:147,1,93.5000028533936,2|8,0:0|0:0,0:0:0:0:
230,20,86336,2,0,P|315:8|376:101,1,187.000005706787,2|8,0:1|0:1,0:0:0:0:
159,173,86841,2,0,L|129:25,1,140.25000428009,12|0,0:0|0:0,0:0:0:0:
65,8,87179,6,0,P|54:56|81:95,1,93.5000028533936,4|0,0:0|0:0,0:0:0:0:
249,285,87516,6,0,P|266:209|158:173,1,212.5,4|2,0:1|0:0,0:0:0:0:
158,172,88527,5,2,0:0:0:0:
224,166,88695,1,0,0:0:0:0:
268,216,88864,1,0,0:0:0:0:
252,281,89032,1,0,0:0:0:0:
164,294,89202,5,2,0:0:0:0:
104,322,89370,1,0,0:0:0:0:
48,287,89539,1,0,0:0:0:0:
71,205,89707,5,2,0:0:0:0:
23,145,89876,2,0,P|18:119|18:94,1,50.9999984436036,0|0,0:0|0:0,0:0:0:0:
144,22,90213,1,2,0:0:0:0:
97,81,90382,2,0,P|92:106|92:131,1,50.9999984436036,0|0,0:0|0:0,0:0:0:0:
171,172,90719,1,2,0:0:0:0:
205,140,90887,1,0,0:0:0:0:
213,99,91056,1,2,0:0:0:0:
278,222,91224,6,0,P|316:249|381:227,1,101.999996887207,2|0,0:0|0:0,0:0:0:0:
424,194,91730,1,0,0:0:0:0:
435,175,92067,1,0,0:0:0:0:
445,150,92404,2,0,P|433:198|477:250,1,101.999996887207,2|0,0:0|0:0,0:0:0:0:
507,121,92910,1,0,0:0:0:0:
423,91,93078,1,2,0:0:0:0:
423,91,93415,1,0,0:0:0:0:
480,45,93584,5,2,0:0:0:0:
446,6,93696,1,2,0:0:0:0:
396,0,93808,1,2,0:0:0:0:
351,18,93921,6,0,P|265:68|171:39,1,204,14|8,0:0|0:1,0:0:0:0:
32,37,94595,1,14,0:0:0:0:
111,6,94763,1,8,0:3:0:0:
19,47,94932,1,8,0:1:0:0:
88,219,95101,2,0,P|144:190|131:128,1,136,14|8,0:0|0:1,0:0:0:0:
13,213,95606,5,6,0:0:0:0:
90,289,95775,1,8,0:1:0:0:
125,296,95859,1,8,0:1:0:0:
154,285,95943,1,8,0:1:0:0:
225,206,96112,1,8,0:1:0:0:
291,353,96280,1,10,0:0:0:0:
304,267,96449,1,2,0:0:0:0:
408,341,96617,6,0,P|470:351|498:294,1,136,12|8,0:1|0:0,0:0:0:0:
431,193,97123,1,0,0:0:0:0:
388,261,97292,1,10,0:1:0:0:
502,217,97460,1,10,0:3:0:0:
416,171,97629,1,6,0:3:0:0:
499,34,97797,6,0,P|442:93|360:87,1,170,6|4,0:0|0:0,0:0:0:0:
207,27,98303,2,0,P|266:72|281:146,1,152.999995330811,6|8,0:1|0:1,0:0:0:0:
127,238,98808,2,0,P|179:256|195:165,1,170,4|8,0:0|0:1,0:0:0:0:
168,151,99230,1,8,0:1:0:0:
137,157,99314,1,4,0:0:0:0:
279,381,99651,5,2,3:2:0:0:
292,348,99820,1,0,0:0:0:0:
285,313,99988,2,0,P|234:343|176:338,1,118.999996368408,2|0,3:2|3:1,0:0:0:0:
0,284,100494,2,0,P|91:288|98:365,1,178.499994552612,2|0,0:0|3:2,0:0:0:0:
0,269,101168,2,0,P|-2:239|3:210,1,59.4999981842042,2|0,0:0|3:1,0:0:0:0:
94,117,101505,1,10,0:1:0:0:
109,142,101674,1,10,0:0:0:0:
113,170,101842,2,0,P|90:182|60:185,1,29.7499990921021,10|8,0:1|0:0,0:0:0:0:
6,77,102011,6,0,P|39:97|108:46,1,118.999996368408,10|0,0:1|0:0,0:0:0:0:
266,123,102516,2,0,P|233:143|164:92,1,118.999996368408,10|8,0:0|0:1,0:0:0:0:
175,25,103022,1,8,0:0:0:0:
281,143,103190,2,0,P|282:201|254:253,1,118.999996368408,2|10,0:0|0:1,0:0:0:0:
291,114,103696,2,0,P|366:68|454:64,1,178.499994552612,2|0,0:0|0:0,0:0:0:0:
498,159,104370,1,8,0:0:0:0:
498,159,104707,6,0,P|444:134|385:136,1,118.999996368408,10|0,0:1|0:0,0:0:0:0:
312,233,105213,2,0,P|370:235|424:210,1,118.999996368408,10|0,0:0|0:0,0:0:0:0:
318,156,105719,1,8,0:0:0:0:
287,248,105887,2,0,P|284:306|309:360,1,118.999996368408,2|0,0:0|0:0,0:0:0:0:
402,320,106393,1,8,0:1:0:0:
292,374,106561,1,10,0:1:0:0:
270,375,106645,1,8,0:0:0:0:
251,368,106730,2,0,P|223:342|129:344,1,118.999996368408,2|8,0:0|0:0,0:0:0:0:
107,234,107235,2,0,P|115:246|120:259,1,29.7499990921021,10|8,0:1|0:0,0:0:0:0:
2,323,107404,5,10,0:1:0:0:
54,367,107572,1,0,0:0:0:0:
108,301,107741,2,0,P|125:263|85:135,1,178.499994552612,2|8,0:0|0:1,0:0:0:0:
3,156,108415,1,8,0:0:0:0:
75,127,108584,1,8,0:1:0:0:
74,40,108752,5,4,0:3:0:0:
329,157,109426,6,0,P|372:149|435:122,1,85,4|0,0:1|0:1,0:1:0:0:
221,219,109763,2,0,P|178:211|115:184,1,85,4|0,0:1|0:1,0:1:0:0:
423,331,110101,6,0,P|428:289|318:279,1,170,4|8,0:2|0:1,0:0:0:0:
454,268,110606,1,2,0:0:0:0:
498,186,110775,2,0,P|502:151|496:115,1,72.2500013780594,8|2,0:1|0:0,0:0:0:0:
426,57,111112,1,8,0:1:0:0:
336,118,111280,2,0,B|293:82|303:30|303:30|325:35|338:59,1,144.500002756119,2|0,0:0|0:0,0:0:0:0:
233,146,111786,2,0,P|200:158|164:160,1,72.2500013780594,10|0,0:1|0:0,0:0:0:0:
30,73,112123,2,0,P|61:90|96:97,1,72.2500013780594,10|0,0:1|0:0,0:0:0:0:
207,48,112460,2,0,P|177:16|107:44,1,108.375002067089,10|0,0:1|0:0,0:0:0:0:
81,88,112797,6,0,L|98:236,1,144.500002756119,10|8,0:1|0:1,0:0:0:0:
3,349,113303,2,0,P|-18:318|57:310,1,144.500002756119,2|0,0:0|0:0,0:0:0:0:
125,366,113808,1,8,0:1:0:0:
244,317,113977,6,0,P|312:295|384:294,1,144.500002756119,2|0,0:0|0:0,0:0:0:0:
230,318,114483,2,0,P|218:275|229:231,1,72.2500013780594,10|0,0:1|0:0,0:0:0:0:
335,315,114820,2,0,P|335:359|313:399,1,72.2500013780594,10|0,0:1|0:0,0:0:0:0:
427,216,115157,1,2,0:0:0:0:
440,203,115241,1,2,0:0:0:0:
455,194,115325,1,2,0:0:0:0:
472,188,115409,1,2,0:0:0:0:
490,186,115494,5,10,0:1:0:0:
414,233,115662,2,0,P|367:224|334:194,1,72.2500013780594,2|0,0:0|3:0,0:0:0:0:
410,142,115999,1,2,0:0:0:0:
234,162,116168,2,0,P|289:159|312:65,1,144.500002756119,2|0,3:2|3:0,0:0:0:0:
145,6,116674,6,0,L|166:163,1,144.500002756119,2|0,0:0|0:0,0:0:0:0:
250,50,117179,2,0,P|281:24|317:11,1,72.2500013780594,10|0,0:1|0:0,0:0:0:0:
89,96,117516,2,0,P|58:70|22:57,1,72.2500013780594,0|0,3:3|0:0,0:0:0:0:
47,180,117853,2,0,P|20:203|3:235,1,72.2500013780594,0|0,3:0|0:0,0:0:0:0:
183,313,118190,6,0,L|201:198,1,85,4|0,0:0|0:0,0:0:0:0:
61,378,118527,2,0,L|43:263,1,85,4|0,0:0|0:0,0:0:0:0:
270,366,118865,2,0,P|289:323|275:264,1,85,12|0,0:0|0:0,0:0:0:0:
185,226,119202,1,0,0:0:0:0:
288,129,119370,6,0,P|333:173|396:176,1,127.5,6|0,0:1|0:0,0:0:0:0:
463,134,119707,1,8,2:1:0:0:
256,137,119876,2,0,P|198:141|161:126,1,85,12|0,0:0|0:0,0:0:0:0:
59,50,120213,1,4,0:3:0:0:
113,104,120381,1,10,0:1:0:0:
123,86,120465,1,10,0:0:0:0:
142,77,120550,2,0,P|161:71|191:74,1,42.5,10|10,0:0|0:1,0:0:0:0:
285,128,120719,2,0,P|305:123|323:112,1,42.5,10|6,0:1|0:3,0:0:0:0:
365,15,120887,5,6,0:1:0:0:
267,57,121056,1,8,0:1:0:0:
375,30,121224,1,10,3:1:0:0:
427,115,121392,2,0,P|483:106|506:53,1,119.849998171234,10|0,0:0|0:0,0:0:0:0:
454,10,121729,1,8,0:1:0:0:
371,156,121898,1,2,3:2:0:0:
500,275,122067,6,8,P|463:210|391:230,1,159.799997561646,10|8,0:2|0:1,0:1:0:0:
370,339,122572,1,10,0:0:0:0:
251,366,122741,2,0,P|211:359|178:337,1,79.8999987808228,10|8,0:1|0:3,0:0:0:0:
253,171,123078,2,0,P|261:209|285:241,1,79.8999987808228,10|8,0:3|0:0,0:0:0:0:
38,244,123415,6,0,B|86:191|148:215|148:215|161:253,1,159.799997561646,6|0,0:3|0:0,0:0:0:0:
44,359,123921,2,0,P|21:314|34:272,1,79.8999987808228,10|12,3:1|0:0,0:0:0:0:
127,134,124258,2,0,P|148:167|146:207,1,79.8999987808228,10|4,3:0|2:3,0:0:0:0:
11,109,124595,1,10,3:0:0:0:
159,142,124763,2,0,P|216:130|340:89,1,159.799997561646,10|8,0:0|0:1,0:0:0:0:
382,23,125269,1,12,0:0:0:0:
370,13,125606,1,2,0:0:0:0:
245,62,125775,5,8,0:1:0:0:
328,135,125943,1,12,0:0:0:0:
440,101,126112,2,0,L|528:83,1,79.8999987808228,10|4,2:1|0:1,0:0:0:0:
447,273,126449,1,10,0:3:0:0:
412,182,126617,1,4,0:3:0:0:
305,218,126786,2,0,P|257:222|216:203,1,79.8999987808228,10|8,0:0|0:3,0:0:0:0:
39,316,127123,2,0,P|114:329|171:277,1,159.799997561646,10|6,0:3|2:3,0:0:0:0:
24,125,127629,6,0,B|99:162|78:253|78:253|100:212|146:203,1,239.699996342468,2|8,0:0|0:0,0:0:0:0:
242,112,128303,2,0,P|207:131|168:128,1,79.8999987808228,2|8,0:0|0:1,0:0:0:0:
112,100,128556,1,8,0:1:0:0:
99,78,128640,1,8,0:0:0:0:
174,8,128808,1,8,0:3:0:0:
328,98,128977,6,0,P|373:91|323:17,1,159.799997561646,6|0,0:0|3:0,0:0:0:0:
449,169,129483,2,0,P|501:111|494:33,1,159.799997561646,8|0,0:0|0:0,0:0:0:0:
488,261,129988,1,2,3:2:0:0:
292,262,130157,6,0,P|239:204|246:126,1,159.799997561646,12|8,0:0|0:1,0:0:0:0:
385,290,130662,1,8,0:0:0:0:
238,374,130831,2,0,P|215:341|211:302,1,79.8999987808228,10|0,0:1|3:0,0:0:0:0:
405,372,131168,1,10,0:1:0:0:
253,243,131336,2,0,P|208:235|143:331,1,159.799997561646,10|4,0:0|0:0,0:0:0:0:
5,376,131842,5,0,0:0:0:0:
77,353,132011,1,8,3:1:0:0:
37,152,132179,2,0,P|2:202|42:287,1,159.799997561646,2|0,0:0|3:0,0:0:0:0:
158,109,132685,2,0,P|176:151|165:191,1,79.8999987808228,10|0,0:0|3:0,0:0:0:0:
5,24,133022,6,0,P|37:55|79:59,1,79.8999987808228,10|0,0:1|3:0,0:0:0:0:
235,8,133359,2,0,P|189:15|162:46,1,79.8999987808228,10|0,0:0|3:0,0:0:0:0:
274,174,133696,2,0,P|272:128|296:94,1,79.8999987808228,10|0,0:1|3:0,0:0:0:0:
474,47,134033,2,0,P|454:88|417:107,1,79.8999987808228,10|0,0:0|3:0,0:0:0:0:
308,286,134370,6,0,P|362:250|335:146,2,178.499994552612,4|8|8,0:2|0:0|0:1,0:0:0:0:
248,138,135213,1,8,3:0:0:0:
347,83,135381,1,8,0:0:0:0:
150,365,135550,6,0,B|97:340|104:287|104:287|155:261|199:298,1,193.799997634277,4|8,0:1|0:1,0:0:0:0:
324,362,136056,1,8,0:0:0:0:
484,193,136224,2,0,B|436:209|436:209|389:265|431:344,1,193.799997634277,4|4,0:0|0:1,0:0:0:0:
505,175,136730,1,10,0:0:0:0:
414,117,136898,1,8,0:3:0:0:
274,218,137067,5,10,0:0:0:0:
364,189,137236,1,8,0:3:0:0:
256,80,137404,5,10,0:0:0:0:
199,164,137573,1,8,0:3:0:0:
371,100,137742,5,10,0:0:0:0:
291,6,137911,1,10,0:3:0:0:
416,19,138079,1,12,0:3:0:0:
157,110,138247,6,0,P|99:108|3:33,1,176.799998920898,14|0,0:0|0:0,0:0:0:0:
230,68,138752,1,12,0:0:0:0:
154,234,138921,2,0,P|90:279|-7:267,1,176.799998920898,2|8,0:0|0:1,0:0:0:0:
274,178,139426,1,8,0:0:0:0:
243,366,139595,6,0,B|201:314|224:257|224:257|248:268|258:298,1,170,6|8,0:1|0:1,0:0:0:0:
409,362,140101,2,0,P|371:347|328:347,1,79.8999987808228,8|0,0:0|3:0,0:0:0:0:
512,255,140438,2,0,P|472:255|435:270,1,79.8999987808228,8|0,0:1|3:0,0:0:0:0:
291,171,140775,2,0,P|327:185|367:186,1,79.8999987808228,10|0,0:0|3:0,0:0:0:0:
503,40,141112,2,0,P|472:65|453:100,1,79.8999987808228,10|0,0:1|3:0,0:0:0:0:
327,209,141449,2,0,P|319:169|299:135,1,79.8999987808228,8|0,0:0|3:0,0:0:0:0:
142,302,141786,6,0,P|181:305|219:294,1,79.8999987808228,10|0,0:1|3:0,0:0:0:0:
146,66,142123,2,0,P|174:93|191:129,1,79.8999987808228,8|8,0:0|3:0,0:0:0:0:
0,277,142460,6,0,B|28:233|1:181|1:181|78:276|167:222,1,272.849991673279,6|0,0:1|0:0,0:0:0:0:
252,95,143134,1,6,0:0:0:0:
226,74,143218,1,2,0:0:0:0:
193,79,143302,1,2,0:0:0:0:
174,106,143386,1,2,0:0:0:0:
181,138,143471,2,2,P|203:143|243:133,1,45.4749986122132,14|2,0:3|0:0,0:0:0:0:
444,37,143640,6,0,L|260:18,1,184.875005641937,6|0,0:1|0:0,0:0:0:0:
195,13,143977,1,12,0:0:0:0:
512,44,144145,1,12,0:1:0:0:
512,57,144483,6,0,P|512:94|497:131,1,57.3750002188683,12|0,0:0|0:0,0:0:0:0:
386,160,144651,1,8,3:3:0:0:
487,294,144820,2,0,P|518:252|435:217,1,172.125000656605,2|0,3:2|0:0,0:0:0:0:
374,261,145157,5,12,0:0:0:0:
442,124,145325,1,8,0:1:0:0:
423,326,145494,1,10,0:2:0:0:
225,258,145662,2,0,B|191:250|181:206|218:166|276:184|304:231|283:287,1,209.100003190613,10|8,0:1|0:1,0:0:0:0:
141,371,146168,2,0,P|147:320|129:271,1,93.5000028533936,8|8,0:0|0:1,0:0:0:0:
76,145,146505,5,8,0:0:0:0:
45,247,146674,1,8,0:1:0:0:
193,146,146842,1,10,0:0:0:0:
187,56,147011,1,8,0:3:0:0:
314,216,147179,1,10,0:0:0:0:
290,303,147348,1,4,0:3:0:0:
88,30,147516,1,10,0:0:0:0:
435,315,147853,6,0,P|465:273|456:119,1,187.000005706787,14|8,0:0|0:0,0:0:0:0:
264,96,148359,1,8,0:3:0:0:
379,107,148527,1,8,0:0:0:0:
490,45,148696,1,8,0:3:0:0:
493,22,148780,1,8,0:2:0:0:
491,0,148864,1,6,0:3:0:0:
359,136,149033,6,0,P|270:112|177:116,1,187.000005706787,6|8,0:1|0:1,0:0:0:0:
34,205,149539,2,0,P|73:171|81:103,1,93.5000028533936,12|0,0:2|0:0,0:0:0:0:
64,17,149876,1,8,0:3:0:0:
152,183,150044,2,8,P|186:222|254:230,1,93.5000028533936,12|10,0:3|0:0,0:0:0:0:
225,234,150550,6,0,B|117:191|135:273|33:244,2,187.000005706787,6|10|8,0:0|0:0|0:1,0:0:0:0:
376,227,151393,1,2,0:0:0:0:
297,167,151561,1,8,0:0:0:0:
352,319,151730,1,10,0:1:0:0:
473,208,151898,2,0,P|487:163|473:119,1,93.5000028533936,10|4,0:3|0:3,0:0:0:0:
225,234,152235,2,0,B|117:191|135:273|33:244,2,187.000005706787,10|10|8,0:0|0:1|0:2,0:0:0:0:
225,234,153247,5,12,0:1:0:0:
126,342,153415,2,0,P|82:358|36:355,1,93.5000028533936,8|8,0:1|0:0,0:0:0:0:
251,308,153752,2,0,P|296:315|335:341,1,93.5000028533936,2|8,0:0|0:1,0:0:0:0:
485,273,154089,1,10,0:1:0:0:
419,360,154258,1,10,0:0:0:0:
318,253,154426,1,10,0:3:0:0:
443,108,154595,5,12,0:2:0:0:
395,234,154763,1,8,0:3:0:0:
264,114,154932,1,12,0:0:0:0:
358,147,155101,1,8,0:3:0:0:
201,192,155269,2,0,P|145:189|95:172,1,93.5000028533936,8|4,0:0|0:3,0:0:0:0:
203,12,155606,1,10,0:3:0:0:
214,32,155690,1,8,0:3:0:0:
223,53,155774,1,4,0:3:0:0:
229,76,155858,1,4,0:3:0:0:
233,99,155943,6,0,L|203:301,1,187.000005706787,12|12,0:0|0:0,0:0:0:0:
256,137,156449,2,0,P|259:81|276:31,1,93.5000028533936,8|10,0:3|0:1,0:0:0:0:
455,24,156786,1,4,0:3:0:0:
445,38,157123,1,8,0:2:0:0:
378,191,157292,2,0,P|423:178|469:177,1,93.5000028533936,2|8,0:0|0:3,0:0:0:0:
386,310,157629,2,0,P|340:297|294:296,1,93.5000028533936,10|8,0:0|0:3,0:0:0:0:
163,365,157966,1,8,0:1:0:0:
43,263,158134,1,8,0:3:0:0:
69,225,158218,1,8,0:0:0:0:
112,209,158303,1,8,0:0:0:0:
110,224,158387,1,8,0:3:0:0:
106,239,158471,1,12,0:3:0:0:
100,253,158555,1,12,0:3:0:0:
91,265,158640,6,0,P|40:236|105:120,1,187.000005706787,6|8,0:0|0:0,0:0:0:0:
216,117,159145,1,8,0:1:0:0:
46,33,159314,2,0,P|18:123|13:216,1,187.000005706787,10|8,0:1|0:0,0:0:0:0:
157,22,159820,1,0,0:0:0:0:
229,147,159988,6,0,P|288:169|341:156,1,93.5000028533936,6|8,0:2|0:3,0:0:0:0:
433,77,160325,1,4,0:3:0:0:
344,241,160494,2,0,P|385:204|325:98,1,187.000005706787,10|8,0:1|0:3,0:0:0:0:
410,298,160999,2,0,P|447:265|472:203,1,93.5000028533936,10|8,0:0|0:3,0:0:0:0:
182,211,161336,6,0,P|253:269|274:358,1,187.000005706787,6|8,0:1|0:0,0:0:0:0:
344,241,161842,1,2,0:1:0:0:
186,325,162011,2,0,P|92:319|4:291,1,187.000005706787,10|8,0:1|0:0,0:0:0:0:
26,187,162516,1,2,0:1:0:0:
205,316,162685,2,0,P|233:227|238:134,1,187.000005706787,2|8,0:0|0:0,0:0:0:0:
135,45,163190,1,2,0:3:0:0:
389,104,163359,2,0,P|409:54|302:53,1,187.000005706787,10|8,0:1|0:2,0:0:0:0:
310,31,164033,6,0,P|373:61|501:88,1,187.000005706787,6|8,0:0|0:1,0:0:0:0:
387,211,164539,2,0,P|295:229|210:267,1,187.000005706787,12|2,0:0|0:0,0:0:0:0:
493,316,165044,1,4,0:1:0:0:
503,302,165381,1,8,0:2:0:0:
391,370,165550,1,8,0:0:0:0:
208,323,165719,6,0,P|178:229|152:138,1,187.000005706787,6|8,0:0|0:1,0:0:0:0:
58,285,166224,2,0,P|73:240|77:190,1,93.5000028533936,10|0,0:0|0:0,0:0:0:0:
226,128,166561,2,0,P|221:81|206:37,1,93.5000028533936,2|8,0:0|0:0,0:0:0:0:
4,42,166898,2,0,P|88:33|143:130,1,187.000005706787,2|8,0:2|0:1,0:0:0:0:
290,27,167404,1,12,0:0:0:0:
290,27,167741,6,0,L|276:144,1,93.5000028533936,4|0,0:0|0:0,0:0:0:0:
418,278,168078,6,0,L|369:64,1,212.5,4|2,0:1|0:0,0:0:0:0:
424,29,168752,5,8,0:0:0:0:
424,29,168836,1,8,0:0:0:0:
501,89,169097,1,4,0:3:0:0:
466,179,169359,1,8,0:0:0:0:
456,192,169431,1,12,0:3:0:0:
444,209,169503,1,8,0:0:0:0:
473,312,169680,1,12,0:3:0:0:
473,312,169769,5,6,0:0:0:0:
387,295,169937,1,0,0:0:0:0:
342,356,170106,1,10,3:1:0:0:
250,330,170274,2,0,P|234:301|233:267,1,68,2|0,0:0|3:0,0:0:0:0:
357,216,170611,2,0,P|339:244|310:262,1,68,2|8,0:0|0:0,0:0:0:0:
146,164,170948,2,0,P|213:165|272:197,1,136,2|8,3:0|0:1,0:0:0:0:
117,180,171454,1,8,3:2:0:0:
103,207,171622,1,2,0:0:0:0:
29,147,171791,5,6,0:0:0:0:
41,80,171960,1,0,0:0:0:0:
100,35,172128,1,2,3:0:0:0:
217,67,172297,2,0,P|258:75|291:68,1,68,10|0,0:2|3:0,0:0:0:0:
434,24,172634,2,0,P|393:32|365:51,1,68,10|0,0:1|3:0,0:0:0:0:
430,208,172971,2,0,P|465:178|416:105,1,136,10|8,0:0|0:1,0:0:0:0:
470,299,173476,1,8,0:0:0:0:
473,320,173813,6,0,P|405:320|340:339,1,136,6|10,0:1|3:1,0:0:0:0:
236,370,174319,2,0,P|207:340|158:323,1,68,10|0,0:0|3:0,0:0:0:0:
28,371,174656,2,0,P|68:361|108:328,1,68,2|0,0:0|3:0,0:0:0:0:
0,249,174993,2,0,B|37:245|67:269|67:269|107:262|133:281,1,136,10|2,0:0|0:0,0:0:0:0:
249,240,175499,2,0,P|271:204|275:152,1,68,10|0,3:2|0:0,0:0:0:0:
161,133,175836,1,8,0:3:0:0:
161,133,176173,6,0,P|193:124|221:105,1,68,6|0,0:0|0:0,0:0:0:0:
121,48,176510,1,10,3:2:0:0:
9,133,176679,2,0,P|39:147|73:150,1,68,2|0,0:0|3:0,0:0:0:0:
143,49,177016,2,0,P|173:34|207:31,1,68,10|0,0:1|3:0,0:0:0:0:
348,124,177353,2,0,P|324:92|381:26,1,136,10|2,0:0|0:0,0:0:0:0:
510,81,177858,1,8,3:0:0:0:
463,34,178111,5,8,0:1:0:0:
463,34,178195,1,8,0:3:0:0:
359,131,178364,1,8,0:0:0:0:
290,105,178533,1,8,0:0:0:0:
472,175,178701,1,8,0:3:0:0:
331,283,178870,5,6,0:0:0:0:
367,229,179038,1,0,0:0:0:0:
432,227,179207,1,10,0:0:0:0:
323,353,179375,2,0,P|285:349|252:331,1,76.4999976654053,2|0,3:0|0:0,0:0:0:0:
152,230,179712,2,0,P|114:233|81:251,1,76.4999976654053,2|8,3:0|0:0,0:0:0:0:
253,199,180049,2,0,P|277:165|256:44,1,152.999995330811,2|0,3:0|3:0,0:0:0:0:
130,94,180555,1,8,0:0:0:0:
189,26,180724,1,8,0:1:0:0:
39,139,180892,5,6,0:1:0:0:
66,60,181061,1,0,0:0:0:0:
150,104,181229,1,10,3:1:0:0:
34,244,181398,6,0,P|15:200|20:148,1,76.4999976654053,12|0,0:0|0:0,0:0:0:0:
151,278,181735,2,0,P|145:325|115:368,1,76.4999976654053,2|8,0:0|0:3,0:0:0:0:
132,190,182072,1,10,0:1:0:0:
247,277,182240,1,8,0:3:0:0:
131,357,182409,1,8,0:3:0:0:
93,366,182493,1,8,0:2:0:0:
53,357,182577,1,8,0:2:0:0:
151,278,182746,1,12,0:3:0:0:
286,356,182915,6,0,P|360:364|420:320,1,152.999995330811,4|10,0:2|0:0,0:0:0:0:
376,236,183420,1,0,3:0:0:0:
492,242,183589,2,0,P|500:167|456:107,1,152.999995330811,10|10,0:1|0:0,0:0:0:0:
353,121,184094,1,0,3:0:0:0:
224,27,184263,6,0,P|261:23|296:38,1,76.4999976654053,10|0,0:1|3:0,0:0:0:0:
258,150,184600,1,10,0:0:0:0:
174,113,184769,1,0,3:0:0:0:
329,123,184937,1,2,0:0:0:0:
242,87,185106,1,0,3:0:0:0:
159,189,185274,1,10,0:0:0:0:
200,311,185443,6,0,P|246:325|283:321,2,76.4999976654053,2|8|0,3:0|0:1|3:0,0:0:0:0:
46,195,185948,2,0,L|102:257,1,76.4999976654053,10|0,0:0|3:0,0:0:0:0:
48,373,186285,2,0,P|31:339|34:301,1,76.4999976654053,10|0,0:1|3:0,0:0:0:0:
212,273,186622,2,0,P|191:304|157:320,1,76.4999976654053,10|0,0:0|3:0,0:0:0:0:
274,140,186960,6,0,P|338:148|443:169,1,152.999995330811,6|8,0:1|0:0,0:0:0:0:
481,270,187465,1,0,3:0:0:0:
420,145,187634,2,0,P|417:97|434:54,1,76.4999976654053,2|8,0:0|3:1,0:0:0:0:
492,303,187971,1,10,0:0:0:0:
505,333,188308,6,0,L|309:307,1,170,6|0,0:1|0:0,0:0:0:0:
158,353,188813,1,12,0:0:0:0:
224,181,188982,2,0,P|276:190|258:268,1,127.5,2|0,0:0|0:0,0:0:0:0:
232,298,189319,1,8,0:0:0:0:
314,193,189488,1,8,0:1:0:0:
154,147,189656,5,14,0:2:0:0:
171,234,189825,1,8,0:3:0:0:
289,24,189993,1,10,3:2:0:0:
272,111,190162,1,8,0:3:0:0:
38,22,190330,1,10,0:0:0:0:
129,73,190499,1,8,0:1:0:0:
164,64,190583,1,8,0:0:0:0:
179,38,190667,1,10,0:0:0:0:
18,15,190836,1,14,0:3:0:0:
83,270,191004,1,4,0:1:0:0:
83,270,191341,6,0,P|81:334|-3:370,1,147.900001241226,10|0,0:0|0:0,0:0:0:0:
101,255,191846,2,0,P|145:247|180:261,1,73.9500006206131,2|8,3:0|0:0,0:0:0:0:
238,378,192183,2,0,P|299:343|298:273,1,147.900001241226,2|0,3:0|3:0,0:0:0:0:
215,187,192689,1,8,0:0:0:0:
319,352,193026,5,8,0:1:0:0:
353,372,193110,1,8,0:1:0:0:
393,371,193195,1,0,3:0:0:0:
460,312,193363,1,8,0:0:0:0:
403,234,193532,1,0,3:0:0:0:
492,138,193700,6,0,P|437:135|343:108,1,147.900001241226,2|8,0:1|0:0,0:0:0:0:
239,32,194206,1,0,3:0:0:0:
307,19,194374,2,0,P|342:29|379:30,1,73.9500006206131,2|8,0:0|3:1,0:0:0:0:
505,15,194711,1,8,0:0:0:0:
322,130,194880,2,0,P|251:108|177:102,1,147.900001241226,2|0,3:2|3:0,0:0:0:0:
36,109,195386,2,0,P|30:76|87:10,1,110.92500093092,10|0,0:0|0:0,0:0:0:0:
137,14,195723,1,8,0:1:0:0:
145,42,195807,1,8,0:0:0:0:
127,67,195891,1,0,3:0:0:0:
234,14,196060,1,8,0:0:0:0:
330,54,196228,1,0,3:3:0:0:
374,162,196397,6,0,P|429:176|482:111,1,147.900001241226,6|8,0:0|0:0,0:0:0:0:
297,197,197071,2,0,P|242:211|189:146,1,147.900001241226,10|8,0:1|0:0,0:0:0:0:
385,275,197745,2,0,P|440:289|493:224,1,147.900001241226,10|8,0:1|0:0,0:0:0:0:
298,331,198419,2,0,P|251:362|166:244,1,221.850001861839,2|0,0:0|3:0,0:0:0:0:
409,342,199093,6,0,P|457:350|509:260,1,170,2|8,0:0|0:0,0:0:0:0:
408,180,199599,1,0,3:0:0:0:
217,315,199768,2,0,P|168:323|116:233,1,170,2|8,0:0|0:0,0:0:0:0:
313,266,200273,1,2,0:0:0:0:
185,175,200442,6,0,L|190:226,2,42.5,12|8|8,0:0|0:1|0:1,0:0:0:0:
311,84,200779,1,12,0:0:0:0:
133,41,200947,1,8,0:1:0:0:
223,11,201116,2,0,P|245:19|268:41,1,42.5,10|2,0:3|0:0,0:0:0:0:
278,165,201284,2,8,P|271:187|250:211,1,42.5,10|10,0:3|0:3,0:3:0:0:
40,227,201453,1,10,0:0:0:0:
22,188,201537,1,2,0:0:0:0:
30,147,201621,1,10,0:1:0:0:
60,118,201705,1,2,0:0:0:0:
100,110,201790,6,0,B|128:143|128:143|108:286,1,170,6|10,0:0|0:0,0:0:0:0:
110,268,202464,1,10,0:1:0:0:
7,373,202633,2,0,P|4:331|23:293,1,85,2|8,3:0|0:0,0:0:0:0:
178,380,202970,2,0,P|249:336|332:343,1,170,2|2,3:0|3:0,0:0:0:0:
442,376,203475,1,8,0:0:0:0:
506,260,203644,2,0,P|519:220|509:179,1,85,2|8,3:0|0:1,0:0:0:0:
336,131,203981,1,2,3:0:0:0:
380,248,204150,1,10,0:0:0:0:
405,171,204318,1,2,3:0:0:0:
219,258,204487,6,0,P|177:262|138:245,1,85,2|0,0:0|3:0,0:0:0:0:
302,211,204824,1,10,0:0:0:0:
197,134,204992,1,2,3:0:0:0:
80,189,205161,1,8,0:1:0:0:
60,215,205245,1,8,0:0:0:0:
60,245,205329,1,2,3:0:0:0:
127,130,205498,1,10,0:0:0:0:
1,62,205666,2,0,P|48:62|186:33,1,170,2|2,3:0|3:0,0:0:0:0:
281,3,206172,1,8,0:0:0:0:
479,125,206341,2,0,P|362:91|280:180,1,255,2|8,3:0|0:0,0:0:0:0:
280,179,207183,6,0,P|299:216|302:278,1,85,14|8,0:0|0:1,0:0:0:0:
362,66,207520,1,10,0:0:0:0:
191,205,207689,2,0,P|152:190|108:146,1,85,10|8,0:1|0:0,0:0:0:0:
309,14,208026,1,8,0:1:0:0:
222,135,208195,1,10,0:0:0:0:
95,35,208363,6,0,L|10:44,1,85,10|8,0:1|0:0,0:0:0:0:
240,142,208700,2,0,L|324:133,1,85,10|8,0:1|0:0,0:0:0:0:
86,254,209037,2,0,L|1:263,1,85,10|8,0:1|0:0,0:0:0:0:
227,368,209374,1,10,0:1:0:0:
320,229,209542,1,10,0:0:0:0:
319,263,209626,1,2,0:0:0:0:
299,292,209711,1,2,0:0:0:0:
267,306,209795,1,2,0:0:0:0:
232,300,209880,6,0,P|310:298|420:316,1,170,6|0,0:1|0:0,0:0:0:0:
512,216,210386,2,0,P|445:175|341:135,1,170,6|0,0:0|0:0,0:0:0:0:
161,206,210891,2,0,P|200:190|236:168,1,85,14|0,0:0|0:0,0:0:0:0:
347,44,211228,1,8,0:0:0:0:
117,24,211397,6,0,P|117:84|171:112,1,127.5,6|0,0:0|0:0,0:0:0:0:
241,88,211734,1,8,0:1:0:0:
181,0,211902,1,8,0:3:0:0:
298,124,212071,1,10,0:1:0:0:
312,83,212155,1,10,0:0:0:0:
297,43,212239,2,0,P|278:31|240:23,1,55.2499974708558,10|2,0:0|0:0,0:0:0:0:
232,202,212408,2,0,P|216:217|200:248,1,55.2499974708558,2|2,0:0|0:0,0:0:0:0:
334,368,212577,6,0,P|407:318|490:286,1,178.499994552612,14|0,0:0|0:0,0:0:0:0:
276,292,213082,2,0,P|193:326|105:340,1,178.499994552612,14|8,0:0|0:1,0:0:0:0:
325,382,213588,2,0,P|363:301|380:213,1,178.499994552612,14|10,0:0|0:1,0:0:0:0:
232,190,214093,2,0,P|150:186|146:105,1,178.499994552612,12|10,0:0|0:1,0:0:0:0:
0,22,214599,2,0,P|24:69|35:124,1,89.2499972763062,12|0,0:0|0:0,0:0:0:0:
240,68,214936,1,10,0:0:0:0:
245,53,215020,1,8,0:1:0:0:
241,40,215105,1,8,0:3:0:0:
236,32,215189,1,4,0:3:0:0:
226,26,215273,6,0,P|305:67|392:88,1,178.499994552612,6|8,0:1|0:1,0:0:0:0:
500,229,215779,2,0,P|529:185|447:104,1,178.499994552612,12|0,0:0|0:0,0:0:0:0:
307,248,216284,2,0,P|332:206|458:179,1,178.499994552612,12|2,0:0|0:0,0:0:0:0:
297,321,216790,2,0,P|210:315|153:249,1,178.499994552612,12|0,0:0|0:0,0:0:0:0:
394,289,217296,2,0,P|381:339|388:378,1,89.2499972763062,14|0,0:0|0:0,0:0:0:0:
248,180,217633,1,8,0:0:0:0:
297,110,217801,1,8,0:3:0:0:
303,148,217886,1,4,0:3:0:0:
276,174,217970,6,0,P|230:184|76:205,1,178.499994552612,6|8,0:0|0:1,0:0:0:0:
0,23,218475,2,0,P|44:57|180:114,1,178.499994552612,14|8,0:2|0:1,0:0:0:0:
344,18,218981,2,0,P|293:1|283:101,1,178.499994552612,14|10,0:0|0:1,0:0:0:0:
504,74,219487,2,0,P|419:84|384:161,1,178.499994552612,12|8,0:0|0:1,0:0:0:0:
448,219,219908,1,8,0:3:0:0:
474,187,219992,1,8,0:0:0:0:
255,69,220161,1,8,0:0:0:0:
325,348,220329,1,8,0:0:0:0:
325,348,220666,6,0,P|279:278|194:285,1,178.499994552612,6|0,0:1|0:0,0:0:0:0:
0,345,221172,2,0,P|84:352|131:281,1,178.499994552612,10|0,0:0|0:0,0:0:0:0:
108,105,221678,2,0,P|47:165|72:246,1,178.499994552612,10|2,3:2|0:0,0:0:0:0:
182,13,222183,2,0,B|216:18|236:31|236:31|264:75|260:151,1,178.499994552612,4|2,0:0|0:0,0:0:0:0:
401,108,222689,2,0,P|423:64|416:11,1,89.2499972763062,10|8,0:0|0:1,0:0:0:0:
336,218,223026,1,8,0:0:0:0:
430,184,223195,1,8,0:3:0:0:
509,356,223363,6,0,P|440:302|355:318,1,178.499994552612,14|0,0:0|0:0,0:0:0:0:
111,353,223869,2,0,P|196:368|264:314,1,178.499994552612,10|0,3:2|0:0,0:0:0:0:
196,113,224374,2,0,P|281:97|349:151,1,178.499994552612,10|2,3:2|0:0,0:0:0:0:
121,179,224880,1,8,3:2:0:0:
73,93,225048,1,8,0:1:0:0:
151,22,225217,1,8,0:1:0:0:
90,279,225386,2,0,P|118:240|3:219,1,207.399991455384,10|8,3:2|0:0,0:0:0:0:
13,193,226060,6,0,P|97:219|186:222,1,178.499994552612,14|0,0:0|0:0,0:0:0:0:
249,362,226565,2,0,P|333:335|422:332,1,178.499994552612,8|8,3:2|0:1,0:0:0:0:
454,191,227071,2,0,P|456:102|483:17,1,178.499994552612,8|10,3:2|0:1,0:0:0:0:
367,189,227577,2,0,P|303:206|197:142,1,178.499994552612,8|8,3:2|0:1,0:0:0:0:
95,32,228082,1,10,0:3:0:0:
238,88,228251,1,8,0:0:0:0:
22,102,228419,1,8,0:0:0:0:
193,20,228588,1,8,0:0:0:0:
226,328,228756,1,6,0:1:0:0:
226,328,229262,6,0,P|145:356|82:299,1,178.499994552612,10|0,3:2|0:0,0:0:0:0:
336,341,229768,2,0,P|416:369|479:312,1,178.499994552612,10|2,3:2|0:0,0:0:0:0:
164,275,230273,2,0,P|106:211|135:131,1,178.499994552612,8|0,3:2|0:0,0:0:0:0:
400,265,230779,2,0,P|426:233|423:179,1,89.2499972763062,10|8,0:0|0:1,0:0:0:0:
201,205,231116,1,12,0:3:0:0:
201,205,231453,6,0,B|187:86|237:127|220:29,1,178.499994552612,6|0,0:1|0:0,0:0:0:0:
276,220,231959,2,0,P|307:247|406:153,1,178.499994552612,10|8,0:0|0:1,0:0:0:0:
159,62,232464,2,0,P|81:29|24:91,1,178.499994552612,10|8,0:0|0:1,0:0:0:0:
356,12,232970,2,0,B|370:131|320:90|337:188,1,178.499994552612,14|0,0:0|0:0,0:0:0:0:
507,154,233475,1,8,0:1:0:0:
452,54,233644,1,8,0:0:0:0:
424,77,233728,1,8,0:0:0:0:
428,113,233812,1,8,0:1:0:0:
511,21,233981,1,8,0:1:0:0:
483,265,234150,1,6,0:0:0:0:
489,257,234487,5,0,3:0:0:0:
495,250,234655,2,0,P|448:266|420:300,1,89.2499972763062,10|0,0:0|3:0,0:0:0:0:
394,207,234992,1,0,0:1:0:0:
330,373,235161,2,0,P|284:373|247:349,1,89.2499972763062,10|8,3:2|0:1,0:0:0:0:
103,231,235498,2,0,P|158:208|245:297,1,178.499994552612,2|0,3:0|3:0,0:0:0:0:
43,376,236003,2,0,P|23:336|30:279,1,89.2499972763062,10|8,0:0|3:1,0:0:0:0:
205,193,236341,1,8,0:1:0:0:
131,376,236509,1,10,3:2:0:0:
16,56,236846,6,0,P|1:135|80:151,1,178.499994552612,2|0,3:0|3:0,0:0:0:0:
189,70,237352,2,0,P|275:57|352:99,1,178.499994552612,8|8,0:0|0:1,0:0:0:0:
512,24,237857,2,0,P|464:40|430:78,1,89.2499972763062,10|0,3:2|0:0,0:0:0:0:
503,216,238195,2,0,P|473:165|363:171,1,178.499994552612,2|0,3:2|3:0,0:0:0:0:
371,253,238700,1,10,0:0:0:0:
512,210,238869,2,0,P|518:162|506:118,1,89.2499972763062,10|8,3:1|0:1,0:0:0:0:
363,246,239206,2,0,P|357:294|369:338,1,89.2499972763062,8|8,3:2|0:1,0:0:0:0:
432,367,239459,1,8,0:1:0:0:
459,357,239543,6,0,P|418:338|374:336,1,89.2499972763062,2|0,3:2|0:0,0:0:0:0:
242,369,239880,1,0,3:0:0:0:
176,287,240048,2,0,P|166:202|229:143,1,178.499994552612,10|8,0:0|0:1,0:0:0:0:
394,120,240554,2,0,P|347:117|290:85,1,89.2499972763062,10|0,3:2|0:0,0:0:0:0:
203,84,240807,1,8,0:0:0:0:
214,71,240891,2,0,P|177:23|60:28,1,178.499994552612,10|0,3:1|3:0,0:0:0:0:
309,111,241397,2,0,L|328:6,1,89.2499972763062,8|2,0:0|3:2,0:0:0:0:
276,272,241734,1,8,0:1:0:0:
462,48,241902,1,8,3:2:0:0:
462,48,242239,6,0,L|488:235,1,178.499994552612,14|0,0:0|3:0,0:0:0:0:
341,308,242745,2,0,P|322:262|425:246,1,178.499994552612,8|0,0:0|0:0,0:0:0:0:
294,378,243251,2,0,P|231:355|164:346,1,133.874995914459,10|0,3:2|0:0,0:0:0:0:
105,377,243588,1,10,3:1:0:0:
55,190,243756,2,0,P|119:182|131:287,1,178.499994552612,12|0,0:0|0:0,0:0:0:0:
15,133,244262,2,0,P|16:86|50:43,1,89.2499972763062,12|8,3:2|0:1,0:0:0:0:
75,257,244599,1,12,3:3:0:0:
75,257,244936,6,0,B|167:222|151:306|244:265,1,178.499994552612,14|8,0:0|0:1,0:0:0:0:
361,127,245442,2,0,P|299:91|273:179,1,178.499994552612,14|8,0:0|0:1,0:0:0:0:
446,262,245947,2,0,P|431:177|478:104,1,178.499994552612,14|2,0:0|0:0,0:0:0:0:
455,281,246453,2,0,P|446:327|331:358,1,178.499994552612,8|8,0:0|0:1,0:0:0:0:
187,208,246959,2,0,P|212:249|219:301,1,89.2499972763062,12|0,0:0|0:0,0:0:0:0:
383,56,247296,2,0,P|358:97|351:149,1,89.2499972763062,12|8,0:2|0:0,0:0:0:0:
114,47,247633,1,8,0:1:0:0:
221,19,247801,1,8,0:0:0:0:
79,111,247970,6,0,P|33:98|-11:93,1,89.2499972763062,4|0,0:2|0:0,0:0:0:0:
243,15,248307,2,0,P|289:28|333:33,1,89.2499972763062,4|8,0:0|0:0,0:0:0:0:
178,181,248644,1,0,3:0:0:0:
52,8,248812,2,0,P|46:52|34:95,1,89.2499972763062,12|2,0:0|0:0,0:0:0:0:
162,5,249150,1,0,3:3:0:0:
256,241,249318,2,0,P|261:196|273:153,1,89.2499972763062,12|0,0:0|0:0,0:0:0:0:
450,71,249655,1,10,0:1:0:0:
273,154,249824,1,12,0:0:0:0:
434,244,249992,1,8,3:0:0:0:
372,286,250161,1,8,0:0:0:0:
419,350,250329,6,0,B|453:246|354:279|388:169,1,178.499994552612,6|0,0:0|3:0,0:0:0:0:
237,362,250835,2,0,P|220:345|309:312,1,178.499994552612,14|0,0:0|0:0,0:0:0:0:
125,334,251341,2,0,P|127:283|154:226,1,89.2499972763062,10|0,0:0|0:0,0:0:0:0:
265,200,251678,1,2,3:2:0:0:
61,229,251846,2,0,P|32:186|20:124,1,89.2499972763062,12|8,0:0|0:1,0:0:0:0:
129,51,252183,1,8,3:0:0:0:
250,198,252352,2,0,P|263:155|263:111,1,89.2499972763062,4|8,3:0|0:1,0:0:0:0:
180,286,252689,1,8,0:3:0:0:
126,79,252857,1,4,0:3:0:0:
41,362,253026,1,12,0:0:0:0:
41,362,253700,6,0,P|114:329|173:384,1,170,2|2,0:0|0:0,0:0:0:0:
154,331,254880,1,0,3:0:0:0:
166,322,254964,1,0,3:0:0:0:
181,319,255048,2,0,P|254:352|313:297,1,170,2|0,3:0|0:0,0:0:0:0:
330,355,256312,1,0,3:0:0:0:
328,334,256397,1,0,3:0:0:0:
405,276,256902,1,0,3:0:0:0:
400,351,257071,1,0,3:0:0:0:
483,131,257745,6,0,P|482:156|474:181,1,51,2|0,0:0|0:0,0:0:0:0:
424,88,258082,5,6,0:0:0:0:
374,159,258250,1,2,0:0:0:0:
417,240,258419,1,2,0:0:0:0:
409,65,258587,2,0,P|334:26|216:40,1,187.000005706787,10|0,0:0|0:0,0:0:0:0:
244,253,259093,2,0,P|271:200|235:113,1,140.25000428009,10|0,0:0|0:0,0:0:0:0:
143,84,259430,2,0,P|80:96|41:146,1,130.050005853997,10|4,0:1|0:1,0:0:0:0:
40,146,259935,1,2,0:0:0:0:
145,299,260104,2,0,P|99:296|61:267,1,93.5000028533936,12|0,0:0|0:0,0:0:0:0:
245,118,260441,1,12,0:3:0:0:
8,212,260778,6,0,P|-5:161|11:110,1,93.5000028533936,14|0,0:0|0:0,0:0:0:0:
215,322,261115,2,0,P|260:295|285:247,1,93.5000028533936,10|0,0:1|0:0,0:0:0:0:
169,211,261452,1,10,0:3:0:0:
367,375,261621,1,8,0:3:0:0:
247,114,261789,1,6,0:3:0:0:
441,329,261958,6,0,P|491:321|473:183,1,187.000005706787,14|0,0:0|0:0,0:0:0:0:
248,196,262464,2,0,P|243:241|261:284,1,93.5000028533936,2|0,3:2|0:0,0:0:0:0:
440,180,262801,2,0,P|445:133|429:90,1,93.5000028533936,10|8,0:1|0:0,0:0:0:0:
445,24,263053,1,8,0:0:0:0:
428,17,263138,2,0,L|325:6,1,93.5000028533936,10|8,0:0|0:1,0:0:0:0:
256,49,263390,1,8,0:3:0:0:
241,57,263475,6,0,P|190:23|58:47,2,187.000005706787,6|8|8,0:1|0:0|0:1,0:0:0:0:
308,152,264317,1,2,3:2:0:0:
152,194,264486,1,8,0:0:0:0:
197,126,264655,1,2,3:2:0:0:
69,247,264823,2,0,P|40:210|29:165,1,93.5000028533936,10|0,0:1|3:2,0:0:0:0:
70,37,265160,2,0,P|159:15|241:56,2,187.000005706787,10|10|8,0:0|0:1|0:0,0:0:0:0:
70,37,266171,5,14,0:0:0:0:
166,117,266340,1,8,0:1:0:0:
270,84,266508,1,10,0:0:0:0:
99,203,266677,2,0,P|92:250|111:300,1,93.5000028533936,10|8,0:3|0:0,0:0:0:0:
242,222,267014,1,8,0:3:0:0:
137,134,267183,1,10,0:0:0:0:
203,330,267351,1,6,0:3:0:0:
331,142,267520,6,0,P|368:115|414:109,1,93.5000028533936,14|8,0:0|0:3,0:0:0:0:
262,286,267857,1,14,0:0:0:0:
191,76,268025,1,10,0:3:0:0:
442,17,268194,2,0,P|446:63|431:107,1,93.5000028533936,14|8,0:0|0:1,0:0:0:0:
497,319,268531,1,8,0:3:0:0:
512,279,268615,1,8,0:3:0:0:
496,243,268699,2,4,P|482:223|453:207,1,46.7500014266968,4|4,0:3|0:3,0:3:0:0:
337,165,268868,5,10,0:1:0:0:
496,89,269037,1,10,0:1:0:0:
239,17,269205,1,12,0:0:0:0:
203,89,269374,2,0,B|112:33|84:117|-1:62,1,212.5,2|14,0:0|0:0,0:0:0:0:
0,63,270048,1,8,0:1:0:0:
42,203,270216,6,0,P|37:249|23:293,1,93.5000028533936,10|8,0:0|0:3,0:0:0:0:
201,384,270553,2,0,P|186:339|182:293,1,93.5000028533936,10|4,0:0|0:3,0:0:0:0:
312,163,270890,1,8,0:2:0:0:
304,185,270975,1,8,0:1:0:0:
302,208,271059,2,0,P|304:228|319:271,1,46.7500014266968,0|8,0:0|0:1,0:0:0:0:
442,359,271228,1,8,0:0:0:0:
432,335,271312,1,8,0:1:0:0:
426,311,271396,1,8,0:3:0:0:
422,286,271480,1,12,0:3:0:0:
421,262,271565,6,0,P|357:313|221:283,1,187.000005706787,6|8,0:1|0:0,0:0:0:0:
412,196,272070,2,0,P|458:194|501:211,1,93.5000028533936,2|8,3:2|0:1,0:0:0:0:
257,140,272407,2,0,P|295:113|340:103,1,93.5000028533936,2|8,3:2|0:0,0:0:0:0:
412,196,272744,1,0,3:0:0:0:
271,376,272913,6,0,P|312:354|342:319,1,93.5000028533936,6|0,0:0|0:0,0:0:0:0:
137,217,273250,1,10,0:0:0:0:
44,362,273419,2,0,P|-5:287|20:201,1,187.000005706787,2|0,3:2|3:0,0:0:0:0:
205,281,273924,2,0,P|199:325|173:385,1,102,2|0,0:0|0:0,0:0:0:0:
214,196,274261,5,14,0:0:0:0:
201,171,274598,5,8,0:0:0:0:
294,227,274767,1,8,0:1:0:0:
193,70,274935,5,8,0:0:0:0:
82,129,275104,1,8,0:1:0:0:
200,42,275273,1,8,0:0:0:0:
353,159,275441,1,10,0:1:0:0:
500,8,275610,6,0,P|461:36|426:87,1,104.550001595306,14|8,0:0|0:3,0:0:0:0:
500,289,275947,2,0,P|482:245|441:202,1,104.550001595306,12|10,0:0|0:1,0:0:0:0:
298,377,276284,2,0,P|340:354|402:347,1,104.550001595306,14|8,0:0|0:3,0:0:0:0:
197,203,276621,2,0,P|156:225|98:235,1,104.550001595306,12|4,0:0|0:3,0:0:0:0:
293,8,276958,6,0,P|268:54|258:122,1,110.499994941712,6|8,0:1|0:1,0:0:0:0:
317,233,277295,1,10,0:1:0:0:
236,60,277464,2,0,P|198:24|151:2,1,104.550001595306,14|8,0:0|0:1,0:0:0:0:
398,47,277801,1,2,0:0:0:0:
171,134,277969,2,0,P|122:114|71:110,1,104.550001595306,12|6,0:0|0:2,0:0:0:0:
439,124,278306,6,0,P|458:75|462:24,1,104.550001595306,8|8,0:0|0:1,0:0:0:0:
247,146,278643,2,0,P|282:183|304:230,1,104.550001595306,12|8,0:0|0:1,0:0:0:0:
450,323,278980,1,10,0:0:0:0:
465,302,279065,1,8,0:0:0:0:
452,282,279149,1,8,0:0:0:0:
427,288,279233,1,8,0:0:0:0:
426,313,279317,2,8,P|415:342|390:360,1,52.2750007976532,8|8,0:1|0:3,0:1:0:0:
262,368,279486,2,8,P|232:358|213:334,1,52.2750007976532,12|8,0:3|0:3,0:1:0:0:
91,182,279655,5,6,0:1:0:0:
177,253,279823,1,2,0:0:0:0:
85,369,279992,1,10,0:0:0:0:
194,233,280160,2,0,P|210:183|216:131,1,104.550001595306,2|8,0:0|0:1,0:0:0:0:
46,30,280497,1,8,0:3:0:0:
128,131,280666,1,10,0:1:0:0:
269,18,280834,5,12,0:0:0:0:
325,89,281003,1,10,0:1:0:0:
400,34,281171,1,8,0:3:0:0:
275,162,281340,1,10,0:0:0:0:
190,63,281508,1,8,0:3:0:0:
390,129,281677,1,6,0:3:0:0:
337,271,281846,1,8,0:3:0:0:
490,31,282014,1,10,0:0:0:0:
410,55,282183,1,8,0:3:0:0:
477,343,282351,5,14,0:2:0:0:
477,343,282688,2,0,P|463:287|425:247,1,104.550001595306,10|8,0:0|0:1,0:0:0:0:
197,382,283025,2,0,P|150:358|99:361,1,104.550001595306,10|8,0:0|0:1,0:0:0:0:
8,171,283362,1,10,0:3:0:0:
231,281,283531,6,0,P|256:187|144:169,1,229.500000875473,14|8,0:2|0:1,0:0:0:0:
312,152,284037,1,10,3:2:0:0:
136,172,284205,1,2,0:0:0:0:
223,76,284374,1,8,0:3:0:0:
145,256,284542,1,8,0:1:0:0:
145,256,284626,1,8,0:1:0:0:
145,256,284711,1,10,0:0:0:0:
239,173,284879,1,8,0:3:0:0:
47,45,285048,6,0,B|15:61|-7:88|-7:88|-22:148|8:233,2,209.100003190613,6|8|8,0:1|0:0|0:1,0:0:0:0:
256,110,285890,1,2,3:2:0:0:
116,19,286059,1,8,0:0:0:0:
125,152,286228,1,2,3:2:0:0:
320,15,286396,2,0,P|306:64|273:104,1,104.550001595306,10|0,0:1|3:0,0:0:0:0:
47,45,286733,2,0,B|15:61|-7:88|-7:88|-22:148|8:233,2,209.100003190613,10|8|8,0:2|0:1|0:2,0:0:0:0:
47,45,287744,5,6,0:0:0:0:
154,110,287913,1,2,0:0:0:0:
166,235,288082,1,8,0:1:0:0:
385,227,288250,2,0,P|288:223|254:315,1,209.100003190613,10|8,0:0|0:1,0:0:0:0:
376,288,288756,1,14,0:0:0:0:
329,146,288924,1,10,0:1:0:0:
377,360,289093,5,12,0:0:0:0:
471,289,289261,1,8,0:3:0:0:
188,202,289430,1,12,0:0:0:0:
256,363,289598,1,12,0:3:0:0:
379,195,289767,6,0,P|396:137|391:80,1,104.550001595306,12|8,0:0|0:3,0:0:0:0:
172,296,290104,1,4,0:3:0:0:
91,231,290272,1,4,0:3:0:0:
191,43,290441,6,0,P|178:68|165:104,1,54.8250008365631,2|0,0:0|0:0,0:0:0:0:
78,15,290778,6,0,P|117:76|233:179,1,209.100003190613,14|8,0:0|0:3,0:0:0:0:
459,172,291284,1,8,0:1:0:0:
331,92,291452,1,8,0:3:0:0:
500,301,291621,1,6,0:3:0:0:
472,153,291789,1,10,0:1:0:0:
354,342,291958,1,8,0:3:0:0:
232,250,292126,1,10,0:0:0:0:
121,367,292295,1,12,0:3:0:0:
469,264,292464,6,0,P|491:207|498:130,1,113.049995342484,14|0,0:0|0:0,0:0:0:0:
48,346,292801,6,0,P|26:289|21:221,1,113.049995342484,14|0,0:0|0:0,0:0:0:0:
218,59,293138,6,0,P|218:124|81:152,1,220.999989883423,6|8,0:1|0:0,0:0:0:0:
159,2,293643,1,0,3:2:0:0:
258,196,293812,2,0,P|349:229|419:141,1,220.999989883423,10|8,0:1|0:0,0:0:0:0:
275,113,294317,1,0,3:0:0:0:
199,269,294486,6,0,P|183:326|190:374,1,104.550001595306,6|0,0:2|3:0,0:0:0:0:
261,120,294823,1,10,0:0:0:0:
157,372,294992,2,0,P|166:269|201:170,1,209.100003190613,2|0,3:2|3:0,0:0:0:0:
429,39,295497,2,0,P|386:68|332:81,1,104.550001595306,10|0,0:0|3:0,0:0:0:0:
43,27,295834,6,0,P|142:18|193:103,1,209.100003190613,6|8,0:1|0:0,0:0:0:0:
34,188,296340,1,2,3:2:0:0:
161,344,296508,2,0,P|216:322|262:326,1,104.550001595306,10|0,0:1|3:0,0:0:0:0:
172,254,296846,1,8,0:0:0:0:
288,175,297014,2,0,P|339:181|382:210,1,104.550001595306,2|8,3:2|0:1,0:0:0:0:
363,104,297351,1,0,3:2:0:0:
400,276,297520,1,8,0:0:0:0:
448,167,297688,1,2,3:2:0:0:
203,255,297857,6,0,P|118:232|-17:203,1,209.100003190613,10|12,0:1|0:3,0:0:0:0:
201,97,298362,1,0,3:0:0:0:
403,312,298531,2,0,P|472:237|468:136,1,209.100003190613,14|8,0:0|0:1,0:0:0:0:
263,41,299037,2,0,P|277:106|403:107,1,209.100003190613,14|10,0:0|0:1,0:0:0:0:
166,154,299542,2,0,P|107:169|54:151,1,104.550001595306,8|2,0:0|0:0,0:0:0:0:
417,23,299879,1,12,0:0:0:0:
1,22,300216,6,0,P|43:74|88:215,1,209.100003190613,14|10,0:0|0:1,0:0:0:0:
3,361,300722,2,0,P|60:289|168:304,1,209.100003190613,10|10,0:0|0:1,0:0:0:0:
314,375,301228,1,8,0:0:0:0:
471,203,301396,2,0,P|388:214|441:343,1,229.500000875473,14|8,0:2|0:1,0:0:0:0:
498,137,301902,2,0,P|485:83|442:42,1,104.550001595306,12|0,0:0|0:0,0:0:0:0:
195,71,302239,6,0,P|255:60|339:36,1,104.550001595306,4|0,0:0|0:0,0:0:0:0:
253,320,302576,6,0,P|144:199|29:155,1,243.10000333847,6|0,0:1|0:0,0:0:0:0:
23,168,303924,5,12,0:3:0:0:
42,147,304093,1,8,0:3:0:0:
74,307,304261,6,0,P|40:327|53:250,1,170,14|0,0:0|0:0,0:0:0:0:
186,352,304767,6,0,P|220:372|207:295,1,152.999995330811,14|0,0:0|0:0,0:0:0:0:
162,157,305273,6,0,P|127:176|200:203,1,152.999995330811,14|8,0:0|0:1,0:0:0:0:
362,212,305778,6,0,P|307:172|240:170,1,136,14|0,0:0|0:0,0:0:0:0:
406,298,306284,6,0,P|445:243|447:181,1,118.999996368408,14|2,0:1|0:0,0:0:0:0:
339,94,306789,6,0,P|350:129|416:144,1,101.999996887207,12|0,0:0|0:0,0:0:0:0:
427,76,307298,6,0,P|355:15|264:35,1,193.374994098664,10|0,0:1|0:0,0:0:0:0:
205,102,309113,6,0,B|132:133|75:80|75:25|75:25|115:-3|156:26,1,267.749991828919,2|0,0:0|0:0,0:0:0:0:
256,192,310993,12,0,314557,0:0:0:0:
