osu file format v14

[General]
AudioFilename: audio.mp3
AudioLeadIn: 0
PreviewTime: 64202
Countdown: 0
SampleSet: Soft
StackLeniency: 0.4
Mode: 0
LetterboxInBreaks: 0
WidescreenStoryboard: 0

[Editor]
DistanceSpacing: 1.2
BeatDivisor: 4
GridSize: 32
TimelineZoom: 2.600001

[Metadata]
Title:Masterpiece! (Game Ver.)
TitleUnicode:マスターピース! (Game Ver.)
Artist:Shimotsuki Haruka & Yamamoto Mineko
ArtistUnicode:霜月はるか・山本美禰子
Creator:August
Version:Shizuku's Expert!
Source:リディー&スールのアトリエ ~不思議な絵画の錬金術士~
Tags:Bellicose shizuku- narcissu Atelier Lydie & Suelle: The Alchemists and the Mysterious Paintings ~Fushigi na Kaiga no Renkinjutsushi~ gust video game short version jpop japanese pop female vocals jrpg ガスト HAMOTSUKIN BEST~Works Disc~ opening
BeatmapID:2400596
BeatmapSetID:1148214

[Difficulty]
HPDrainRate:6
CircleSize:4
OverallDifficulty:8.5
ApproachRate:9.1
SliderMultiplier:1.7
SliderTickRate:1

[Events]
//Background and Video events
0,0,"dfgsdfgsdfgsdfgsdfgsdfgsdfgsdfgsdfgsdfgsdfgsdfgsdfgsdfgsdfgsdfgsdgfsdfgsdfgsdfg.jpg",0,0
//Break Periods
//Storyboard Layer 0 (Background)
//Storyboard Layer 1 (Fail)
//Storyboard Layer 2 (Pass)
//Storyboard Layer 3 (Foreground)
//Storyboard Layer 4 (Overlay)
//Storyboard Sound Samples

[TimingPoints]
-88,337.078651685393,4,2,2,60,1,0
754,-100,4,2,2,40,0,0
1260,-125,4,2,2,50,0,0
8254,-125,4,2,2,5,0,0
8338,-125,4,2,2,50,0,0
10698,-100,4,2,2,60,0,0
11035,-100,4,2,2,65,0,0
11372,-100,4,2,2,70,0,0
11709,-100,4,2,2,75,0,0
11962,-100,4,2,2,5,0,0
12040,337.078651685393,4,2,2,65,1,0
12040,-100,4,2,4,65,0,0
12208,-100,4,2,2,65,0,0
13725,-100,4,2,2,65,0,0
17433,-90.9090909090909,4,2,4,70,0,0
17686,-90.9090909090909,4,2,2,5,0,0
17770,-66.6666666666667,4,2,2,70,0,0
18107,-76.9230769230769,4,2,2,70,0,0
18444,-76.9230769230769,4,2,2,70,0,0
19118,-76.9230769230769,4,2,2,70,0,0
19287,-76.9230769230769,4,2,2,50,0,0
19539,-76.9230769230769,4,2,2,5,0,0
19624,-76.9230769230769,4,2,2,60,0,0
19792,-76.9230769230769,4,2,2,70,0,0
19961,-76.9230769230769,4,2,2,80,0,0
20129,357.142857142857,4,2,2,60,1,0
20129,-125,4,2,4,50,0,0
20309,-125,4,2,2,50,0,0
20396,344.827586206897,4,2,2,60,1,0
20654,384.368994234465,4,2,2,60,1,0
20846,328.587075575027,4,2,2,60,1,0
20846,-100,4,2,2,50,0,0
21092,283.018867924528,4,2,2,60,1,0
21304,337.078651685393,4,2,2,60,1,0
21478,337.078651685393,4,2,2,65,1,0
21478,-125,4,2,2,55,0,0
22826,-125,4,2,4,50,0,0
22994,-125,4,2,2,50,0,0
23163,-125,4,2,3,45,0,0
29820,-125,4,2,3,45,0,0
29904,-125,4,2,3,45,0,0
31253,-125,4,2,3,45,0,0
32264,-125,4,2,2,40,0,0
32938,-76.9230769230769,4,2,4,65,0,0
33191,-76.9230769230769,4,2,2,5,0,0
33275,-76.9230769230769,4,2,4,75,0,0
33528,-76.9230769230769,4,2,2,5,0,0
33612,-100,4,2,2,60,0,0
33949,-100,4,2,2,60,0,0
36225,-100,4,2,2,5,0,0
36309,-100,4,2,2,60,0,0
38584,-100,4,2,2,5,0,0
38669,-100,4,2,2,65,0,0
38921,-100,4,2,2,5,0,0
39006,-100,4,2,2,60,0,0
39680,-100,4,2,2,70,0,0
39764,-100,4,2,2,5,0,0
39848,-100,4,2,2,80,0,0
39933,-100,4,2,2,5,0,0
40354,-83.3333333333333,4,2,4,70,0,0
40522,-83.3333333333333,4,2,2,70,0,0
46927,-76.9230769230769,4,2,2,70,0,0
47264,-83.3333333333333,4,2,2,70,0,0
47433,-83.3333333333333,4,2,2,70,0,0
48022,-83.3333333333333,4,2,2,5,0,0
48107,-83.3333333333333,4,2,2,70,0,0
48360,-83.3333333333333,4,2,2,5,0,0
48444,-83.3333333333333,4,2,2,70,0,0
50972,-83.3333333333333,4,2,4,70,0,0
51140,-83.3333333333333,4,2,2,70,0,0
52742,-83.3333333333333,4,2,2,5,0,0
52826,-83.3333333333333,4,2,2,70,0,0
53416,-83.3333333333333,4,2,2,5,0,0
53500,-83.3333333333333,4,2,2,70,0,0
53753,-83.3333333333333,4,2,2,5,0,0
53837,-83.3333333333333,4,2,2,70,0,0
54595,-83.3333333333333,4,2,2,5,0,0
54679,-83.3333333333333,4,2,2,70,0,0
54764,-83.3333333333333,4,2,2,5,0,0
54848,-83.3333333333333,4,2,2,70,0,0
55017,-83.3333333333333,4,2,2,75,0,0
55691,-76.9230769230769,4,2,2,80,0,0
55944,-76.9230769230769,4,2,2,5,0,0
56028,-83.3333333333333,4,2,2,60,0,0
56534,-83.3333333333333,4,2,2,70,0,0
57713,-83.3333333333333,4,2,2,75,0,0
58135,-83.3333333333333,4,2,2,5,0,0
58219,-66.6666666666667,4,2,2,75,0,0
58556,-83.3333333333333,4,2,2,75,0,0
58977,-83.3333333333333,4,2,2,5,0,0
59062,-83.3333333333333,4,2,4,70,0,0
59230,-83.3333333333333,4,2,2,70,0,0
60494,-83.3333333333333,4,2,2,5,0,0
60579,-83.3333333333333,4,2,2,70,0,0
61169,-83.3333333333333,4,2,2,5,0,0
61253,-83.3333333333333,4,2,2,70,0,0
61927,-83.3333333333333,4,2,2,75,0,0
63107,-76.9230769230769,4,2,2,80,0,0
63360,-76.9230769230769,4,2,2,5,0,0
63428,-83.3333333333333,4,2,2,5,0,0
63444,-76.9230769230769,4,2,2,80,0,0
63512,-83.3333333333333,4,2,2,70,0,0
63781,-76.9230769230769,4,2,2,5,0,0
64118,-76.9230769230769,4,2,2,80,0,0
64286,-76.9230769230769,4,2,2,60,0,0
64539,-76.9230769230769,4,2,2,5,0,0
64624,-76.9230769230769,4,2,4,80,0,0
64792,-76.9230769230769,4,2,2,80,0,0
66225,-76.9230769230769,4,2,2,5,0,0
66309,-76.9230769230769,4,2,2,80,0,0
67573,-76.9230769230769,4,2,2,5,0,0
67657,-76.9230769230769,4,2,2,80,0,0
68079,-76.9230769230769,4,2,2,5,0,0
68163,-76.9230769230769,4,2,2,80,0,0
68247,-76.9230769230769,4,2,2,5,0,0
68331,-76.9230769230769,4,2,2,80,0,0
69006,-58.8235294117647,4,2,2,80,0,0
69258,-71.4285714285714,4,2,2,5,0,0
69343,-76.9230769230769,4,2,2,80,0,0
69595,-76.9230769230769,4,2,2,5,0,0
69680,-76.9230769230769,4,2,2,75,0,0
70017,-76.9230769230769,4,2,4,70,0,0
70270,-76.9230769230769,4,2,2,5,0,0
70354,-76.9230769230769,4,2,2,70,0,0
71618,-76.9230769230769,4,2,2,5,0,0
71702,-76.9230769230769,4,2,2,70,0,0
72713,-76.9230769230769,4,2,4,75,0,0
72882,-76.9230769230769,4,2,2,75,0,0
74399,-76.9230769230769,4,2,2,75,0,0
74989,-76.9230769230769,4,2,2,5,0,0
75073,-66.6666666666667,4,2,2,75,0,0
75326,-71.4285714285714,4,2,2,5,0,0
75410,-76.9230769230769,4,2,2,70,0,0
75494,-76.9230769230769,4,2,2,5,0,0
75579,-76.9230769230769,4,2,2,70,0,0
75663,-76.9230769230769,4,2,2,5,0,0
75747,-66.6666666666667,4,2,2,70,0,0
76000,-66.6666666666667,4,2,2,5,0,0
76084,-66.6666666666667,4,2,2,70,0,0
76253,-200,4,2,2,70,0,0
76506,-200,4,2,2,5,0,0
76590,-66.6666666666667,4,2,2,70,0,0
77095,-76.9230769230769,4,2,2,70,0,0
77348,-76.9230769230769,4,2,2,5,0,0
77433,-76.9230769230769,4,2,2,70,0,0
78360,-76.9230769230769,4,2,2,5,0,0
78444,-76.9230769230769,4,2,2,70,0,0
79118,-76.9230769230769,4,2,2,70,0,0
80719,-76.9230769230769,4,2,2,5,0,0
80803,-76.9230769230769,4,2,4,80,0,0
80972,-76.9230769230769,4,2,2,80,0,0
83500,-71.4285714285714,4,2,4,80,0,0
83753,-71.4285714285714,4,2,2,5,0,0
83837,-76.9230769230769,4,2,2,70,0,0
85101,-76.9230769230769,4,2,2,5,0,0
85185,-71.4285714285714,4,2,2,80,0,0
85438,-71.4285714285714,4,2,2,5,0,0
85522,-71.4285714285714,4,2,2,75,0,0
86112,-71.4285714285714,4,2,2,5,0,0
86197,-71.4285714285714,4,2,2,75,0,0
86871,-66.6666666666667,4,2,2,85,0,0
87124,-66.6666666666667,4,2,2,5,0,0
87208,-66.6666666666667,4,2,2,80,0,0
87882,-66.6666666666667,4,2,2,55,0,0
88219,-100,4,2,2,55,0,0
88471,-100,4,2,2,5,0,0
88556,337.078651685393,3,2,2,60,1,0
88556,-76.9230769230769,3,2,4,75,0,0
88808,-76.9230769230769,3,2,2,5,0,0
88893,-76.9230769230769,3,2,2,75,0,0
88977,-76.9230769230769,3,2,2,5,0,0
89061,-83.3333333333333,3,2,2,75,0,0
89314,-83.3333333333333,3,2,2,5,0,0
89398,-83.3333333333333,3,2,2,75,0,0
89482,-83.3333333333333,3,2,2,5,0,0
89567,-90.9090909090909,3,2,2,65,0,0
89820,-90.9090909090909,3,2,2,5,0,0
89904,-90.9090909090909,3,2,2,65,0,0
89988,-90.9090909090909,3,2,2,5,0,0
90072,-100,3,2,2,65,0,0
90325,-100,3,2,2,5,0,0
90409,-100,3,2,2,65,0,0
90494,-100,3,2,2,5,0,0
90578,-111.111111111111,3,2,2,55,0,0
90831,-111.111111111111,3,2,2,5,0,0
90915,-111.111111111111,3,2,2,55,0,0
91084,-125,3,2,2,55,0,0
91589,-142.857142857143,3,2,69,35,0,0
93275,-142.857142857143,3,2,69,15,0,0
93413,337.078651685393,4,2,2,40,1,0
93413,-178.571428571429,4,2,69,40,0,0
97120,-100,4,2,2,5,0,0

[Colours]
Combo1 : 247,187,188
Combo2 : 202,242,183
Combo3 : 176,211,255
Combo4 : 237,197,236

[HitObjects]
363,288,1260,6,0,B|392:286|412:267|412:267|464:278|484:347|429:380,1,204,0|2,1:0|0:0,0:0:0:0:
348,278,1934,2,0,P|360:211|372:144,1,136,2|0,0:0|0:0,0:0:0:0:
270,34,2440,1,2,0:0:0:0:
265,51,2608,2,0,B|319:42|319:42|334:20|334:20|387:9,1,136
487,181,3114,2,0,P|437:136|372:143,1,136,2|2,0:0|0:0,0:0:0:0:
271,234,3619,2,0,P|277:200|283:167,1,68,2|2,0:0|0:0,0:0:0:0:
144,42,3956,6,0,B|75:18|75:18|5:71|53:130,1,204,0|2,1:0|0:0,0:0:0:0:
22,221,4631,2,0,P|88:208|155:196,1,136,2|0,0:0|0:0,0:0:0:0:
250,373,5136,1,2,0:0:0:0:
243,379,5305,2,0,B|200:349|200:349|216:267,1,136,2|2,0:0|0:0,0:0:0:0:
182,85,5810,2,0,B|139:115|139:115|155:196,1,136,2|2,0:0|0:0,0:0:0:0:
302,238,6485,5,2,0:0:0:0:
302,238,6653,2,0,P|366:215|433:204,1,136,2|2,1:2|0:0,0:0:0:0:
390,77,7159,2,0,P|362:96|352:127,1,68,2|0,0:0|0:0,0:0:0:0:
472,281,7496,2,0,P|484:214|496:147,1,136,2|2,0:0|0:0,0:0:0:0:
382,12,8001,6,0,P|339:62|351:127,1,136,2|2,1:2|0:0,0:0:0:0:
308,301,8507,2,0,P|308:267|299:234,1,68,2|0,0:0|0:0,0:0:0:0:
241,362,8844,2,0,P|207:356|176:342,1,68,2|0,0:0|0:0,0:0:0:0:
118,190,9181,5,2,0:0:0:0:
126,198,9350,2,0,P|221:173|298:234,1,204,2|0,1:2|0:0,0:0:0:0:
382,12,10024,2,0,P|304:73|209:48,1,204,2|2,0:0|0:0,0:0:0:0:
367,168,10698,6,0,P|351:251|344:336,1,170,2|8,0:0|0:0,0:0:0:0:
350,356,11204,1,8,0:0:0:0:
219,251,11372,5,8,1:2:0:0:
434,188,11541,1,8,1:2:0:0:
209,48,11709,6,0,P|166:92|168:154,1,127.5,8|0,1:2|0:0,0:0:0:0:
219,251,12040,6,0,P|156:199|73:208,1,170,4|0,1:2|0:0,0:0:0:0:
148,367,12545,1,0,1:0:0:0:
138,376,12714,2,0,P|132:333|126:291,2,85,2|0|0,0:0|0:0|1:0,0:0:0:0:
303,137,13219,5,8,0:0:0:0:
314,224,13388,2,0,B|250:205|250:205|232:174|232:174|167:154,1,170,2|0,0:0|1:0,0:0:0:0:
248,14,13893,1,2,0:0:0:0:
257,6,14062,2,0,P|319:57|302:136,1,170,8|0,0:0|0:0,0:0:0:0:
423,323,14736,6,0,P|485:271|468:192,1,170,4|0,1:2|1:0,0:0:0:0:
400,143,15242,1,0,0:0:0:0:
314,224,15410,2,0,B|250:205|250:205|232:174|232:174|167:154,1,170,8|0,0:0|1:0,0:0:0:0:
17,249,15916,6,0,B|62:280|62:280|174:252,1,170,2|0,1:2|1:0,0:0:0:0:
203,82,16422,2,0,P|174:113|167:154,1,85,8|2,0:0|0:0,0:0:0:0:
230,334,16759,5,2,0:0:0:0:
260,226,16927,1,0,1:0:0:0:
408,121,17096,5,10,0:0:0:0:
378,13,17264,1,2,0:0:0:0:
494,175,17433,6,0,P|429:160|383:208,1,140.25000428009,4|0,1:2|0:0,0:0:0:0:
387,236,17770,2,0,B|431:243|431:243|453:263|453:263|505:273,1,127.500004863739,8|0,0:0|0:0,0:0:0:0:
270,374,18107,6,0,B|237:247|324:292|287:160,1,220.999989883423,2|8,1:2|0:0,0:0:0:0:
147,12,18613,2,0,P|43:26|11:126,1,220.999989883423,2|2,0:0|0:0,0:0:0:0:
111,226,19118,1,8,0:0:0:0:
285,70,19287,6,0,B|340:86|340:86|365:119|365:119|435:136,1,165.749992412568,2|0,0:0|0:0,0:0:0:0:
450,126,19624,1,2,0:0:0:0:
418,346,19792,1,10,0:0:0:0:
287,161,19961,6,0,L|233:174,1,55.2499974708558,2|0,1:2|0:0,0:0:0:0:
150,122,20129,5,4,0:0:0:0:
111,226,20396,1,2,0:0:0:0:
176,313,20654,1,2,0:0:0:0:
111,226,20846,5,2,0:0:0:0:
199,210,21092,1,2,0:0:0:0:
266,265,21304,1,2,0:0:0:0:
380,168,21478,6,0,B|454:197|520:169|528:54|418:27|300:63|387:236|199:210,1,476,2|2,3:2|0:0,0:0:0:0:
72,44,22826,6,0,B|109:60|109:60|124:154,1,136,4|2,1:2|0:0,0:0:0:0:
117,251,23331,1,0,1:0:0:0:
73,328,23500,2,0,B|36:312|36:312|20:217,1,136,2|8,0:0|0:0,0:0:0:0:
125,125,24006,1,0,1:0:0:0:
129,141,24090,1,8,0:0:0:0:
124,154,24174,6,0,B|175:168|175:168|190:189|190:189|244:206,1,136,0|0,1:0|1:0,0:0:0:0:
343,70,24680,2,0,P|279:68|244:123,1,136,10|2,0:0|1:2,0:0:0:0:
343,70,25185,1,10,0:0:0:0:
441,115,25354,5,0,1:0:0:0:
456,111,25438,1,8,0:0:0:0:
468,100,25522,2,0,P|456:149|449:200,1,102,2|0,1:2|1:0,0:0:0:0:
267,340,26028,2,0,P|258:272|244:206,1,136,8|0,0:0|1:0,0:0:0:0:
107,97,26534,5,10,0:0:0:0:
76,170,26702,2,0,P|142:171|183:120,1,136,2|0,0:0|0:0,0:0:0:0:
345,84,27208,5,0,0:0:0:0:
324,5,27376,2,0,P|273:46|270:112,1,136,8|0,0:0|0:0,0:0:0:0:
361,174,27882,2,0,P|353:207|349:241,1,68,10|2,0:0|0:0,0:0:0:0:
396,315,28135,5,8,0:0:0:0:
396,315,28219,2,0,P|339:281|274:296,1,136,2|2,1:2|0:0,0:0:0:0:
61,315,28725,2,0,B|111:326|111:326|130:351|130:351|180:365,1,136,10|0,0:0|1:0,0:0:0:0:
61,315,29230,1,8,0:0:0:0:
169,264,29399,5,0,1:0:0:0:
172,272,29483,1,8,0:0:0:0:
176,279,29567,2,0,P|223:235|209:172,1,136,2|2,1:2|0:0,0:0:0:0:
324,5,30073,5,8,0:0:0:0:
347,125,30242,2,0,P|299:80|313:17,1,136,2|2,0:0|0:0,0:0:0:0:
494,11,30747,5,0,1:0:0:0:
494,11,30831,1,8,0:0:0:0:
494,11,30916,2,0,B|482:62|482:62|467:75|467:75|450:136,1,136,2|2,1:2|0:0,0:0:0:0:
373,259,31421,2,0,P|438:249|487:292,1,136,8|0,0:0|1:0,0:0:0:0:
321,384,31927,2,0,P|313:350|305:317,1,68,8|0,0:0|0:0,0:0:0:0:
254,197,32264,6,0,B|188:182|188:182|160:142|160:142|75:119,1,204,0|0,1:0|0:0,0:0:0:0:
30,244,32938,6,0,B|56:290|92:293|92:293|121:260|109:213,1,165.749992412568,4|0,1:2|0:0,0:0:0:0:
175,163,33275,2,0,B|203:119|239:118|239:118|266:152|254:197,1,165.749992412568,4|0,1:2|0:0,0:0:0:0:
192,247,33612,6,0,B|288:262|239:307|338:324,1,170,2|0,1:2|1:0,0:0:0:0:
337,323,34118,1,2,0:0:0:0:
496,193,34286,5,2,1:2:0:0:
441,315,34455,2,0,P|419:278|425:237,1,85,2|0,0:0|1:0,0:0:0:0:
345,84,34792,1,2,0:0:0:0:
345,84,34876,1,2,0:0:0:0:
345,84,34961,2,0,B|281:98|281:98|262:125|262:125|192:141,1,170,2|0,1:2|1:0,0:0:0:0:
17,190,35466,1,2,0:0:0:0:
23,177,35635,2,0,B|65:151|111:171|111:171|124:209|166:223,1,170,2|2,1:2|1:2,0:0:0:0:
276,242,36140,1,0,0:0:0:0:
164,222,36309,6,0,B|117:231|89:277|102:324|102:324|125:350,1,170,2|0,1:2|1:0,0:0:0:0:
276,242,36815,2,0,B|339:259|339:259|359:285|359:285|428:305,1,170,0|0,1:0|0:0,0:0:0:0:
512,121,37320,5,2,1:2:0:0:
493,111,37489,2,0,P|416:133|413:213,1,170,2|2,0:0|0:0,0:0:0:0:
512,272,37994,1,2,1:2:0:0:
413,213,38163,2,0,P|431:135|364:92,1,170
192,140,38669,2,0,B|142:128|142:128|128:109|128:109|75:96,1,127.5,8|0,0:0|0:0,0:0:0:0:
15,160,39006,5,4,1:2:0:0:
261,89,39174,1,2,0:0:0:0:
124,293,39343,6,0,L|114:251,1,42.5,0|2,1:2|1:2,0:0:0:0:
309,163,39511,2,0,L|299:204,1,42.5,2|0,1:2|0:0,0:0:0:0:
252,378,39680,5,10,0:0:0:0:
178,35,39848,1,10,0:0:0:0:
177,34,40354,6,0,P|219:60|269:56,1,101.999996887207,4|2,1:2|0:0,0:0:0:0:
343,2,40691,1,10,0:0:0:0:
495,175,40860,6,0,P|450:90|355:104,1,203.999993774414,2|2,1:2|1:2,0:0:0:0:
355,103,41365,1,2,0:0:0:0:
235,209,41534,6,0,B|163:193|163:193|136:155|136:155|54:134,1,203.999993774414,10|0,0:0|1:0,0:0:0:0:
219,111,42039,5,10,0:0:0:0:
78,233,42208,2,0,P|94:281|105:331,1,101.999996887207,2|0,0:0|0:0,0:0:0:0:
252,378,42545,2,0,P|268:329|279:279,1,101.999996887207,2|8,1:2|0:0,0:0:0:0:
219,111,42882,1,0,1:0:0:0:
400,93,43051,6,0,B|347:72|308:118|308:118|304:174|252:194,1,203.999993774414,4|2,1:2|1:2,0:0:0:0:
400,93,43556,1,8,0:0:0:0:
200,10,43725,2,0,P|211:59|218:109,1,101.999996887207,2|0,0:0|0:0,0:0:0:0:
105,331,44062,5,0,1:0:0:0:
78,233,44230,2,0,B|156:253|156:253|184:293|184:293|255:313,1,203.999993774414,8|0,0:0|1:0,0:0:0:0:
390,235,44736,5,2,0:0:0:0:
417,137,44904,2,0,B|339:157|339:157|311:197|311:197|239:217,1,203.999993774414,6|2,1:2|1:2,0:0:0:0:
23,111,45410,5,10,0:0:0:0:
167,39,45579,1,0,1:2:0:0:
165,47,45663,1,0,1:2:0:0:
164,56,45747,2,0,B|122:30|122:30|70:39,1,101.999996887207,2|2,1:2|0:0,0:0:0:0:
199,139,46084,1,0,1:2:0:0:
0,308,46253,6,0,P|71:242|165:268,1,203.999993774414,10|2,0:0|1:2,0:0:0:0:
368,329,46758,1,10,0:0:0:0:
291,160,46927,6,0,P|274:177|265:209,1,55.2499974708558,6|0,1:2|0:0,0:0:0:0:
268,371,47095,2,0,B|234:249|326:285|291:159,1,220.999989883423,2|8,0:0|0:0,0:0:0:0:
163,33,47601,5,2,0:0:0:0:
155,52,47685,1,2,0:0:0:0:
161,67,47770,2,0,B|106:56|106:56|88:28|88:28|25:17,1,152.999995330811,2|0,1:2|0:0,0:0:0:0:
0,116,48107,2,0,P|49:118|86:85,1,101.999996887207,2|0,1:2|0:0,0:0:0:0:
280,7,48444,6,0,P|204:67|213:165,1,203.999993774414,4|0,1:2|1:0,0:0:0:0:
413,238,48949,2,0,P|489:177|480:79,1,203.999993774414,8|0,0:0|1:0,0:0:0:0:
397,15,49455,1,2,1:2:0:0:
213,165,49624,6,0,B|230:239|230:239|263:261|263:261|286:346,1,203.999993774414,10|0,0:0|1:0,0:0:0:0:
213,165,50129,1,0,1:0:0:0:
93,347,50298,2,0,P|138:325|189:316,1,101.999996887207,2|8,0:0|0:0,0:0:0:0:
350,195,50635,1,8,0:0:0:0:
350,195,50719,1,8,0:0:0:0:
350,195,50803,2,0,P|324:190|301:179,1,50.9999984436036,10|0,0:0|0:0,0:0:0:0:
125,23,50972,6,0,B|188:-1|188:-1|261:18|285:87,1,203.999993774414,12|2,0:0|1:2,0:0:0:0:
250,253,51477,1,10,0:0:0:0:
459,133,51646,5,2,0:0:0:0:
459,133,51730,1,2,0:0:0:0:
459,133,51815,1,2,1:2:0:0:
301,179,51983,1,0,1:0:0:0:
189,83,52152,2,0,P|142:102|93:117,1,101.999996887207,8|2,0:0|0:0,0:0:0:0:
0,319,52489,6,0,B|55:298|55:298|81:339|134:341,1,152.999995330811,2|0,1:2|0:0,0:0:0:0:
212,324,52826,2,0,B|221:277|221:277|218:272|218:272|227:224,1,101.999996887207,8|2,0:0|0:0,0:0:0:0:
125,23,53163,6,0,B|112:44|91:53|91:53|128:97|188:82,1,152.999995330811,2|0,1:2|0:0,0:0:0:0:
234,15,53500,2,0,B|281:46|281:46|259:140,1,152.999995330811,8|0,0:0|0:0,0:0:0:0:
227,224,53837,6,0,B|340:200|298:283|419:257,1,203.999993774414,4|8,1:2|0:0,0:0:0:0:
404,42,54343,1,0,1:0:0:0:
404,42,54427,1,0,1:0:0:0:
404,42,54511,2,0,L|389:91,1,50.9999984436036,0|0,1:0|0:0,0:0:0:0:
419,256,54680,2,0,L|433:206,1,50.9999984436036,0|0,1:0|0:0,0:0:0:0:
512,114,54848,1,2,1:2:0:0:
503,340,55017,6,0,B|465:291|403:309|403:309|374:355|326:347,1,203.999993774414,4|0,0:0|1:0,0:0:0:0:
389,91,55522,1,2,0:0:0:0:
326,347,55691,6,0,B|305:262|305:262|270:234|270:234|254:144,1,220.999989883423,12|0,0:0|0:0,0:0:0:0:
10,94,56197,5,2,0:0:0:0:
88,265,56365,2,0,L|99:215,1,50.9999984436036,2|0,1:2|1:0,0:0:0:0:
155,42,56534,5,8,0:0:0:0:
187,275,56702,1,2,0:0:0:0:
306,73,56871,5,8,0:0:0:0:
192,300,57039,1,2,1:2:0:0:
435,209,57208,5,10,0:0:0:0:
197,325,57376,1,2,1:2:0:0:
411,380,57545,5,10,0:0:0:0:
197,325,57713,6,0,L|187:274,1,50.9999984436036,4|0,3:2|0:0,0:0:0:0:
174,184,57882,2,0,B|230:199|230:199|251:222|251:222|313:240,1,152.999995330811,2|0,0:0|0:0,0:0:0:0:
361,133,58219,6,0,L|299:149,1,63.7500024318696,8|0,0:0|0:0,0:0:0:0:
126,291,58388,2,0,L|188:275,1,63.7500024318696,2|0,0:0|0:0,0:0:0:0:
414,355,58556,5,0,1:2:0:0:
485,166,58725,2,0,B|448:158|419:186|419:186|400:146|361:133,1,152.999995330811,0|0,1:2|0:0,0:0:0:0:
333,22,59062,6,0,B|397:1|397:1|361:133,1,203.999993774414,4|0,1:2|0:0,0:0:0:0:
286,338,59567,2,0,L|311:238,1,101.999996887207,10|0,0:2|0:0,0:0:0:0:
154,26,59904,5,2,1:2:0:0:
200,100,60073,1,0,0:0:0:0:
20,212,60242,6,0,P|73:161|147:168,1,152.999995330811,10|0,0:2|0:0,0:0:0:0:
200,100,60579,2,0,P|239:132|288:129,1,101.999996887207,2|0,1:2|0:0,0:0:0:0:
455,17,60916,2,0,L|425:167,1,152.999995330811,8|0,0:0|0:0,0:0:0:0:
495,267,61253,6,0,B|522:227|522:227|512:174,1,101.999996887207,2|0,1:2|0:0,0:0:0:0:
305,36,61590,2,0,B|277:75|277:75|287:128,1,101.999996887207,8|2,0:0|0:0,0:0:0:0:
199,320,61927,6,0,B|120:292|120:292|102:253|102:253|28:229,1,203.999993774414,12|8,0:0|0:0,0:0:0:0:
287,128,62433,1,2,0:0:0:0:
89,17,62601,6,0,P|109:65|122:114,1,101.999996887207,2|0,1:2|0:0,0:0:0:0:
199,320,62938,1,0,1:0:0:0:
354,48,63107,6,0,B|413:40|468:24|468:24|441:65,1,165.749992412568,12|0,0:0|0:0,0:0:0:0:
441,65,63444,1,0,1:0:0:0:
213,222,63612,6,0,B|194:244|198:272|209:272|212:301|198:320,1,101.999996887207,8|0,0:0|0:0,0:0:0:0:
28,229,64118,5,8,0:0:0:0:
198,319,64286,2,0,P|249:258|329:265,1,165.749992412568,2|0,0:0|0:0,0:0:0:0:
434,299,64624,5,4,1:2:0:0:
490,105,64792,1,2,0:0:0:0:
429,312,64961,5,10,0:0:0:0:
346,77,65129,1,0,1:2:0:0:
424,325,65298,5,10,0:0:0:0:
240,166,65466,1,0,1:0:0:0:
490,105,65635,6,0,P|477:158|463:212,1,110.499994941712,10|0,0:0|1:0,0:0:0:0:
225,352,65972,6,0,P|170:293|173:213,1,165.749992412568,10|0,0:0|0:0,0:0:0:0:
240,166,66309,2,0,P|293:178|347:192,1,110.499994941712,10|0,0:0|1:2,0:0:0:0:
379,31,66646,5,10,0:0:0:0:
309,270,66815,1,0,1:0:0:0:
272,48,66983,5,10,0:0:0:0:
416,253,67152,1,0,1:0:0:0:
169,210,67320,6,0,B|86:186|86:186|69:223|27:235,1,165.749992412568,12|0,0:0|0:0,0:0:0:0:
88,381,67657,2,0,P|120:338|111:285,1,110.499994941712,8|0,0:0|1:0,0:0:0:0:
19,77,67994,6,0,B|40:71|40:71|46:64|46:64|70:59,1,55.2499974708558,8|0,0:0|0:0,0:0:0:0:
169,210,68163,2,0,B|190:215|190:215|196:222|196:222|220:227,1,55.2499974708558,8|0,0:0|0:0,0:0:0:0:
272,48,68331,1,0,3:0:0:0:
463,115,68500,6,0,B|420:67|358:91|358:91|332:141|271:140,1,220.999989883423,6|0,1:2|1:0,0:0:0:0:
69,59,69006,6,0,B|135:28|135:28|97:166,1,216.750004134178,8|0,0:0|0:0,0:0:0:0:
89,196,69343,5,2,1:2:0:0:
283,86,69511,2,0,L|271:140,1,55.2499974708558,8|0,0:0|0:0,0:0:0:0:
163,307,69680,6,0,L|186:199,1,110.499994941712,8|0,0:0|0:0,0:0:0:0:
370,27,70017,6,0,P|437:65|420:140,1,165.749992412568,4|0,1:2|0:0,0:0:0:0:
504,181,70354,2,0,B|389:153|423:252|296:218,1,220.999989883423,10|2,0:0|1:2,0:0:0:0:
111,150,70860,1,2,1:2:0:0:
258,18,71028,2,0,P|241:71|231:125,1,110.499994941712,8|2,0:0|0:0,0:0:0:0:
41,376,71365,6,0,P|83:308|162:307,1,165.749992412568,2|0,1:2|0:0,0:0:0:0:
237,346,71702,2,0,B|288:335|288:335|299:324|299:324|340:315,1,110.499994941712,10|0,0:2|1:0,0:0:0:0:
499,123,72039,2,0,P|396:125|369:26,1,220.999989883423,2|8,1:2|0:0,0:0:0:0:
296,218,72545,5,0,1:0:0:0:
296,218,72629,1,0,1:0:0:0:
296,218,72713,1,4,1:2:0:0:
52,146,72882,1,2,0:0:0:0:
220,7,73051,1,2,1:2:0:0:
134,277,73219,6,0,B|249:245|215:347|342:309,1,220.999989883423,8|0,0:0|1:0,0:0:0:0:
134,277,73725,1,8,0:0:0:0:
276,168,73893,1,0,1:0:0:0:
276,168,73977,1,0,1:0:0:0:
275,167,74062,6,0,P|287:191|295:217,1,55.2499974708558,2|0,1:2|0:0,0:0:0:0:
429,365,74230,2,0,P|436:338|449:314,1,55.2499974708558,8|0,0:0|0:0,0:0:0:0:
422,99,74399,5,8,0:0:0:0:
295,218,74567,1,2,1:2:0:0:
295,218,74652,1,2,0:0:0:0:
295,218,74736,2,0,B|226:202|226:202|206:180|206:180|143:165,1,165.749992412568,2|0,1:2|0:0,0:0:0:0:
63,107,75073,6,0,B|86:60|86:60|171:82|142:165,1,191.250007295609,8|2,0:0|0:0,0:0:0:0:
108,242,75410,6,0,B|87:236|87:236|81:229|81:229|57:224,1,55.2499974708558,10|0,0:0|0:0,0:0:0:0:
204,348,75579,2,0,B|183:354|183:354|177:361|177:361|153:366,1,55.2499974708558,2|0,0:0|0:0,0:0:0:0:
336,137,75747,6,0,B|390:175|390:175|364:298,1,191.250007295609,12|0,0:0|0:0,0:0:0:0:
359,320,76084,1,2,1:2:0:0:
142,164,76253,6,0,L|203:178,1,63.75,0|0,1:0|0:0,0:0:0:0:
262,124,76590,6,0,B|280:102|277:69|248:46|248:46|192:62|163:125|204:178,1,255.000009727478,4|0,1:2|1:0,0:0:0:0:
359,320,77095,2,0,B|428:303|428:303|441:282|441:282|508:264,1,165.749992412568,8|0,0:0|0:0,0:0:0:0:
508,264,77433,5,2,0:0:0:0:
324,207,77601,1,0,1:2:0:0:
497,77,77770,2,0,P|464:120|455:174,1,110.499994941712,8|0,0:0|0:0,0:0:0:0:
237,340,78107,6,0,L|202:177,1,165.749992412568,4|0,1:2|0:0,0:0:0:0:
127,143,78444,2,2,B|85:131|85:131|70:115|70:115|26:104,1,110.499994941712,10|2,0:0|0:0,0:0:0:0:
254,254,78781,2,0,B|338:230|338:230|368:198|368:198|456:176,1,220.999989883423,2|8,1:2|0:0,0:0:0:0:
254,254,79286,5,2,0:0:0:0:
397,370,79455,2,0,P|429:326|425:272,1,110.499994941712,2|0,1:2|1:3,0:0:0:0:
262,95,79792,5,8,0:0:0:0:
455,175,79961,2,0,B|367:197|367:197|337:229|337:229|253:253,1,220.999989883423,2|2,1:2|1:2,0:0:0:0:
43,63,80466,6,0,B|95:47|95:47|152:85|126:142,1,165.749992412568,10|0,0:2|0:0,0:0:0:0:
52,179,80803,5,12,0:0:0:0:
94,292,80972,1,0,1:0:0:0:
206,148,81140,5,8,0:0:0:0:
147,296,81309,1,0,1:0:0:0:
323,184,81477,5,8,0:0:0:0:
188,318,81646,1,0,1:0:0:0:
414,299,81815,5,8,0:0:0:0:
217,362,81983,1,2,1:2:0:0:
206,148,82152,5,12,0:0:0:0:
308,333,82320,1,0,1:0:0:0:
296,93,82489,5,8,0:0:0:0:
325,343,82657,1,2,1:2:0:0:
418,79,82826,5,8,0:0:0:0:
345,354,82994,1,0,1:0:0:0:
512,128,83163,5,8,0:0:0:0:
512,128,83500,6,0,B|479:138|462:176|462:176|410:202|366:153,1,178.499994552612,4|0,1:2|0:0,0:0:0:0:
366,153,83837,1,2,1:2:0:0:
165,22,84006,6,0,B|239:6|239:6|205:147,1,220.999989883423,8|2,0:0|1:2,0:0:0:0:
165,22,84511,1,0,1:0:0:0:
289,198,84680,6,0,B|170:166|205:264|81:234,1,220.999989883423,8|0,0:0|0:0,0:0:0:0:
249,27,85185,6,0,B|290:46|337:63|337:63|308:130|289:198,1,237.999992736817,4|2,1:2|1:2,0:0:0:0:
364,357,85691,6,0,B|411:346|411:346|421:333|421:333|473:321,1,118.999996368408,8|0,0:0|0:0,0:0:0:0:
191,270,86028,2,0,B|144:259|144:259|134:246|134:246|81:234,1,118.999996368408,0|8,1:0|0:0,0:0:0:0:
249,27,86365,1,2,1:2:0:0:
249,27,86449,1,0,1:0:0:0:
249,27,86534,2,0,B|293:65|293:65|270:121,1,118.999996368408,0|0,1:0|1:0,0:0:0:0:
473,320,86871,6,0,B|513:212|513:212|461:156,1,191.250007295609,8|0,0:0|0:0,0:0:0:0:
439,136,87208,5,12,0:2:0:0:
81,234,87545,1,8,0:0:0:0:
81,234,88556,6,0,B|139:248|139:248|162:285|162:285|223:298,1,165.749992412568,4|0,1:2|0:0,0:0:0:0:
290,249,88893,2,0,L|279:193,1,55.2499974708558,2|0,1:2|0:0,0:0:0:0:
476,87,89061,6,0,B|421:100|421:100|399:134|399:134|342:147,1,152.999995330811,8|0,0:0|0:0,0:0:0:0:
271,111,89398,2,0,L|280:61,1,50.9999984436036,0|0,1:0|0:0,0:0:0:0:
44,11,89567,6,0,B|90:45|90:45|74:129,1,140.25000428009,12|0,0:0|0:0,0:0:0:0:
113,201,89904,2,0,L|67:210,1,46.7500014266968,0|0,1:0|0:0,0:0:0:0:
214,374,90072,6,0,B|254:343|254:343|240:269,1,127.5,8|0,0:0|0:0,0:0:0:0:
279,194,90409,2,0,L|237:184,1,42.5,0|0,1:0|0:0,0:0:0:0:
364,79,90578,6,0,P|435:61|492:108,1,152.999995330811,4|0,1:2|0:0,0:0:0:0:
467,195,91084,2,0,P|403:210|351:168,1,136,2|0,0:0|0:0,0:0:0:0:
249,12,91589,6,0,B|315:102|270:276|64:280|64:280|38:216|80:148|144:137,1,594.999981842042,2|0,0:0|0:0,0:0:0:0:
353,170,93413,6,0,B|453:221|543:175|592:98|528:-56|361:24|388:130|455:200|455:200|525:287|456:366|456:366|465:327|450:247|363:214|278:264|277:347|317:389|381:386|410:346|386:295,1,1047.2000127832,2|0,0:0|0:0,0:0:0:0:
