osu file format v14

[General]
AudioFilename: audio.mp3
AudioLeadIn: 0
PreviewTime: 64202
Countdown: 0
SampleSet: Soft
StackLeniency: 0.4
Mode: 0
LetterboxInBreaks: 0
WidescreenStoryboard: 0

[Editor]
DistanceSpacing: 1.2
BeatDivisor: 4
GridSize: 32
TimelineZoom: 1.300001

[Metadata]
Title:Masterpiece! (Game Ver.)
TitleUnicode:マスターピース! (Game Ver.)
Artist:Shimotsuki Haruka & Yamamoto Mineko
ArtistUnicode:霜月はるか・山本美禰子
Creator:August
Version:Narcissu's Normal!
Source:リディー&スールのアトリエ ~不思議な絵画の錬金術士~
Tags:Bellicose shizuku- narcissu Atelier Lydie & Suelle: The Alchemists and the Mysterious Paintings ~Fushigi na Kaiga no Renkinjutsushi~ gust video game short version jpop japanese pop female vocals jrpg ガスト HAMOTSUKIN BEST~Works Disc~ opening
BeatmapID:2405989
BeatmapSetID:1148214

[Difficulty]
HPDrainRate:3
CircleSize:3
OverallDifficulty:3
ApproachRate:5
SliderMultiplier:0.799999999999999
SliderTickRate:1

[Events]
//Background and Video events
0,0,"dfgsdfgsdfgsdfgsdfgsdfgsdfgsdfgsdfgsdfgsdfgsdfgsdfgsdfgsdfgsdfgsdgfsdfgsdfgsdfg.jpg",0,0
//Break Periods
//Storyboard Layer 0 (Background)
//Storyboard Layer 1 (Fail)
//Storyboard Layer 2 (Pass)
//Storyboard Layer 3 (Foreground)
//Storyboard Layer 4 (Overlay)
//Storyboard Sound Samples

[TimingPoints]
-88,337.078651685393,4,2,2,60,1,0
1260,-100,4,2,2,50,0,0
10698,-100,4,2,2,60,0,0
11035,-100,4,2,2,65,0,0
11372,-100,4,2,2,70,0,0
11709,-100,4,2,2,75,0,0
12040,337.078651685393,4,2,2,65,1,0
12040,-100,4,2,4,65,0,0
12208,-100,4,2,2,65,0,0
17433,-100,4,2,4,70,0,0
17601,-100,4,2,2,70,0,0
19287,-100,4,2,2,50,0,0
19624,-100,4,2,2,60,0,0
19792,-100,4,2,2,70,0,0
19961,-100,4,2,2,80,0,0
20129,357.142857142857,4,2,2,60,1,0
20129,-100,4,2,4,50,0,0
20396,344.827586206897,4,2,2,60,1,0
20654,384.368994234465,4,2,2,60,1,0
20846,328.587075575027,4,2,2,60,1,0
21092,283.018867924528,4,2,2,60,1,0
21304,337.078651685393,4,2,2,60,1,0
21478,337.078651685393,4,2,2,65,1,0
22826,-100,4,2,4,50,0,0
22994,-100,4,2,2,50,0,0
23163,-100,4,2,3,45,0,0
32264,-100,4,2,2,40,0,0
32938,-100,4,2,4,65,0,0
33275,-100,4,2,4,75,0,0
33612,-100,4,2,2,60,0,0
38669,-100,4,2,2,65,0,0
39006,-100,4,2,2,60,0,0
39680,-100,4,2,2,70,0,0
39848,-100,4,2,2,80,0,0
40354,-100,4,2,4,70,0,0
40522,-100,4,2,2,70,0,0
50972,-100,4,2,4,70,0,0
51140,-100,4,2,2,70,0,0
55017,-100,4,2,2,75,0,0
55691,-100,4,2,2,80,0,0
56028,-100,4,2,2,60,0,0
56534,-100,4,2,2,70,0,0
57713,-100,4,2,2,75,0,0
59062,-100,4,2,4,70,0,0
59230,-100,4,2,2,70,0,0
61927,-100,4,2,2,75,0,0
63107,-100,4,2,2,80,0,0
64286,-100,4,2,2,60,0,0
64624,-95.2380952380952,4,2,4,80,0,0
64792,-95.2380952380952,4,2,2,80,0,0
69680,-95.2380952380952,4,2,2,75,0,0
70017,-95.2380952380952,4,2,4,70,0,0
70185,-95.2380952380952,4,2,2,70,0,0
72713,-95.2380952380952,4,2,4,75,0,0
72882,-95.2380952380952,4,2,2,75,0,0
74989,-95.2380952380952,4,2,2,5,0,0
75073,-95.2380952380952,4,2,2,75,0,0
75410,-95.2380952380952,4,2,2,70,0,0
80803,-95.2380952380952,4,2,4,80,0,0
80972,-95.2380952380952,4,2,2,80,0,0
83500,-95.2380952380952,4,2,4,80,0,0
83669,-95.2380952380952,4,2,2,80,0,0
83837,-95.2380952380952,4,2,2,70,0,0
85185,-95.2380952380952,4,2,2,80,0,0
85522,-95.2380952380952,4,2,2,75,0,0
86871,-95.2380952380952,4,2,2,85,0,0
87208,-95.2380952380952,4,2,2,80,0,0
87545,-95.2380952380952,4,2,2,80,0,0
87882,-95.2380952380952,4,2,2,55,0,0
88556,337.078651685393,3,2,2,60,1,0
88556,-100,3,2,4,75,0,0
88724,-100,3,2,2,75,0,0
89567,-100,3,2,2,65,0,0
90578,-100,3,2,2,55,0,0
91589,-100,3,2,2,35,0,0
93413,337.078651685393,4,2,2,40,1,0
97120,-100,4,2,2,5,0,0

[Colours]
Combo1 : 247,187,188
Combo2 : 202,242,183
Combo3 : 176,211,255
Combo4 : 237,197,236

[HitObjects]
196,172,1260,6,0,P|136:240|142:311,1,160,0|2,1:0|0:0,0:0:0:0:
220,340,2271,1,2,0:0:0:0:
300,308,2608,2,0,L|428:300,2,120,2|2|2,0:0|0:0|0:0,0:0:0:0:
252,236,3956,6,0,L|88:220,1,160,0|2,1:0|0:0,0:0:0:0:
22,167,4968,1,0,0:0:0:0:
90,111,5305,2,0,B|127:75|127:75|143:0,1,120,2|2,0:0|0:0,0:0:0:0:
224,36,6147,1,2,0:0:0:0:
308,8,6485,5,2,0:0:0:0:
308,8,6653,2,0,P|360:32|452:24,1,120,2|2,1:2|0:0,0:0:0:0:
488,88,7496,1,2,0:0:0:0:
436,160,7833,1,2,0:0:0:0:
436,160,8001,2,0,L|456:296,1,120,2|2,1:2|0:0,0:0:0:0:
400,349,8844,1,2,0:0:0:0:
321,308,9181,1,2,0:0:0:0:
321,308,9350,6,0,B|289:276|289:276|245:252|165:260,1,160,2|2,1:2|0:0,0:0:0:0:
4,295,10698,1,2,0:0:0:0:
75,244,11035,1,8,0:0:0:0:
126,172,11372,1,8,0:0:0:0:
146,86,11709,1,8,0:0:0:0:
232,84,12040,6,0,B|312:80|312:80|392:36,1,160,4|2,1:2|0:0,0:0:0:0:
504,168,13388,2,0,B|424:172|424:172|344:216,1,160,2|8,0:0|0:0,0:0:0:0:
220,324,14736,6,0,P|240:224|200:152,1,160,4|8,1:2|0:0,0:0:0:0:
88,156,15916,1,2,1:2:0:0:
88,156,16084,2,0,B|96:76|96:76|136:28,1,120,2|2,0:0|0:0,0:0:0:0:
196,92,16927,1,0,1:0:0:0:
272,44,17264,1,2,0:0:0:0:
272,44,17433,6,0,L|372:36,1,79.9999999999999,4|8,1:2|0:0,0:0:0:0:
404,108,18107,1,2,1:2:0:0:
492,116,18444,1,8,0:0:0:0:
476,204,18781,2,0,L|380:216,1,79.9999999999999,2|8,1:2|0:0,0:0:0:0:
344,284,19455,1,0,1:0:0:0:
256,272,19792,1,10,0:0:0:0:
172,260,20129,1,4,0:0:0:0:
168,260,22826,6,0,P|244:292|352:272,1,160,4|2,1:2|0:0,0:0:0:0:
368,212,23837,1,8,0:0:0:0:
452,232,24174,2,0,P|496:300|492:372,2,120,2|10|10,0:0|0:0|0:0,0:0:0:0:
456,144,25522,6,0,P|400:128|336:68,1,120,2|8,1:2|0:0,0:0:0:0:
177,66,26702,2,0,P|101:78|73:158,1,160,2|0,0:0|0:0,0:0:0:0:
89,279,27882,1,10,0:0:0:0:
176,271,28219,6,0,L|364:303,1,160,2|0,1:2|0:0,0:0:0:0:
495,229,29567,1,2,1:2:0:0:
451,152,29904,2,0,P|467:108|491:76,1,79.9999999999999,2|2,0:0|0:0,0:0:0:0:
369,18,30747,6,0,P|301:50|193:22,1,160,0|0,1:0|0:0,0:0:0:0:
90,66,31927,2,0,P|40:45|5:42,1,79.9999999999999,8|0,0:0|1:0,0:0:0:0:
106,191,32938,1,4,1:2:0:0:
120,280,33275,1,4,1:2:0:0:
200,320,33612,6,0,B|312:316|312:316|364:340,1,160,2|2,1:2|1:2,0:0:0:0:
440,308,34624,1,0,1:0:0:0:
392,232,34961,2,0,P|379:192|376:124,1,79.9999999999999,0|0,1:0|1:0,0:0:0:0:
452,112,35635,2,0,P|463:74|467:35,1,79.9999999999999,2|2,1:2|1:2,0:0:0:0:
380,56,36309,6,0,P|304:44|216:80,1,160,2|0,1:2|1:0,0:0:0:0:
160,140,37320,1,2,1:2:0:0:
216,208,37657,2,0,P|252:216|324:220,1,79.9999999999999,0|2,1:0|1:2,0:0:0:0:
364,164,38331,2,0,P|376:204|380:252,1,79.9999999999999,0|8,1:0|0:0,0:0:0:0:
444,304,39006,6,0,P|404:324|344:328,1,79.9999999999999,4|0,1:2|1:2,0:0:0:0:
284,312,39680,1,10,0:0:0:0:
284,312,39848,1,10,0:0:0:0:
160,364,40354,6,0,L|180:176,1,160,4|2,1:2|0:0,0:0:0:0:
136,117,41365,1,2,0:0:0:0:
204,49,41702,2,0,P|284:89|372:73,1,160,2|2,0:0|0:0,0:0:0:0:
471,0,42882,6,0,P|455:64|466:126,1,120,2|2,1:2|1:2,0:0:0:0:
491,208,43725,1,2,0:0:0:0:
460,300,44062,1,0,1:0:0:0:
460,300,44230,2,0,L|376:320,1,79.9999999999999,8|0,0:0|1:0,0:0:0:0:
332,236,44904,2,0,P|272:216|208:240,1,120,6|10,1:2|0:0,0:0:0:0:
172,316,45747,6,0,B|88:308|88:308|44:264,1,120,2|10,1:2|0:0,0:0:0:0:
24,156,46758,1,10,0:0:0:0:
24,156,46927,2,0,B|60:136|60:136|168:132,1,120,6|8,1:2|0:0,0:0:0:0:
224,156,47770,1,2,1:2:0:0:
260,76,48107,1,2,1:2:0:0:
348,92,48444,6,0,B|436:84|436:84|476:100,1,120,4|8,1:2|0:0,0:0:0:0:
404,212,49455,1,2,1:2:0:0:
404,212,49624,2,0,P|428:280|388:376,1,160,10|2,0:0|0:0,0:0:0:0:
320,328,50635,1,8,0:0:0:0:
236,356,50972,6,0,P|180:340|96:360,1,120,12|10,0:0|0:0,0:0:0:0:
72,276,51815,2,0,P|112:264|148:240,1,79.9999999999999,0|8,1:0|0:0,0:0:0:0:
156,156,52489,1,2,1:2:0:0:
240,180,52826,1,8,0:0:0:0:
308,124,53163,1,2,1:2:0:0:
308,36,53500,1,8,0:0:0:0:
396,44,53837,6,0,B|436:80|436:80|460:220,1,160,4|0,1:2|1:0,0:0:0:0:
468,272,54848,1,2,1:2:0:0:
468,272,55017,2,0,P|396:312|288:292,1,160,4|12,0:0|0:0,0:0:0:0:
192,332,56197,1,2,0:0:0:0:
104,300,56534,6,0,P|88:260|88:220,1,79.9999999999999,8|8,0:0|0:0,0:0:0:0:
160,172,57208,1,10,0:0:0:0:
152,84,57545,1,10,0:0:0:0:
152,84,57713,2,0,P|216:56|292:60,1,120,4|8,1:2|0:0,0:0:0:0:
340,100,58556,2,0,P|376:108|432:112,1,79.9999999999999,0|2,1:2|0:0,0:0:0:0:
418,111,59062,6,0,B|464:176|464:176|456:316,1,200,4|2,1:2|1:2,0:0:0:0:
372,324,60242,1,10,0:2:0:0:
288,344,60579,2,0,P|268:304|248:240,1,79.9999999999999,2|8,1:2|0:0,0:0:0:0:
296,192,61253,2,0,P|297:152|288:92,1,79.9999999999999,2|8,1:2|0:0,0:0:0:0:
216,68,61927,6,0,B|176:60|176:60|132:24,1,79.9999999999999,12|8,0:0|0:0,0:0:0:0:
60,60,62601,2,0,B|48:100|48:100|56:156,1,79.9999999999999,2|0,1:2|1:0,0:0:0:0:
53,137,63107,2,0,B|52:216|52:216|40:280,1,120,12|8,0:0|0:0,0:0:0:0:
144,344,64118,1,8,0:0:0:0:
280,328,64624,6,0,P|268:288|268:240,1,83.9999974365234,4|10,1:2|0:0,0:0:0:0:
356,276,65298,2,0,P|365:235|389:193,1,83.9999974365234,8|10,0:0|0:0,0:0:0:0:
468,160,65972,1,10,0:0:0:0:
484,68,66309,1,10,0:0:0:0:
416,8,66646,1,10,0:0:0:0:
324,24,66983,1,10,0:0:0:0:
268,96,67320,6,0,P|228:120|156:136,1,83.9999974365234,12|8,0:0|0:0,0:0:0:0:
128,64,67994,1,8,0:0:0:0:
44,104,68331,1,2,0:0:0:0:
44,104,68500,2,0,L|24:248,1,125.999996154785,6|8,1:2|0:0,0:0:0:0:
12,320,69343,1,2,1:2:0:0:
100,288,69680,1,8,0:0:0:0:
176,344,70017,6,0,L|280:336,1,83.9999974365234,4|10,1:2|0:0,0:0:0:0:
352,332,70691,2,0,L|364:240,1,83.9999974365234,2|8,1:2|0:0,0:0:0:0:
452,272,71365,2,0,L|472:376,2,83.9999974365234,2|10|2,1:2|0:2|1:2,0:0:0:0:
432,184,72376,1,8,0:0:0:0:
448,92,72713,6,0,B|436:48|436:48|348:12,2,125.999996154785,4|8|8,1:2|0:0|0:0,0:0:0:0:
360,120,74062,2,0,L|252:80,1,83.9999974365234,2|8,1:2|0:0,0:0:0:0:
196,60,74736,1,2,1:2:0:0:
204,152,75073,1,8,0:0:0:0:
288,188,75410,6,0,P|304:232|308:284,1,83.9999974365234,10|12,0:0|0:0,0:0:0:0:
200,352,76253,1,0,1:0:0:0:
108,336,76590,1,4,1:2:0:0:
108,336,76758,2,0,L|92:224,1,83.9999974365234,2|8,0:0|0:0,0:0:0:0:
80,160,77433,2,0,L|68:64,1,83.9999974365234,2|8,0:0|0:0,0:0:0:0:
156,44,78107,6,0,P|204:112|304:108,1,167.999994873047,4|2,1:2|1:2,0:0:0:0:
356,64,79118,1,8,0:0:0:0:
444,96,79455,2,0,L|460:204,1,83.9999974365234,2|8,1:2|0:0,0:0:0:0:
460,272,80129,2,0,L|348:252,1,83.9999974365234,0|10,1:0|0:2,0:0:0:0:
288,240,80803,5,12,0:0:0:0:
237,317,81140,1,8,0:0:0:0:
148,293,81477,1,8,0:0:0:0:
143,201,81815,1,8,0:0:0:0:
229,168,82152,5,12,0:0:0:0:
224,76,82489,1,8,0:0:0:0:
135,52,82826,1,8,0:0:0:0:
84,129,83163,1,8,0:0:0:0:
143,201,83500,6,0,B|120:284|120:284|124:328,1,125.999996154785,4|8,1:2|0:0,0:0:0:0:
260,348,84511,1,0,1:0:0:0:
260,348,84680,2,0,L|396:332,1,125.999996154785,8|4,0:0|1:2,0:0:0:0:
468,296,85522,1,2,1:2:0:0:
468,296,85691,1,8,0:0:0:0:
416,220,86028,5,0,1:0:0:0:
484,156,86365,2,0,B|488:72|488:72|464:24,1,125.999996154785,2|8,1:2|0:0,0:0:0:0:
384,76,87208,1,4,1:2:0:0:
296,48,87545,1,0,1:0:0:0:
108,104,88556,6,0,B|124:168|124:168|132:256,1,120,4|8,1:2|0:0,0:0:0:0:
236,140,89567,2,0,B|236:204|236:204|244:280,1,120,12|8,0:0|0:0,0:0:0:0:
356,196,90578,2,0,B|352:264|352:264|340:336,1,120,4|2,1:2|0:0,0:0:0:0:
464,260,91589,1,2,0:0:0:0:
