osu file format v14

[General]
AudioFilename: audio.mp3
AudioLeadIn: 0
PreviewTime: 64202
Countdown: 0
SampleSet: Soft
StackLeniency: 0.4
Mode: 0
LetterboxInBreaks: 0
WidescreenStoryboard: 0

[Editor]
DistanceSpacing: 1.4
BeatDivisor: 4
GridSize: 32
TimelineZoom: 2.200001

[Metadata]
Title:Masterpiece! (Game Ver.)
TitleUnicode:マスターピース! (Game Ver.)
Artist:Shimotsuki Haruka & Yamamoto Mineko
ArtistUnicode:霜月はるか・山本美禰子
Creator:August
Version:Narcissu's Hard!
Source:リディー&スールのアトリエ ~不思議な絵画の錬金術士~
Tags:Bellicose shizuku- narcissu Atelier Lydie & Suelle: The Alchemists and the Mysterious Paintings ~Fushigi na Kaiga no Renkinjutsushi~ gust video game short version jpop japanese pop female vocals jrpg ガスト HAMOTSUKIN BEST~Works Disc~ opening
BeatmapID:2411971
BeatmapSetID:1148214

[Difficulty]
HPDrainRate:4
CircleSize:4
OverallDifficulty:6
ApproachRate:7.8
SliderMultiplier:1
SliderTickRate:1

[Events]
//Background and Video events
0,0,"dfgsdfgsdfgsdfgsdfgsdfgsdfgsdfgsdfgsdfgsdfgsdfgsdfgsdfgsdfgsdfgsdgfsdfgsdfgsdfg.jpg",0,0
//Break Periods
//Storyboard Layer 0 (Background)
//Storyboard Layer 1 (Fail)
//Storyboard Layer 2 (Pass)
//Storyboard Layer 3 (Foreground)
//Storyboard Layer 4 (Overlay)
//Storyboard Sound Samples

[TimingPoints]
-88,337.078651685393,4,2,2,60,1,0
754,-83.3333333333333,4,2,2,40,0,0
1260,-83.3333333333333,4,2,2,50,0,0
10698,-83.3333333333333,4,2,2,60,0,0
11035,-83.3333333333333,4,2,2,65,0,0
11372,-83.3333333333333,4,2,2,70,0,0
11709,-83.3333333333333,4,2,2,75,0,0
12040,337.078651685393,4,2,2,65,1,0
12040,-83.3333333333333,4,2,4,65,0,0
12208,-83.3333333333333,4,2,2,65,0,0
17433,-83.3333333333333,4,2,4,70,0,0
17601,-83.3333333333333,4,2,2,70,0,0
19287,-83.3333333333333,4,2,2,50,0,0
19624,-83.3333333333333,4,2,2,60,0,0
19792,-83.3333333333333,4,2,2,70,0,0
19961,-83.3333333333333,4,2,2,80,0,0
20129,357.142857142857,4,2,2,60,1,0
20129,-100,4,2,4,60,0,0
20396,344.827586206897,4,2,2,60,1,0
20654,384.368994234465,4,2,2,60,1,0
20846,328.587075575027,4,2,2,60,1,0
21092,283.018867924528,4,2,2,60,1,0
21304,337.078651685393,4,2,2,60,1,0
21478,337.078651685393,4,2,2,65,1,0
22826,-83.3333333333333,4,2,4,50,0,0
23163,-83.3333333333333,4,2,3,45,0,0
32264,-83.3333333333333,4,2,2,40,0,0
32938,-83.3333333333333,4,2,4,65,0,0
33275,-83.3333333333333,4,2,4,75,0,0
33612,-83.3333333333333,4,2,2,60,0,0
38669,-83.3333333333333,4,2,2,65,0,0
39006,-83.3333333333333,4,2,2,60,0,0
39680,-83.3333333333333,4,2,2,70,0,0
39848,-83.3333333333333,4,2,2,80,0,0
40354,-83.3333333333333,4,2,4,70,0,0
40522,-83.3333333333333,4,2,2,70,0,0
50972,-83.3333333333333,4,2,4,70,0,0
51140,-83.3333333333333,4,2,2,70,0,0
55017,-83.3333333333333,4,2,2,75,0,0
55691,-83.3333333333333,4,2,2,80,0,0
56028,-83.3333333333333,4,2,2,60,0,0
56534,-83.3333333333333,4,2,2,70,0,0
57713,-83.3333333333333,4,2,2,75,0,0
59062,-83.3333333333333,4,2,4,70,0,0
59230,-83.3333333333333,4,2,2,70,0,0
61927,-83.3333333333333,4,2,2,75,0,0
63107,-83.3333333333333,4,2,2,80,0,0
64286,-83.3333333333333,4,2,2,60,0,0
64624,-76.9230769230769,4,2,4,80,0,0
64792,-76.9230769230769,4,2,2,80,0,0
69680,-76.9230769230769,4,2,2,75,0,0
70017,-76.9230769230769,4,2,4,70,0,0
70185,-76.9230769230769,4,2,2,70,0,0
72713,-76.9230769230769,4,2,4,75,0,0
72882,-76.9230769230769,4,2,2,75,0,0
75410,-76.9230769230769,4,2,2,70,0,0
80803,-76.9230769230769,4,2,4,80,0,0
80972,-76.9230769230769,4,2,2,80,0,0
83500,-76.9230769230769,4,2,4,80,0,0
83669,-76.9230769230769,4,2,2,80,0,0
83837,-76.9230769230769,4,2,2,70,0,0
85185,-76.9230769230769,4,2,2,80,0,0
85522,-76.9230769230769,4,2,2,75,0,0
86871,-76.9230769230769,4,2,2,85,0,0
87208,-76.9230769230769,4,2,2,80,0,0
87882,-76.9230769230769,4,2,2,55,0,0
88556,337.078651685393,3,2,2,60,1,0
88556,-76.9230769230769,3,2,4,75,0,0
88724,-76.9230769230769,3,2,2,75,0,0
89567,-90.9090909090909,3,2,2,65,0,0
90578,-111.111111111111,3,2,2,55,0,0
91589,-151.515151515152,3,2,69,35,0,0
93275,-151.515151515152,3,2,69,15,0,0
93413,337.078651685393,4,2,2,40,1,0
97120,-100,4,2,2,5,0,0

[Colours]
Combo1 : 247,187,188
Combo2 : 202,242,183
Combo3 : 176,211,255
Combo4 : 237,197,236

[HitObjects]
104,308,754,6,0,L|36:311,2,59.9999981689453,2|2|2,0:0|0:0|0:0,0:0:0:0:
192,240,1260,6,0,B|232:252|232:252|260:276|260:340,1,119.999996337891,0|0,1:0|0:0,0:0:0:0:
340,308,1765,1,2,0:0:0:0:
340,308,1934,2,0,P|344:252|396:184,1,119.999996337891,2|0,0:0|0:0,0:0:0:0:
460,204,2440,2,0,P|500:160|496:96,2,119.999996337891,2|2|2,0:0|0:0|0:0,0:0:0:0:
244,143,3451,6,0,L|304:140,2,59.9999981689453,2|2|2,0:0|0:0|0:0,0:0:0:0:
168,68,3956,1,0,1:0:0:0:
168,68,4462,5,2,0:0:0:0:
84,84,4631,2,0,P|44:136|36:204,1,119.999996337891,2|0,0:0|0:0,0:0:0:0:
112,224,5136,1,2,0:0:0:0:
112,224,5305,2,0,P|140:284|140:356,1,119.999996337891,2|2,0:0|0:0,0:0:0:0:
228,292,5810,2,0,L|348:284,1,119.999996337891,2|2,0:0|0:0,0:0:0:0:
347,284,6485,5,2,0:0:0:0:
432,352,6653,2,0,B|456:316|456:316|468:224,1,119.999996337891,2|2,1:2|0:0,0:0:0:0:
408,180,7159,1,2,0:0:0:0:
496,68,7496,1,2,0:0:0:0:
316,168,7833,1,2,0:0:0:0:
316,168,8001,6,0,P|300:104|232:72,1,119.999996337891,2|2,1:2|0:0,0:0:0:0:
228,156,8507,1,2,0:0:0:0:
116,28,8844,1,2,0:0:0:0:
44,200,9181,1,2,0:0:0:0:
44,200,9350,6,0,P|68:264|72:336,1,119.999996337891,2|0,1:2|0:0,0:0:0:0:
192,144,10024,2,0,P|176:208|181:282,1,119.999996337891,2|0,0:0|0:0,0:0:0:0:
464,304,10698,5,2,0:0:0:0:
475,184,11035,1,8,0:0:0:0:
285,224,11372,1,8,0:0:0:0:
345,328,11709,1,8,0:0:0:0:
366,135,12040,6,0,B|316:128|316:128|256:84|260:16,1,179.999994506836,4|0,1:2|1:0,0:0:0:0:
172,56,12714,1,2,0:0:0:0:
172,56,13219,6,0,L|164:132,1,59.9999981689453,8|2,0:0|0:0,0:0:0:0:
192,292,13725,1,0,1:0:0:0:
64,212,14062,2,0,B|112:228|152:212|152:212|192:196|240:212,1,179.999994506836,8|0,0:0|1:0,0:0:0:0:
308,264,14736,6,0,B|332:416,1,119.999996337891,4|0,1:2|1:0,0:0:0:0:
500,308,15410,2,0,B|512:116,1,179.999994506836,8|2,0:0|1:2,0:0:0:0:
428,112,16084,5,2,0:0:0:0:
428,112,16253,2,0,L|356:92,1,59.9999981689453,0|8,1:0|0:0,0:0:0:0:
316,32,16590,2,0,P|268:68|200:68,1,119.999996337891,2|0,0:0|1:0,0:0:0:0:
132,44,17096,5,10,0:0:0:0:
132,44,17264,1,2,0:0:0:0:
64,96,17433,6,0,B|56:168,1,59.9999981689453,4|0,1:2|0:0,0:0:0:0:
128,200,17770,2,0,L|140:280,1,59.9999981689453,8|0,0:0|0:0,0:0:0:0:
64,300,18107,2,0,P|96:336|176:332,1,119.999996337891,2|8,1:2|0:0,0:0:0:0:
244,308,18613,1,2,0:0:0:0:
244,308,18781,6,0,B|320:316|320:316|360:344,1,119.999996337891,2|8,1:2|0:0,0:0:0:0:
448,316,19287,2,0,P|420:272|424:196,1,119.999996337891,2|2,0:0|0:0,0:0:0:0:
476,144,19792,1,10,0:0:0:0:
476,144,19961,1,2,1:2:0:0:
448,64,20129,1,4,0:0:0:0:
200,72,22826,5,4,1:2:0:0:
200,72,23163,2,0,L|196:144,1,59.9999981689453,2|0,0:0|1:0,0:0:0:0:
108,100,23500,2,0,P|76:152|88:212,1,119.999996337891,2|8,0:0|0:0,0:0:0:0:
144,268,24006,1,0,1:0:0:0:
224,248,24174,6,0,L|347:219,1,119.999996337891,0|0,1:0|1:0,0:0:0:0:
444,260,24680,1,10,0:0:0:0:
444,260,25017,2,0,L|452:184,1,59.9999981689453,2|10,1:2|0:0,0:0:0:0:
460,116,25354,1,0,1:0:0:0:
432,36,25522,6,0,B|400:52|400:52|288:58,1,119.999996337891,2|0,1:2|0:0,0:0:0:0:
276,132,26028,2,0,L|124:120,1,119.999996337891,8|0,0:0|1:0,0:0:0:0:
84,80,26534,1,10,0:0:0:0:
4,108,26702,6,0,B|12:172|12:172|-8:260,1,119.999996337891,2|0,0:0|0:0,0:0:0:0:
56,288,27208,2,0,P|120:300|188:264,2,119.999996337891,2|2|10,0:0|0:0|0:0,0:0:0:0:
268,264,28219,6,0,P|312:308|392:320,1,119.999996337891,2|2,1:2|0:0,0:0:0:0:
448,300,28725,2,0,B|460:200|460:200|456:184|456:184|460:104,1,179.999994506836,10|8,0:0|0:0,0:0:0:0:
368,136,29399,5,0,1:0:0:0:
368,136,29483,1,8,0:0:0:0:
368,136,29567,2,0,L|377:69,1,59.9999981689453,2|0,1:2|0:0,0:0:0:0:
280,120,29904,2,0,L|288:184,1,59.9999981689453,2|8,0:0|0:0,0:0:0:0:
204,168,30242,2,0,P|200:248|168:300,1,119.999996337891,2|2,0:0|0:0,0:0:0:0:
160,364,30747,6,0,P|112:328|104:256,1,119.999996337891,0|2,1:0|0:0,0:0:0:0:
32,224,31253,2,0,B|44:104|44:104|100:48,1,179.999994506836,2|0,0:0|1:0,0:0:0:0:
164,96,31927,2,0,L|236:88,1,59.9999981689453,8|0,0:0|0:0,0:0:0:0:
308,76,32264,1,0,1:0:0:0:
316,56,32938,5,4,1:2:0:0:
496,248,33275,1,4,1:2:0:0:
436,76,33612,6,0,L|420:224,1,119.999996337891,2|0,1:2|1:0,0:0:0:0:
412,280,34118,1,2,0:0:0:0:
412,280,34286,1,2,1:2:0:0:
320,296,34455,2,0,L|330:220,2,59.9999981689453,2|0|2,0:0|1:0|0:0,0:0:0:0:
324,300,34961,6,0,B|184:284,1,119.999996337891,2|0,1:2|1:0,0:0:0:0:
136,336,35466,1,2,0:0:0:0:
56,308,35635,2,0,P|48:264|32:228,1,59.9999981689453,2|0,1:2|0:0,0:0:0:0:
104,176,35972,1,2,1:2:0:0:
104,176,36309,6,0,P|88:120|120:44,2,119.999996337891,2|0|0,1:2|1:0|1:0,0:0:0:0:
188,188,37152,1,0,0:0:0:0:
188,188,37320,1,2,1:2:0:0:
256,140,37489,6,0,P|288:128|336:124,1,59.9999981689453,2|0,0:0|1:0,0:0:0:0:
364,56,37826,1,2,0:0:0:0:
444,76,37994,2,0,P|466:105|480:140,1,59.9999981689453,2|0,1:2|0:0,0:0:0:0:
464,208,38331,2,0,L|456:280,1,59.9999981689453,0|0,1:0|0:0,0:0:0:0:
364,344,38669,5,8,0:0:0:0:
364,344,39006,2,0,L|352:260,1,59.9999981689453,4|2,1:2|0:0,0:0:0:0:
344,200,39343,1,0,1:2:0:0:
344,200,39427,1,2,1:2:0:0:
344,200,39511,1,2,1:2:0:0:
260,212,39680,1,10,0:0:0:0:
176,224,39848,1,10,0:0:0:0:
104,272,40354,6,0,B|92:336,2,59.9999981689453,4|2|10,1:2|0:0|0:0,0:0:0:0:
108,276,40860,2,0,B|76:240|76:240|64:156,1,119.999996337891,2|2,1:2|1:2,0:0:0:0:
52,88,41365,1,2,0:0:0:0:
132,116,41534,6,0,P|192:112|248:60,1,119.999996337891,10|0,0:0|1:0,0:0:0:0:
312,116,42039,1,10,0:0:0:0:
376,64,42208,2,0,P|444:64|500:104,1,119.999996337891,2|2,0:0|1:2,0:0:0:0:
504,172,42713,1,8,0:0:0:0:
436,220,42882,5,0,1:0:0:0:
436,220,42966,1,0,1:0:0:0:
436,220,43051,2,0,L|423:364,1,119.999996337891,4|2,1:2|1:2,0:0:0:0:
307,101,43725,2,0,L|323:241,1,119.999996337891,2|0,0:0|1:0,0:0:0:0:
240,244,44230,6,0,B|232:292|232:292|200:364,1,119.999996337891,8|0,0:0|1:0,0:0:0:0:
123,328,44736,1,2,0:0:0:0:
42,303,44904,2,0,L|28:159,1,119.999996337891,6|2,1:2|1:2,0:0:0:0:
23,99,45410,1,10,0:0:0:0:
94,55,45579,5,0,1:2:0:0:
94,55,45663,1,0,1:2:0:0:
94,55,45747,2,0,P|130:71|158:99,1,59.9999981689453,2|2,1:2|0:0,0:0:0:0:
225,58,46084,1,0,1:2:0:0:
309,61,46253,2,0,P|321:97|329:133,1,59.9999981689453,10|0,0:0|0:0,0:0:0:0:
300,200,46590,5,2,1:2:0:0:
348,268,46758,1,10,0:0:0:0:
432,256,46927,1,6,1:2:0:0:
348,268,47095,6,0,B|332:312|332:312|324:400,1,119.999996337891,2|8,0:0|0:0,0:0:0:0:
468,180,47770,1,2,1:2:0:0:
260,216,48107,1,2,1:2:0:0:
396,88,48444,6,0,P|316:108|220:48,1,179.999994506836,4|8,1:2|0:0,0:0:0:0:
156,100,49118,2,0,L|162:159,1,59.9999981689453,2|0,0:0|1:0,0:0:0:0:
84,56,49455,5,2,1:2:0:0:
16,104,49624,2,0,B|0:148|0:148|8:244,1,119.999996337891,10|0,0:0|0:0,0:0:0:0:
12,304,50129,1,0,1:0:0:0:
84,260,50298,2,0,L|104:176,1,59.9999981689453,2|8,0:0|0:0,0:0:0:0:
176,296,50635,1,8,0:0:0:0:
176,296,50719,1,8,0:0:0:0:
176,296,50803,1,10,0:0:0:0:
232,232,50972,6,0,P|271:217|357:229,1,119.999996337891,12|2,0:0|1:2,0:0:0:0:
412,280,51477,1,10,0:0:0:0:
412,280,51646,1,0,1:0:0:0:
488,224,51815,2,0,L|508:292,2,59.9999981689453,2|0|8,1:2|0:0|0:0,0:0:0:0:
464,144,52320,1,2,0:0:0:0:
444,64,52489,5,2,1:2:0:0:
216,144,52826,1,8,0:0:0:0:
376,204,53163,1,2,1:2:0:0:
260,52,53500,1,8,0:0:0:0:
120,180,53837,6,0,P|60:184|8:148,2,119.999996337891,4|8|0,1:2|0:0|1:0,0:0:0:0:
172,112,54680,1,0,1:0:0:0:
172,112,54848,1,2,1:2:0:0:
184,236,55017,6,0,B|197:384,1,119.999996337891,4|0,0:0|1:0,0:0:0:0:
276,320,55522,1,2,0:0:0:0:
356,360,55691,6,0,B|369:240,1,119.999996337891,12|0,0:0|0:0,0:0:0:0:
452,228,56197,1,2,0:0:0:0:
452,228,56365,1,2,0:0:0:0:
472,148,56534,6,0,L|488:76,1,59.9999981689453,8|2,0:0|0:0,0:0:0:0:
352,156,56871,2,0,L|272:160,1,59.9999981689453,8|2,0:0|1:2,0:0:0:0:
400,80,57208,2,0,L|392:16,1,59.9999981689453,10|2,0:0|1:2,0:0:0:0:
308,64,57545,1,10,0:0:0:0:
208,28,57713,6,0,P|144:32|100:68,1,119.999996337891,4|0,1:2|1:0,0:0:0:0:
128,148,58219,2,0,P|128:185|120:228,1,59.9999981689453,8|2,0:0|0:0,0:0:0:0:
76,276,58556,5,0,1:2:0:0:
148,320,58725,1,0,1:2:0:0:
204,256,58893,1,2,0:0:0:0:
284,276,59062,6,0,B|348:272|348:272|416:252,1,119.999996337891,4|0,1:2|0:0,0:0:0:0:
405,259,59567,2,0,P|399:289|398:319,1,59.9999981689453,10|0,0:2|0:0,0:0:0:0:
480,228,59904,2,0,P|492:196|496:148,1,59.9999981689453,2|0,1:2|0:0,0:0:0:0:
424,104,60242,1,10,0:2:0:0:
424,104,60579,6,0,B|280:112,1,119.999996337891,2|8,1:2|0:0,0:0:0:0:
220,116,61084,1,2,0:0:0:0:
151,63,61253,2,0,P|93:57|44:89,1,119.999996337891,2|8,1:2|0:0,0:0:0:0:
112,140,61758,1,2,0:0:0:0:
100,224,61927,6,0,L|84:344,1,119.999996337891,12|8,0:0|0:0,0:0:0:0:
176,288,62433,1,2,0:0:0:0:
268,344,62601,2,0,L|252:212,1,119.999996337891,2|0,1:2|1:0,0:0:0:0:
356,96,63107,6,0,B|324:144|336:184|336:184|368:224,1,119.999996337891,12|0,0:0|1:0,0:0:0:0:
432,236,63612,1,8,0:0:0:0:
432,236,63949,1,0,1:0:0:0:
352,204,64118,2,0,B|296:200|296:200|216:208,1,119.999996337891,8|0,0:0|0:0,0:0:0:0:
160,260,64624,5,4,1:2:0:0:
92,200,64792,1,2,0:0:0:0:
4,220,64961,1,10,0:0:0:0:
92,200,65129,2,0,P|108:140|92:56,1,129.999994049072,0|0,1:2|1:0,0:0:0:0:
212,32,65635,2,0,L|196:120,1,64.9999970245362,10|0,0:0|1:0,0:0:0:0:
284,132,65972,6,0,L|348:124,1,64.9999970245362,10|0,0:0|1:0,0:0:0:0:
468,58,66309,2,0,L|404:52,1,64.9999970245362,10|0,0:0|1:2,0:0:0:0:
432,168,66646,2,0,P|444:200|448:244,1,64.9999970245362,10|0,0:0|1:0,0:0:0:0:
346,330,66983,2,0,P|352:298|364:268,1,64.9999970245362,10|0,0:0|1:0,0:0:0:0:
268,256,67320,6,0,B|244:288|244:288|204:304|132:296,1,129.999994049072,12|8,0:0|0:0,0:0:0:0:
72,264,67826,1,0,1:0:0:0:
137,147,67994,2,0,L|144:212,1,64.9999970245362,8|8,0:0|0:0,0:0:0:0:
72,264,68331,1,2,0:0:0:0:
52,115,68500,6,0,P|94:68|157:58,1,129.999994049072,6|0,1:2|1:0,0:0:0:0:
304,12,69006,2,0,L|288:156,1,129.999994049072,8|2,0:0|1:2,0:0:0:0:
392,112,69511,1,8,0:0:0:0:
408,200,69680,1,8,0:0:0:0:
408,200,70017,6,0,P|437:215|469:222,1,64.9999970245362,4|0,1:2|0:0,0:0:0:0:
360,280,70354,2,0,P|296:272|232:312,1,129.999994049072,10|2,0:0|1:2,0:0:0:0:
148,312,70860,5,2,0:0:0:0:
168,224,71028,1,8,0:0:0:0:
64,280,71197,1,2,0:0:0:0:
32,196,71365,6,0,L|0:108,1,64.9999970245362,2|0,1:2|0:0,0:0:0:0:
96,68,71702,2,0,L|108:140,1,64.9999970245362,10|0,0:2|0:0,0:0:0:0:
192,84,72039,2,0,L|199:19,1,64.9999970245362,2|0,1:2|0:0,0:0:0:0:
276,120,72376,1,8,0:0:0:0:
368,112,72545,5,0,1:0:0:0:
368,112,72629,1,0,1:0:0:0:
368,112,72713,1,4,1:2:0:0:
436,172,72882,1,2,0:0:0:0:
440,56,73051,1,2,1:2:0:0:
368,112,73219,2,0,P|348:184|388:252,1,129.999994049072,8|0,0:0|1:0,0:0:0:0:
440,296,73725,1,8,0:0:0:0:
320,340,73893,5,0,1:0:0:0:
320,340,73977,1,0,1:0:0:0:
320,340,74062,1,2,1:2:0:0:
360,260,74230,1,8,0:0:0:0:
236,304,74399,2,0,P|204:292|164:268,1,64.9999970245362,8|2,0:0|1:2,0:0:0:0:
104,332,74736,2,0,P|83:271|109:213,1,129.999994049072,2|8,1:2|0:0,0:0:0:0:
200,192,75242,5,2,0:0:0:0:
192,100,75410,2,0,L|184:24,1,64.9999970245362,10|2,0:0|0:0,0:0:0:0:
292,72,75747,2,0,B|280:140|280:140|304:204,1,129.999994049072,12|2,0:0|1:2,0:0:0:0:
348,276,76253,2,0,P|312:284|256:280,1,64.9999970245363,0|2,1:0|0:0,0:0:0:0:
392,356,76590,1,4,1:2:0:0:
440,279,76758,6,0,P|469:267|501:260,1,64.9999970245362,2|0,0:0|0:0,0:0:0:0:
399,195,77095,2,0,P|369:185|337:181,1,64.9999970245362,8|0,0:0|0:0,0:0:0:0:
484,164,77433,2,0,L|500:84,1,64.9999970245362,2|2,0:0|1:2,0:0:0:0:
384,88,77770,2,0,L|372:24,1,64.9999970245362,8|0,0:0|0:0,0:0:0:0:
303,164,78107,6,0,P|248:195|185:185,1,129.999994049072,4|8,1:2|0:0,0:0:0:0:
232,104,78612,1,0,0:0:0:0:
144,84,78781,2,0,B|56:64|56:64|0:80,1,129.999994049072,2|8,1:2|0:0,0:0:0:0:
56,156,79286,1,2,0:0:0:0:
56,156,79455,6,0,L|48:252,1,64.9999970245362,2|0,1:2|1:3,0:0:0:0:
40,312,79792,1,8,0:0:0:0:
124,276,79961,2,0,P|196:276|264:320,1,129.999994049072,2|2,0:0|1:2,0:0:0:0:
353,346,80466,2,0,L|336:284,1,64.9999970245362,10|0,0:2|0:0,0:0:0:0:
449,235,80803,6,0,L|444:300,1,64.9999970245362,12|0,0:0|1:0,0:0:0:0:
372,188,81140,1,8,0:0:0:0:
372,188,81309,1,0,1:0:0:0:
400,102,81477,2,0,L|464:108,1,64.9999970245363,8|0,0:0|1:0,0:0:0:0:
308,92,81815,1,8,0:0:0:0:
328,4,81983,1,2,1:2:0:0:
219,63,82152,6,0,P|263:110|270:174,1,129.999994049072,12|8,0:0|0:0,0:0:0:0:
192,220,82657,1,2,1:2:0:0:
124,160,82826,2,0,P|92:164|60:174,1,64.9999970245362,8|0,0:0|1:0,0:0:0:0:
24,284,83163,1,8,0:0:0:0:
112,256,83331,1,2,0:0:0:0:
184,312,83500,6,0,P|244:344|328:324,1,129.999994049072,4|2,1:2|1:2,0:0:0:0:
388,308,84006,2,0,L|396:240,1,64.9999970245362,8|0,0:0|0:0,0:0:0:0:
492,256,84343,2,0,L|480:184,1,64.9999970245362,2|0,0:0|1:0,0:0:0:0:
460,84,84680,6,0,P|408:116|320:104,1,129.999994049072,8|0,0:0|0:0,0:0:0:0:
252,12,85185,2,0,B|248:64|248:64|256:88|256:88|248:148,1,129.999994049072,4|2,1:2|1:2,0:0:0:0:
164,104,85691,2,0,L|132:36,1,64.9999970245363,8|2,0:0|0:0,0:0:0:0:
28,104,86028,5,0,1:0:0:0:
28,104,86112,1,0,1:0:0:0:
28,104,86197,1,8,0:0:0:0:
96,164,86365,2,0,P|120:228|120:316,1,129.999994049072,2|0,1:2|1:0,0:0:0:0:
220,236,86871,2,0,P|256:252|312:260,1,64.9999970245363,8|0,0:0|0:0,0:0:0:0:
360,192,87208,5,4,1:2:0:0:
360,192,87376,1,0,1:0:0:0:
436,264,87545,1,0,1:0:0:0:
436,264,87713,1,0,1:0:0:0:
328,80,88556,6,0,P|392:80|444:43,1,129.999994049072,4|2,1:2|1:2,0:0:0:0:
260,139,89061,2,0,P|195:139|143:102,1,129.999994049072,8|0,0:0|1:0,0:0:0:0:
336,188,89567,6,0,B|356:224|356:224|364:296,1,110.000003356934,12|0,0:0|1:0,0:0:0:0:
216,352,90072,2,0,B|200:320|200:320|208:236,1,110.000003356934,8|0,0:0|1:0,0:0:0:0:
160,168,90578,6,0,P|121:137|64:134,1,89.999997253418,4|0,1:2|0:0,0:0:0:0:
39,214,91084,2,0,P|77:244|134:247,1,89.999997253418,2|0,0:0|0:0,0:0:0:0:
207,246,91589,6,0,B|240:244|272:232|272:232|332:248|388:224|388:224|412:240|412:240|484:240|524:188,1,329.99999899292,2|0,0:0|0:0,0:0:0:0:
256,192,93413,12,0,97120,0:0:0:0:
