osu file format v14

[General]
AudioFilename: audio.mp3
AudioLeadIn: 0
PreviewTime: 64202
Countdown: 0
SampleSet: Soft
StackLeniency: 0.6
Mode: 0
LetterboxInBreaks: 0
WidescreenStoryboard: 0

[Editor]
DistanceSpacing: 1.3
BeatDivisor: 4
GridSize: 32
TimelineZoom: 2.500001

[Metadata]
Title:Masterpiece! (Game Ver.)
TitleUnicode:マスターピース! (Game Ver.)
Artist:Shimotsuki Haruka & Yamamoto Mineko
ArtistUnicode:霜月はるか・山本美禰子
Creator:August
Version:Bellicose's Harmony!
Source:リディー&スールのアトリエ ~不思議な絵画の錬金術士~
Tags:Bellicose shizuku- narcissu Atelier Lydie & Suelle: The Alchemists and the Mysterious Paintings ~Fushigi na Kaiga no Renkinjutsushi~ gust video game short version jpop japanese pop female vocals jrpg ガスト HAMOTSUKIN BEST~Works Disc~ opening
BeatmapID:2398489
BeatmapSetID:1148214

[Difficulty]
HPDrainRate:6.4
CircleSize:4.3
OverallDifficulty:9
ApproachRate:9.3
SliderMultiplier:1.7
SliderTickRate:1

[Events]
//Background and Video events
0,0,"dfgsdfgsdfgsdfgsdfgsdfgsdfgsdfgsdfgsdfgsdfgsdfgsdfgsdfgsdfgsdfgsdgfsdfgsdfgsdfg.jpg",0,0
//Break Periods
//Storyboard Layer 0 (Background)
//Storyboard Layer 1 (Fail)
//Storyboard Layer 2 (Pass)
//Storyboard Layer 3 (Foreground)
//Storyboard Layer 4 (Overlay)
//Storyboard Sound Samples

[TimingPoints]
-88,337.078651685393,4,2,2,60,1,0
754,-100,4,2,2,40,0,0
1260,-125,4,2,2,50,0,0
8254,-125,4,2,2,5,0,0
8338,-125,4,2,2,50,0,0
10698,-100,4,2,2,60,0,0
11035,-100,4,2,2,65,0,0
11372,-100,4,2,2,70,0,0
11709,-100,4,2,2,75,0,0
12040,337.078651685393,4,2,2,65,1,0
12040,-100,4,2,4,65,0,0
12208,-100,4,2,2,65,0,0
13725,-100,4,2,2,65,0,0
17433,-90.9090909090909,4,2,4,70,0,0
17601,-90.9090909090909,4,2,2,70,0,0
17770,-66.6666666666667,4,2,2,70,0,0
18107,-76.9230769230769,4,2,2,70,0,0
18444,-76.9230769230769,4,2,2,70,0,0
19118,-76.9230769230769,4,2,2,70,0,0
19287,-76.9230769230769,4,2,2,50,0,0
19624,-76.9230769230769,4,2,2,60,0,0
19792,-76.9230769230769,4,2,2,70,0,0
19961,-76.9230769230769,4,2,2,80,0,0
20129,357.142857142857,4,2,2,60,1,0
20129,-125,4,2,4,50,0,0
20307,-125,4,2,2,50,0,0
20396,344.827586206897,4,2,2,60,1,0
20654,384.368994234465,4,2,2,60,1,0
20846,328.587075575027,4,2,2,60,1,0
20846,-100,4,2,2,50,0,0
21092,283.018867924528,4,2,2,60,1,0
21304,337.078651685393,4,2,2,60,1,0
21478,337.078651685393,4,2,2,65,1,0
21478,-125,4,2,2,55,0,0
22826,-125,4,2,4,50,0,0
22994,-125,4,2,2,50,0,0
23163,-125,4,2,3,45,0,0
29820,-125,4,2,3,45,0,0
29904,-125,4,2,3,45,0,0
31253,-125,4,2,3,45,0,0
32264,-125,4,2,2,40,0,0
32938,-76.9230769230769,4,2,4,65,0,0
33191,-76.9230769230769,4,2,2,5,0,0
33275,-76.9230769230769,4,2,4,75,0,0
33528,-76.9230769230769,4,2,2,5,0,0
33612,-76.9230769230769,4,2,2,60,0,0
33949,-100,4,2,2,60,0,0
36225,-100,4,2,2,5,0,0
36309,-100,4,2,2,60,0,0
38584,-100,4,2,2,5,0,0
38669,-100,4,2,2,65,0,0
38921,-100,4,2,2,5,0,0
39006,-100,4,2,2,60,0,0
39680,-100,4,2,2,70,0,0
39764,-100,4,2,2,5,0,0
39848,-100,4,2,2,80,0,0
39933,-100,4,2,2,5,0,0
40354,-83.3333333333333,4,2,4,70,0,0
40522,-83.3333333333333,4,2,2,70,0,0
44904,-76.9230769230769,4,2,2,70,0,0
45242,-83.3333333333333,4,2,2,70,0,0
46927,-76.9230769230769,4,2,2,70,0,0
47264,-83.3333333333333,4,2,2,70,0,0
47433,-83.3333333333333,4,2,2,70,0,0
48022,-83.3333333333333,4,2,2,5,0,0
48107,-83.3333333333333,4,2,2,70,0,0
48360,-83.3333333333333,4,2,2,5,0,0
48444,-83.3333333333333,4,2,2,70,0,0
48949,-76.9230769230769,4,2,2,70,0,0
49286,-83.3333333333333,4,2,2,70,0,0
50972,-83.3333333333333,4,2,4,70,0,0
51140,-83.3333333333333,4,2,2,70,0,0
52742,-83.3333333333333,4,2,2,5,0,0
52826,-83.3333333333333,4,2,2,70,0,0
53416,-83.3333333333333,4,2,2,5,0,0
53500,-83.3333333333333,4,2,2,70,0,0
53753,-83.3333333333333,4,2,2,5,0,0
53837,-83.3333333333333,4,2,2,70,0,0
55017,-83.3333333333333,4,2,2,75,0,0
55691,-76.9230769230769,4,2,2,80,0,0
55944,-76.9230769230769,4,2,2,5,0,0
56028,-83.3333333333333,4,2,2,60,0,0
56534,-83.3333333333333,4,2,2,70,0,0
57713,-83.3333333333333,4,2,2,75,0,0
59062,-83.3333333333333,4,2,4,70,0,0
59230,-83.3333333333333,4,2,2,70,0,0
61927,-83.3333333333333,4,2,2,75,0,0
63107,-76.9230769230769,4,2,2,80,0,0
64286,-76.9230769230769,4,2,2,60,0,0
64539,-76.9230769230769,4,2,2,5,0,0
64624,-76.9230769230769,4,2,4,80,0,0
64792,-76.9230769230769,4,2,2,80,0,0
67573,-76.9230769230769,4,2,2,5,0,0
67657,-76.9230769230769,4,2,2,80,0,0
69006,-71.4285714285714,4,2,2,80,0,0
69258,-71.4285714285714,4,2,2,5,0,0
69343,-76.9230769230769,4,2,2,80,0,0
69680,-76.9230769230769,4,2,2,75,0,0
70017,-76.9230769230769,4,2,4,70,0,0
70185,-76.9230769230769,4,2,2,70,0,0
70270,-76.9230769230769,4,2,2,5,0,0
70354,-76.9230769230769,4,2,2,70,0,0
72713,-76.9230769230769,4,2,4,75,0,0
72882,-76.9230769230769,4,2,2,75,0,0
74230,-71.4285714285714,4,2,2,75,0,0
74399,-76.9230769230769,4,2,2,75,0,0
74989,-76.9230769230769,4,2,2,5,0,0
75073,-71.4285714285714,4,2,2,75,0,0
75326,-71.4285714285714,4,2,2,5,0,0
75410,-76.9230769230769,4,2,2,70,0,0
77095,-76.9230769230769,4,2,2,70,0,0
78444,-76.9230769230769,4,2,2,70,0,0
79118,-76.9230769230769,4,2,2,70,0,0
80803,-76.9230769230769,4,2,4,80,0,0
80972,-76.9230769230769,4,2,2,80,0,0
83500,-71.4285714285714,4,2,4,80,0,0
83669,-71.4285714285714,4,2,2,80,0,0
83753,-71.4285714285714,4,2,2,5,0,0
83837,-76.9230769230769,4,2,2,70,0,0
85101,-76.9230769230769,4,2,2,5,0,0
85185,-71.4285714285714,4,2,2,80,0,0
85438,-71.4285714285714,4,2,2,5,0,0
85522,-71.4285714285714,4,2,2,75,0,0
86871,-66.6666666666667,4,2,2,85,0,0
87124,-66.6666666666667,4,2,2,5,0,0
87208,-66.6666666666667,4,2,2,80,0,0
87882,-66.6666666666667,4,2,2,55,0,0
88219,-100,4,2,2,55,0,0
88471,-100,4,2,2,5,0,0
88556,337.078651685393,3,2,2,60,1,0
88556,-76.9230769230769,3,2,4,75,0,0
88808,-76.9230769230769,3,2,2,5,0,0
88893,-76.9230769230769,3,2,2,75,0,0
89061,-83.3333333333333,3,2,2,75,0,0
89314,-83.3333333333333,3,2,2,5,0,0
89398,-83.3333333333333,3,2,2,75,0,0
89567,-90.9090909090909,3,2,2,65,0,0
89820,-90.9090909090909,3,2,2,5,0,0
89904,-90.9090909090909,3,2,2,65,0,0
90072,-100,3,2,2,65,0,0
90325,-100,3,2,2,5,0,0
90409,-100,3,2,2,65,0,0
90578,-111.111111111111,3,2,2,55,0,0
90831,-111.111111111111,3,2,2,5,0,0
90915,-111.111111111111,3,2,2,55,0,0
91084,-125,3,2,2,55,0,0
91589,-100,3,2,2,35,0,0
93413,337.078651685393,4,2,2,40,1,0
97120,-100,4,2,2,5,0,0

[Colours]
Combo1 : 247,187,188
Combo2 : 202,242,183
Combo3 : 176,211,255
Combo4 : 237,197,236

[HitObjects]
81,122,1260,6,0,B|201:118|145:55|290:56,1,204,0|2,1:0|0:0,0:0:0:0:
397,6,1934,2,0,P|371:74|360:155,1,136,2|0,0:0|0:0,0:0:0:0:
244,181,2440,2,0,P|262:237|263:271,1,68,2|0,0:0|0:0,0:0:0:0:
384,321,2777,2,0,P|390:287|402:256,1,68,2|0,0:0|0:0,0:0:0:0:
267,263,3114,2,0,B|192:280|234:318|138:341,1,136,2|2,0:0|0:0,0:0:0:0:
29,219,3619,1,2,0:0:0:0:
142,253,3788,1,2,0:0:0:0:
72,380,3956,6,0,P|85:288|122:183,1,204,0|2,1:0|0:0,0:0:0:0:
20,38,4631,2,0,P|31:80|121:72,1,136,2|0,0:0|0:0,0:0:0:0:
286,168,5136,1,2,0:0:0:0:
203,126,5305,2,0,P|288:137|353:159,1,136,2|2,0:0|0:0,0:0:0:0:
457,17,5810,2,0,P|493:46|522:60,1,68,2|0,0:0|0:0,0:0:0:0:
292,4,6147,2,0,P|321:20|347:42,1,68,2|0,0:0|0:0,0:0:0:0:
441,218,6485,1,2,0:0:0:0:
449,121,6653,6,0,P|420:177|404:271,1,136,2|2,1:2|0:0,0:0:0:0:
431,376,7159,1,2,0:0:0:0:
431,358,7496,2,0,P|430:300|372:215,1,136,2|2,0:0|0:0,0:0:0:0:
218,138,8001,2,0,P|236:170|302:172,1,102,2|0,1:2|0:0,0:0:0:0:
325,158,8338,1,2,0:0:0:0:
215,298,8507,1,2,0:0:0:0:
192,288,8844,2,0,P|276:303|344:319,1,136,2|2,0:0|0:0,0:0:0:0:
36,342,9350,6,0,P|112:347|122:220,1,204,2|0,1:2|0:0,0:0:0:0:
255,133,10024,2,0,P|195:149|93:169,1,136,2|0,0:0|0:0,0:0:0:0:
268,28,10529,1,2,0:0:0:0:
268,28,10698,6,0,P|235:21|194:48,1,85,2|0,0:0|1:0,0:0:0:0:
13,196,11035,2,0,P|29:152|57:99,1,85,8|8,0:0|0:0,0:0:0:0:
374,232,11372,1,8,1:2:0:0:
216,96,11541,1,8,1:2:0:0:
122,356,11709,1,8,1:2:0:0:
114,371,12040,6,0,P|135:267|173:179,1,170,4|0,1:2|0:0,0:0:0:0:
365,124,12545,1,0,1:0:0:0:
288,225,12714,2,0,P|267:133|269:29,1,170,2|0,0:0|1:0,0:0:0:0:
443,210,13219,1,8,0:0:0:0:
495,308,13388,6,0,B|387:313|452:366|325:384,1,170,2|0,0:0|1:0,0:0:0:0:
179,299,13893,1,2,0:0:0:0:
332,288,14062,2,0,P|258:301|161:341,1,170,8|0,0:0|0:0,0:0:0:0:
36,216,14568,1,0,1:0:0:0:
36,216,14652,1,0,1:0:0:0:
36,216,14736,6,0,P|83:176|41:84,1,170,4|0,1:2|1:0,0:0:0:0:
7,372,15410,2,0,P|83:341|195:340,1,170,8|0,0:0|1:0,0:0:0:0:
343,185,15916,1,2,1:2:0:0:
212,236,16084,6,0,P|253:277|292:267,1,85,2|0,0:0|1:0,0:0:0:0:
459,370,16422,1,8,0:0:0:0:
329,347,16590,1,2,0:0:0:0:
323,353,16674,1,2,0:0:0:0:
318,360,16759,5,2,0:0:0:0:
467,114,16927,1,0,1:0:0:0:
466,288,17096,5,10,0:0:0:0:
385,11,17264,1,2,0:0:0:0:
247,164,17433,6,0,B|297:151|278:131|326:118,1,93.5000028533936,4|0,1:2|0:0,0:0:0:0:
435,188,17770,2,0,P|345:165|172:133,1,255.000009727478,8|2,0:0|1:2,0:0:0:0:
50,366,18275,1,2,0:0:0:0:
50,366,18360,1,2,0:0:0:0:
50,366,18444,2,0,P|82:332|56:271,1,110.499994941712,8|2,0:0|0:0,0:0:0:0:
303,294,18781,5,2,1:2:0:0:
85,188,18950,1,2,0:0:0:0:
200,292,19118,2,0,P|210:231|243:155,1,110.499994941712,8|2,0:0|0:0,0:0:0:0:
403,61,19455,1,0,1:0:0:0:
321,166,19624,1,2,0:0:0:0:
136,195,19792,1,10,0:0:0:0:
0,19,19961,1,2,1:2:0:0:
78,64,20129,5,4,0:0:0:0:
52,148,20396,1,2,0:0:0:0:
66,106,20654,1,2,0:0:0:0:
225,155,20846,5,2,0:0:0:0:
251,239,21092,1,2,0:0:0:0:
237,197,21304,1,2,0:0:0:0:
133,247,21478,6,0,B|210:260|154:299|245:321,1,136,2|0,3:2|0:0,0:0:0:0:
456,300,21983,1,2,0:0:0:0:
320,367,22152,2,0,P|379:315|453:280,1,136,2|2,0:0|0:0,0:0:0:0:
479,229,22573,1,2,0:0:0:0:
475,218,22657,1,2,0:0:0:0:
317,107,22826,6,0,P|355:169|419:159,1,136,4|2,1:2|0:0,0:0:0:0:
505,13,23331,1,0,1:0:0:0:
510,152,23500,2,0,P|502:89|472:-6,1,136,2|8,0:0|0:0,0:0:0:0:
491,189,24006,1,0,1:0:0:0:
491,189,24090,1,8,0:0:0:0:
491,189,24174,6,0,P|492:256|483:324,1,136,0|0,1:0|1:0,0:0:0:0:
297,349,24680,2,0,P|347:371|374:359,1,68,10|0,0:0|0:0,0:0:0:0:
263,184,25017,1,2,1:2:0:0:
405,243,25185,1,10,0:0:0:0:
218,285,25354,1,0,1:0:0:0:
218,285,25438,1,8,0:0:0:0:
218,285,25522,6,0,B|158:294|183:322|114:334,1,102,2|0,1:2|1:0,0:0:0:0:
254,177,25944,1,2,0:0:0:0:
263,184,26028,2,0,P|333:199|358:208,2,68,8|0|0,0:0|0:0|1:0,0:0:0:0:
44,262,26534,1,10,0:0:0:0:
159,193,26702,1,2,0:0:0:0:
159,193,26786,1,2,0:0:0:0:
159,193,26871,6,0,P|140:125|119:68,1,102,0|0,1:0|1:0,0:0:0:0:
0,3,27292,1,2,0:0:0:0:
9,10,27376,2,0,P|79:25|104:34,2,68,8|2|0,0:0|0:0|0:0,0:0:0:0:
225,100,27882,1,10,0:0:0:0:
278,169,28051,1,2,0:0:0:0:
278,169,28135,1,8,0:0:0:0:
278,169,28219,6,0,P|253:104|316:62,1,136,2|2,1:2|0:0,0:0:0:0:
161,214,28725,2,0,P|224:238|299:280,1,136,10|0,0:0|1:0,0:0:0:0:
474,379,29230,1,8,0:0:0:0:
365,241,29399,1,0,1:0:0:0:
365,241,29483,1,8,0:0:0:0:
365,241,29567,6,0,P|424:247|436:290,1,102,2|0,1:2|1:0,0:0:0:0:
440,296,29904,2,0,P|448:257|474:213,1,68,2|8,0:0|0:0,0:0:0:0:
320,77,30242,2,0,P|334:108|341:142,1,68,2|0,0:0|1:0,0:0:0:0:
512,170,30579,1,2,0:0:0:0:
416,87,30747,1,0,1:0:0:0:
416,87,30831,1,8,0:0:0:0:
416,87,30916,6,0,P|356:93|344:136,1,102,2|0,1:2|1:0,0:0:0:0:
341,142,31253,2,0,P|310:127|276:121,1,68,2|8,0:0|0:0,0:0:0:0:
355,295,31590,2,0,P|351:261|340:229,1,68,0|0,0:0|1:0,0:0:0:0:
225,381,31927,2,0,P|252:361|274:335,1,68,8|0,0:0|0:0,0:0:0:0:
150,214,32264,6,0,P|62:220|-16:232,1,136,0|0,1:0|0:0,0:0:0:0:
146,235,32938,6,0,P|224:290|171:350,1,165.749992412568,4|0,1:2|0:0,0:0:0:0:
180,352,33275,2,0,P|235:312|329:344,1,165.749992412568,4|0,1:2|0:0,0:0:0:0:
342,363,33612,6,0,P|368:229|395:142,1,220.999989883423,2|0,1:2|1:0,0:0:0:0:
313,17,34118,1,2,0:0:0:0:
502,109,34286,1,2,1:2:0:0:
389,127,34455,2,0,P|371:82|409:47,1,85,2|0,0:0|1:0,0:0:0:0:
438,219,34792,1,2,0:0:0:0:
438,219,34876,1,2,0:0:0:0:
438,219,34961,6,0,P|393:237|358:199,1,85,2|0,1:2|0:0,0:0:0:0:
207,169,35298,2,0,P|275:160|310:155,1,85,0|2,1:0|0:0,0:0:0:0:
110,262,35635,2,0,P|152:267|194:273,1,85,2|0,1:2|0:0,0:0:0:0:
136,76,35972,2,0,P|59:95|61:159,1,127.5,2|0,1:2|0:0,0:0:0:0:
54,166,36309,6,0,P|40:92|9:-4,1,170,2|0,1:2|1:0,0:0:0:0:
200,48,36815,1,2,0:0:0:0:
200,48,36899,1,2,0:0:0:0:
200,48,36983,2,0,P|174:81|122:60,1,85,0|0,1:0|0:0,0:0:0:0:
266,168,37320,1,2,1:2:0:0:
133,318,37489,2,0,L|115:244,1,42.5,2|0,0:0|0:0,0:0:0:0:
170,177,37657,5,0,1:0:0:0:
309,284,37826,1,2,0:0:0:0:
438,100,37994,2,0,P|442:180|444:207,1,85,2|0,1:2|0:0,0:0:0:0:
331,359,38331,2,0,P|363:320|305:262,1,127.5,0|0,1:0|0:0,0:0:0:0:
309,284,38669,2,0,B|376:305|363:245|451:278,1,127.5,8|0,0:0|0:0,0:0:0:0:
498,304,39006,5,4,1:2:0:0:
245,192,39174,1,2,0:0:0:0:
177,307,39343,6,0,L|168:265,1,42.5,0|2,1:2|1:2,0:0:0:0:
336,97,39511,2,0,L|323:163,1,42.5,2|0,1:2|0:0,0:0:0:0:
398,255,39680,5,10,0:0:0:0:
95,127,39848,1,10,0:0:0:0:
7,133,40354,5,4,1:2:0:0:
200,45,40522,1,2,0:0:0:0:
58,4,40691,1,10,0:0:0:0:
138,229,40860,2,0,B|128:110|208:174|199:39,1,203.999993774414,2|2,1:2|1:2,0:0:0:0:
345,253,41365,1,2,0:0:0:0:
228,215,41534,1,10,0:0:0:0:
228,215,41618,1,2,0:0:0:0:
228,215,41702,6,0,P|262:273|231:318,1,101.999996887207,2|0,0:0|1:0,0:0:0:0:
11,379,42039,1,10,0:0:0:0:
169,312,42208,2,0,P|118:319|69:337,1,101.999996887207,2|0,0:0|0:0,0:0:0:0:
317,167,42545,2,0,P|368:174|417:192,1,101.999996887207,2|8,1:2|0:0,0:0:0:0:
168,146,42882,1,0,1:0:0:0:
168,146,42966,1,0,1:0:0:0:
168,146,43051,6,0,P|112:104|189:8,1,203.999993774414,4|2,1:2|1:2,0:0:0:0:
248,222,43556,1,8,0:0:0:0:
69,121,43725,2,0,P|120:128|169:146,1,101.999996887207,2|0,0:0|0:0,0:0:0:0:
394,334,44062,1,0,1:0:0:0:
346,247,44230,6,0,B|292:238|255:273|255:273|235:336|146:330,1,203.999993774414,8|0,0:0|1:0,0:0:0:0:
411,171,44736,1,2,0:0:0:0:
459,261,44904,2,0,P|463:171|510:35,1,220.999989883423,6|2,1:2|1:2,0:0:0:0:
306,13,45410,1,10,0:0:0:0:
411,171,45579,1,0,1:2:0:0:
411,171,45663,1,0,1:2:0:0:
411,170,45747,6,0,P|370:140|322:150,1,101.999996887207,2|2,1:2|0:0,0:0:0:0:
154,315,46084,2,0,L|176:230,1,50.9999984436036,0|0,1:2|1:2,0:0:0:0:
295,377,46253,2,0,P|274:285|213:155,1,203.999993774414,10|2,0:0|1:2,0:0:0:0:
21,57,46758,1,10,0:0:0:0:
189,58,46927,6,0,P|142:155|40:112,1,220.999989883423,6|2,1:2|0:0,0:0:0:0:
404,5,47433,1,8,0:0:0:0:
416,18,47770,2,0,P|349:2|296:64,1,152.999995330811,2|0,1:2|0:0,0:0:0:0:
265,38,48107,2,0,P|289:123|302:235,1,152.999995330811,2|2,1:2|0:0,0:0:0:0:
279,216,48444,6,0,P|238:302|337:324,1,203.999993774414,4|0,1:2|1:0,0:0:0:0:
0,213,48949,2,0,P|90:252|240:283,1,220.999989883423,8|0,0:0|1:0,0:0:0:0:
497,167,49455,1,2,1:2:0:0:
279,216,49624,1,10,0:0:0:0:
371,65,49792,5,8,0:0:0:0:
455,333,49961,1,0,1:0:0:0:
455,333,50045,1,0,1:0:0:0:
455,333,50129,2,0,P|460:273|427:227,1,101.999996887207,0|2,1:0|0:0,0:0:0:0:
209,146,50466,1,8,0:0:0:0:
353,275,50635,5,8,0:0:0:0:
354,264,50719,1,8,0:0:0:0:
357,255,50803,2,0,L|369:179,1,50.9999984436036,10|0,0:0|0:0,0:0:0:0:
189,347,50972,2,0,L|181:296,1,50.9999984436036,12|0,0:0|0:0,0:0:0:0:
338,357,51140,5,0,1:0:0:0:
66,253,51309,1,2,1:2:0:0:
237,132,51477,5,10,0:0:0:0:
138,213,51646,2,0,P|137:161|157:94,1,101.999996887207,2|2,0:0|1:2,0:0:0:0:
34,15,51983,1,0,1:0:0:0:
38,24,52067,1,0,1:0:0:0:
43,33,52152,1,8,0:0:0:0:
206,15,52320,1,2,0:0:0:0:
24,133,52489,6,0,P|98:172|148:63,1,203.999993774414,2|8,1:2|0:0,0:0:0:0:
303,247,52994,1,2,0:0:0:0:
176,311,53163,2,0,P|249:262|293:249,1,101.999996887207,2|0,1:2|0:0,0:0:0:0:
56,379,53500,2,0,P|99:323|45:275,1,152.999995330811,8|0,0:0|0:0,0:0:0:0:
12,303,53837,6,0,P|28:173|51:89,1,203.999993774414,4|8,1:2|0:0,0:0:0:0:
241,153,54343,1,0,1:0:0:0:
241,153,54427,1,0,1:0:0:0:
241,153,54511,2,0,P|190:186|152:154,1,101.999996887207,0|0,1:0|1:0,0:0:0:0:
24,15,54848,1,2,1:2:0:0:
4,222,55017,6,0,P|41:159|179:197,1,203.999993774414,4|0,0:0|1:0,0:0:0:0:
340,337,55522,1,2,0:0:0:0:
120,273,55691,2,0,P|212:280|348:316,1,220.999989883423,12|0,0:0|0:0,0:0:0:0:
506,169,56197,1,2,0:0:0:0:
437,275,56365,1,2,1:2:0:0:
437,275,56449,1,0,1:0:0:0:
437,275,56534,5,8,0:0:0:0:
378,158,56702,1,2,0:0:0:0:
447,300,56871,5,8,0:0:0:0:
512,74,57039,1,2,1:2:0:0:
265,230,57208,5,10,0:0:0:0:
476,156,57376,1,2,1:2:0:0:
192,35,57545,5,10,0:0:0:0:
506,169,57713,1,4,1:2:0:0:
282,208,57882,6,0,B|221:217|250:247|155:265,1,101.999996887207,2|0,0:0|1:0,0:0:0:0:
406,112,58219,1,8,0:0:0:0:
272,34,58388,2,0,P|207:22|161:7,1,101.999996887207,2|0,0:0|1:2,0:0:0:0:
272,34,58725,1,0,1:2:0:0:
18,161,58893,1,2,0:0:0:0:
109,323,59062,6,0,P|111:244|160:95,1,203.999993774414,4|0,1:2|0:0,0:0:0:0:
18,9,59567,2,0,P|16:57|65:68,1,101.999996887207,10|0,0:2|0:0,0:0:0:0:
329,163,59904,2,0,P|266:169|219:184,1,101.999996887207,2|0,1:2|0:0,0:0:0:0:
109,323,60242,2,0,P|103:260|88:213,1,101.999996887207,10|0,0:2|0:0,0:0:0:0:
346,354,60579,5,2,1:2:0:0:
243,280,60747,1,0,1:0:0:0:
243,280,60831,1,0,1:0:0:0:
243,280,60916,2,0,P|229:329|226:379,1,101.999996887207,8|2,0:0|0:0,0:0:0:0:
467,113,61253,2,0,P|456:163|328:161,1,203.999993774414,2|8,1:2|0:0,0:0:0:0:
108,21,61758,2,0,L|201:36,1,50.9999984436036,2|0,0:0|0:0,0:0:0:0:
318,54,61927,5,12,0:0:0:0:
155,221,62095,1,0,1:0:0:0:
155,221,62180,1,0,1:0:0:0:
155,221,62264,2,0,P|152:170|138:121,1,101.999996887207,8|2,0:0|0:0,0:0:0:0:
34,372,62601,2,0,P|-6:304|65:198,1,203.999993774414,2|0,1:2|1:0,0:0:0:0:
336,358,63107,6,0,P|173:331|111:326,1,220.999989883423,12|0,0:0|1:0,0:0:0:0:
432,205,63612,1,8,0:0:0:0:
454,195,63949,5,0,1:0:0:0:
291,110,64118,1,8,0:0:0:0:
390,270,64286,2,0,P|400:133|425:69,1,165.749992412568,2|0,0:0|0:0,0:0:0:0:
463,62,64624,5,4,1:2:0:0:
202,166,64792,1,2,0:0:0:0:
401,345,64961,5,10,0:0:0:0:
277,77,65129,1,0,1:2:0:0:
115,284,65298,5,8,0:0:0:0:
364,156,65466,1,0,1:0:0:0:
176,0,65635,5,10,0:0:0:0:
287,243,65803,1,0,1:0:0:0:
55,94,65972,6,0,P|134:88|166:152,1,110.499994941712,10|0,0:0|1:0,0:0:0:0:
202,166,66225,1,0,1:0:0:0:
178,243,66309,2,0,P|251:234|289:243,1,110.499994941712,10|0,0:0|1:2,0:0:0:0:
480,372,66646,2,0,P|471:299|480:261,1,110.499994941712,10|0,0:0|1:0,0:0:0:0:
504,194,66899,1,0,1:0:0:0:
434,168,66983,2,0,P|355:174|323:110,1,110.499994941712,10|0,0:0|1:0,0:0:0:0:
66,369,67320,6,0,P|170:339|267:323,1,165.749992412568,12|0,0:0|0:0,0:0:0:0:
263,327,67657,1,8,0:0:0:0:
41,119,67826,1,0,1:0:0:0:
10,191,67994,1,8,0:0:0:0:
278,47,68163,1,8,0:0:0:0:
200,35,68331,1,2,0:0:0:0:
263,327,68500,6,0,P|294:228|241:105,1,220.999989883423,6|0,1:2|1:0,0:0:0:0:
21,12,69006,2,0,P|43:83|150:57,1,178.499994552612,8|0,0:0|0:0,0:0:0:0:
166,59,69343,1,2,1:2:0:0:
387,150,69511,1,8,0:0:0:0:
161,340,69680,1,8,0:0:0:0:
144,359,70017,6,0,P|216:322|277:321,1,110.499994941712,4|0,1:2|0:0,0:0:0:0:
0,179,70354,2,0,P|72:216|133:217,1,110.499994941712,10|0,0:0|0:0,0:0:0:0:
355,160,70691,1,2,1:2:0:0:
243,234,70860,1,2,1:2:0:0:
246,223,70944,1,0,1:0:0:0:
249,212,71028,1,8,0:0:0:0:
337,69,71197,1,2,0:0:0:0:
207,278,71365,6,0,P|225:204|251:145,1,110.499994941712,2|0,1:2|0:0,0:0:0:0:
26,19,71702,1,10,0:2:0:0:
142,46,71871,1,0,1:0:0:0:
142,46,71955,1,0,1:0:0:0:
142,46,72039,2,0,P|161:116|102:131,1,110.499994941712,2|0,1:2|0:0,0:0:0:0:
39,357,72376,2,0,P|21:283|-5:224,1,110.499994941712,8|0,0:0|1:0,0:0:0:0:
285,280,72713,5,4,1:2:0:0:
44,167,72882,1,2,0:0:0:0:
197,364,73051,5,2,1:2:0:0:
407,260,73219,2,0,P|458:241|512:229,1,110.499994941712,8|0,0:0|0:0,0:0:0:0:
268,149,73556,1,0,1:0:0:0:
257,153,73640,1,0,1:0:0:0:
246,157,73725,1,8,0:0:0:0:
414,85,73893,1,2,1:2:0:0:
194,274,74062,5,2,1:2:0:0:
383,177,74230,2,0,P|328:167|261:145,1,118.999996368408,8|8,0:0|0:0,0:0:0:0:
97,21,74567,1,2,1:2:0:0:
24,239,74736,2,0,P|61:169|151:204,1,165.749992412568,2|0,1:2|0:0,0:0:0:0:
179,244,75073,2,0,P|187:165|229:26,1,178.499994552612,8|2,0:0|0:0,0:0:0:0:
242,5,75410,5,10,0:0:0:0:
48,89,75579,1,2,0:0:0:0:
342,287,75747,5,12,0:0:0:0:
219,176,75916,2,0,P|208:245|205:309,1,110.499994941712,2|2,0:0|1:2,0:0:0:0:
31,378,76253,2,0,P|-3:330|41:289,1,110.499994941712,0|2,1:0|0:0,0:0:0:0:
288,365,76590,1,4,1:2:0:0:
95,271,76758,6,0,P|150:275|204:284,1,110.499994941712,2|0,0:0|1:0,0:0:0:0:
268,244,77011,1,0,1:0:0:0:
310,181,77095,2,0,P|315:122|256:108,1,110.499994941712,8|0,0:0|0:0,0:0:0:0:
147,0,77433,2,0,P|156:54|160:109,1,110.499994941712,2|0,0:0|1:2,0:0:0:0:
158,187,77685,1,0,1:0:0:0:
81,186,77770,2,0,P|36:159|46:108,1,110.499994941712,8|0,0:0|0:0,0:0:0:0:
321,7,78107,6,0,P|243:12|84:47,2,220.999989883423,4|8|2,1:2|0:0|1:2,0:0:0:0:
480,144,78949,1,0,1:0:0:0:
484,133,79034,1,0,1:0:0:0:
488,122,79118,1,8,0:0:0:0:
335,87,79286,2,0,L|346:155,1,55.2499974708558,2|0,0:0|0:0,0:0:0:0:
471,232,79455,6,0,P|503:182|453:135,1,110.499994941712,2|0,1:2|1:3,0:0:0:0:
351,311,79792,1,8,0:0:0:0:
483,317,79961,1,2,1:2:0:0:
483,317,80045,1,0,1:0:0:0:
483,317,80129,2,0,P|430:300|376:289,1,110.499994941712,0|2,1:0|1:2,0:0:0:0:
191,378,80466,2,0,P|159:328|209:281,1,110.499994941712,10|0,0:2|1:0,0:0:0:0:
249,265,80719,1,0,1:0:0:0:
259,269,80803,5,12,0:0:0:0:
72,47,80972,1,0,1:0:0:0:
309,164,81140,5,8,0:0:0:0:
84,332,81309,1,0,1:0:0:0:
207,111,81477,5,8,0:0:0:0:
377,317,81646,1,0,1:0:0:0:
155,215,81815,5,8,0:0:0:0:
362,27,81983,1,2,1:2:0:0:
459,181,82152,6,0,P|386:219|339:181,1,110.499994941712,12|0,0:0|1:0,0:0:0:0:
309,164,82404,1,0,1:0:0:0:
263,221,82489,2,0,P|191:208|136:221,1,110.499994941712,8|2,0:0|1:2,0:0:0:0:
47,384,82826,2,0,P|60:312|47:257,1,110.499994941712,8|0,0:0|1:0,0:0:0:0:
9,216,83079,1,0,1:0:0:0:
51,154,83163,2,0,P|56:100|20:60,1,110.499994941712,8|2,0:0|0:0,0:0:0:0:
154,214,83500,6,0,P|236:230|332:265,1,178.499994552612,4|0,1:2|0:0,0:0:0:0:
361,279,83837,1,2,1:2:0:0:
512,314,84006,2,0,P|456:370|403:345,1,110.499994941712,8|0,0:0|0:0,0:0:0:0:
498,188,84343,1,2,1:2:0:0:
503,178,84427,1,0,1:0:0:0:
508,168,84511,1,0,1:0:0:0:
305,343,84680,1,8,0:0:0:0:
498,188,84848,6,0,P|416:172|324:139,1,165.749992412568,2|0,0:0|0:0,0:0:0:0:
279,104,85185,2,0,P|265:25|353:7,1,178.499994552612,4|0,1:2|0:0,0:0:0:0:
380,20,85522,1,2,1:2:0:0:
223,255,85691,2,0,P|204:181|177:125,1,118.999996368408,8|0,0:0|0:0,0:0:0:0:
36,56,86028,1,0,1:0:0:0:
279,104,86197,5,8,0:0:0:0:
92,183,86365,1,2,1:2:0:0:
92,183,86449,1,0,1:0:0:0:
92,183,86534,2,0,B|29:197|70:231|-17:260,1,118.999996368408,0|0,1:0|1:0,0:0:0:0:
265,23,86871,2,0,B|310:9|339:41|339:41|360:112|442:103,1,191.250007295609,8|0,0:0|0:0,0:0:0:0:
489,88,87208,5,12,0:2:0:0:
126,19,87376,1,0,1:0:0:0:
337,353,87545,6,0,L|360:270,1,63.7500024318696,8|8,0:0|0:0,0:0:0:0:
424,18,87713,1,0,1:0:0:0:
180,152,88219,6,0,P|139:136|187:143,1,127.5,2|0,0:0|0:0,0:0:0:0:
218,213,88556,6,0,P|237:119|260:47,1,165.749992412568,4|0,1:2|0:0,0:0:0:0:
277,14,88893,1,2,1:2:0:0:
437,175,89061,6,0,P|420:217|367:145,1,152.999995330811,8|0,0:0|0:0,0:0:0:0:
356,143,89398,1,0,1:0:0:0:
442,350,89567,6,0,P|362:330|274:319,1,140.25000428009,12|0,0:0|0:0,0:0:0:0:
286,323,89904,1,0,1:0:0:0:
74,250,90072,6,0,P|44:295|100:334,1,127.5,8|0,0:0|0:0,0:0:0:0:
103,339,90409,1,0,1:0:0:0:
225,241,90578,6,0,P|212:137|202:100,1,114.749996498108,4|0,1:2|0:0,0:0:0:0:
209,127,90915,1,0,0:0:0:0:
70,110,91084,6,0,B|151:92|110:56|203:35,1,136,2|0,0:0|0:0,0:0:0:0:
304,152,91589,5,2,0:0:0:0:
