osu file format v14

[General]
AudioFilename: audio.mp3
AudioLeadIn: 0
PreviewTime: 64202
Countdown: 0
SampleSet: Soft
StackLeniency: 0.4
Mode: 0
LetterboxInBreaks: 0
WidescreenStoryboard: 0

[Editor]
Bookmarks: 12040,17433,20129,22826,33612,40354,56534,59062,64624,70017,75410,80803,88556
DistanceSpacing: 1.1
BeatDivisor: 4
GridSize: 32
TimelineZoom: 2.700001

[Metadata]
Title:Masterpiece! (Game Ver.)
TitleUnicode:マスターピース! (Game Ver.)
Artist:Shimotsuki Haruka & Yamamoto Mineko
ArtistUnicode:霜月はるか・山本美禰子
Creator:August
Version:Advanced!
Source:リディー&スールのアトリエ ~不思議な絵画の錬金術士~
Tags:Bellicose shizuku- narcissu Atelier Lydie & Suelle: The Alchemists and the Mysterious Paintings ~Fushigi na Kaiga no Renkinjutsushi~ gust video game short version jpop japanese pop female vocals jrpg ガスト HAMOTSUKIN BEST~Works Disc~ opening
BeatmapID:2397569
BeatmapSetID:1148214

[Difficulty]
HPDrainRate:4
CircleSize:3.4
OverallDifficulty:5
ApproachRate:6.2
SliderMultiplier:1.05
SliderTickRate:1

[Events]
//Background and Video events
0,0,"dfgsdfgsdfgsdfgsdfgsdfgsdfgsdfgsdfgsdfgsdfgsdfgsdfgsdfgsdfgsdfgsdgfsdfgsdfgsdfg.jpg",0,0
//Break Periods
//Storyboard Layer 0 (Background)
//Storyboard Layer 1 (Fail)
//Storyboard Layer 2 (Pass)
//Storyboard Layer 3 (Foreground)
//Storyboard Layer 4 (Overlay)
//Storyboard Sound Samples

[TimingPoints]
-88,337.078651685393,4,2,2,60,1,0
754,-111.111111111111,4,2,2,40,0,0
1260,-111.111111111111,4,2,2,50,0,0
10698,-111.111111111111,4,2,2,60,0,0
11035,-111.111111111111,4,2,2,65,0,0
11372,-111.111111111111,4,2,2,70,0,0
11709,-111.111111111111,4,2,2,75,0,0
12040,337.078651685393,4,2,2,65,1,0
12040,-100,4,2,4,65,0,0
12208,-100,4,2,2,65,0,0
17433,-95.2380952380952,4,2,4,70,0,0
17601,-95.2380952380952,4,2,2,70,0,0
17770,-95.2380952380952,4,2,2,70,0,0
19287,-95.2380952380952,4,2,2,50,0,0
19624,-95.2380952380952,4,2,2,60,0,0
19792,-95.2380952380952,4,2,2,70,0,0
19961,-95.2380952380952,4,2,2,80,0,0
20129,357.142857142857,4,2,2,60,1,0
20129,-112.485939257593,4,2,4,50,0,0
20307,-112.994350282486,4,2,2,50,0,0
20396,344.827586206897,4,2,2,60,1,0
20654,384.368994234465,4,2,2,60,1,0
20846,328.587075575027,4,2,2,60,1,0
21092,283.018867924528,4,2,2,60,1,0
21304,337.078651685393,4,2,2,60,1,0
21478,337.078651685393,4,2,2,65,1,0
21478,-111.111111111111,4,2,2,55,0,0
22826,-111.111111111111,4,2,4,50,0,0
22994,-111.111111111111,4,2,2,50,0,0
23163,-111.111111111111,4,2,3,45,0,0
32264,-111.111111111111,4,2,2,40,0,0
32938,-111.111111111111,4,2,4,65,0,0
33275,-111.111111111111,4,2,4,75,0,0
33612,-105.263157894737,4,2,2,60,0,0
38669,-105.263157894737,4,2,2,65,0,0
39006,-105.263157894737,4,2,2,60,0,0
39680,-105.263157894737,4,2,2,70,0,0
39848,-105.263157894737,4,2,2,80,0,0
40354,-100,4,2,4,70,0,0
40522,-100,4,2,2,70,0,0
50972,-100,4,2,4,70,0,0
51140,-100,4,2,2,70,0,0
52826,-100,4,2,2,70,0,0
53500,-100,4,2,2,70,0,0
55017,-100,4,2,2,75,0,0
55691,-100,4,2,2,80,0,0
56028,-100,4,2,2,60,0,0
56534,-100,4,2,2,70,0,0
57713,-100,4,2,2,75,0,0
59062,-100,4,2,4,70,0,0
59230,-100,4,2,2,70,0,0
61927,-100,4,2,2,75,0,0
63107,-100,4,2,2,80,0,0
64286,-100,4,2,2,60,0,0
64624,-95.2380952380952,4,2,4,80,0,0
64792,-95.2380952380952,4,2,2,80,0,0
69680,-95.2380952380952,4,2,2,75,0,0
70017,-95.2380952380952,4,2,4,70,0,0
70185,-95.2380952380952,4,2,2,70,0,0
70354,-95.2380952380952,4,2,2,70,0,0
72713,-95.2380952380952,4,2,4,75,0,0
72882,-95.2380952380952,4,2,2,75,0,0
74989,-95.2380952380952,4,2,2,5,0,0
75073,-95.2380952380952,4,2,2,75,0,0
75410,-95.2380952380952,4,2,2,70,0,0
77095,-95.2380952380952,4,2,2,70,0,0
78444,-95.2380952380952,4,2,2,70,0,0
79118,-95.2380952380952,4,2,2,70,0,0
80803,-95.2380952380952,4,2,4,80,0,0
80972,-95.2380952380952,4,2,2,80,0,0
83500,-95.2380952380952,4,2,4,80,0,0
83669,-95.2380952380952,4,2,2,80,0,0
83837,-95.2380952380952,4,2,2,70,0,0
85185,-95.2380952380952,4,2,2,80,0,0
85522,-95.2380952380952,4,2,2,75,0,0
86871,-95.2380952380952,4,2,2,85,0,0
87208,-95.2380952380952,4,2,2,80,0,0
87882,-95.2380952380952,4,2,2,55,0,0
88556,337.078651685393,3,2,2,60,1,0
88556,-100,3,2,4,75,0,0
88724,-100,3,2,2,75,0,0
89567,-100,3,2,2,65,0,0
90578,-105.263157894737,3,2,2,55,0,0
91589,-117.647058823529,3,2,2,35,0,0
93413,337.078651685393,4,2,2,40,1,0
97120,-100,4,2,2,5,0,0

[Colours]
Combo1 : 247,187,188
Combo2 : 202,242,183
Combo3 : 176,211,255
Combo4 : 237,197,236

[HitObjects]
310,114,754,6,0,L|321:54,2,47.2499985580445,2|2|2,0:0|0:0|0:0,0:0:0:0:
299,165,1260,1,0,1:0:0:0:
454,132,1765,1,2,0:0:0:0:
454,132,1934,2,0,P|443:178|462:220,1,94.499997116089,2|0,0:0|0:0,0:0:0:0:
483,267,2440,2,0,L|371:283,1,94.499997116089,2|2,0:0|0:0,0:0:0:0:
287,297,3114,1,2,0:0:0:0:
203,235,3451,6,0,L|213:177,2,47.2499985580445,2|2|2,0:0|0:0|0:0,0:0:0:0:
177,280,3956,1,0,1:0:0:0:
61,384,4462,1,2,0:0:0:0:
61,384,4631,2,0,P|69:338|52:294,1,94.499997116089,2|0,0:0|0:0,0:0:0:0:
49,242,5136,2,0,L|59:181,1,47.2499985580445,2|2,0:0|0:0,0:0:0:0:
0,116,5642,1,2,0:0:0:0:
0,116,5810,2,0,L|112:104,1,94.499997116089,2|2,0:0|0:0,0:0:0:0:
164,32,6485,5,2,0:0:0:0:
164,32,6653,2,0,L|257:42,1,94.499997116089,2|2,1:2|0:0,0:0:0:0:
309,33,7159,2,0,P|286:74|288:120,1,94.499997116089,2|2,0:0|0:0,0:0:0:0:
394,104,7833,5,2,0:0:0:0:
394,104,8001,2,0,L|411:210,1,94.499997116089,2|2,1:2|0:0,0:0:0:0:
419,248,8507,1,2,0:0:0:0:
495,317,8844,1,2,0:0:0:0:
413,380,9181,5,2,0:0:0:0:
413,380,9350,2,0,B|377:392|346:368|346:368|318:346|277:356,1,141.749995674133,2|0,1:2|0:0,0:0:0:0:
228,367,10024,2,0,L|242:264,1,94.499997116089,2|0,0:0|0:0,0:0:0:0:
255,170,10698,2,0,P|215:144|169:145,1,94.499997116089,2|8,0:0|0:0,0:0:0:0:
129,176,11204,1,8,0:0:0:0:
129,176,11372,2,0,L|117:116,1,47.2499985580445,8|8,0:0|0:0,0:0:0:0:
74,104,11709,1,8,0:0:0:0:
4,194,12040,6,0,L|28:312,1,105,4|0,1:2|0:0,0:0:0:0:
44,356,12545,1,0,1:0:0:0:
44,356,12714,1,2,0:0:0:0:
128,279,13051,2,0,L|183:290,1,52.5,0|8,1:0|0:0,0:0:0:0:
224,326,13388,2,0,P|267:298|319:303,1,105,2|0,0:0|1:0,0:0:0:0:
259,204,14062,2,0,P|207:208|163:181,1,105,8|0,0:0|0:0,0:0:0:0:
135,137,14568,1,0,1:0:0:0:
135,137,14736,5,4,1:2:0:0:
238,83,15073,1,0,1:0:0:0:
339,28,15410,2,0,P|390:29|435:56,1,105,8|0,0:0|1:0,0:0:0:0:
460,114,15916,1,2,1:2:0:0:
460,114,16084,2,0,L|472:183,1,52.5,2|0,0:0|1:0,0:0:0:0:
352,166,16590,2,0,B|274:153|274:153|252:126,1,105,2|0,0:0|1:0,0:0:0:0:
226,84,17096,2,0,L|166:95,1,52.5,10|2,0:0|0:0,0:0:0:0:
116,110,17433,5,4,1:2:0:0:
81,226,17770,1,8,0:0:0:0:
166,312,18107,2,0,P|221:311|268:338,1,110.249996635437,2|8,1:2|0:0,0:0:0:0:
316,376,18613,2,0,L|393:366,1,55.1249983177186,2|2,0:0|1:2,0:0:0:0:
394,253,19118,1,8,0:0:0:0:
394,253,19287,2,0,L|280:235,1,110.249996635437,2|2,0:0|0:0,0:0:0:0:
239,196,19792,2,0,B|232:160|232:160|238:138,1,55.1249983177186,10|2,0:0|1:2,0:0:0:0:
210,91,20129,6,0,B|125:116|54:60|54:60|95:130|64:197,1,307.124990627289,4|2,0:0|0:0,0:0:0:0:
35,246,21478,5,2,3:2:0:0:
352,224,22826,5,4,1:2:0:0:
267,284,23163,2,0,L|217:276,1,47.2499985580445,2|0,0:0|1:0,0:0:0:0:
168,268,23500,1,2,0:0:0:0:
80,321,23837,1,8,0:0:0:0:
80,321,24006,2,0,P|78:274|50:236,1,94.499997116089,0|0,1:0|0:0,0:0:0:0:
7,142,24680,1,10,0:0:0:0:
55,50,25017,2,0,L|48:-1,2,47.2499985580445,2|10|0,1:2|0:0|1:0,0:0:0:0:
94,83,25522,6,0,B|115:98|137:99|137:99|110:142|119:207,1,141.749995674133,2|8,1:2|0:0,0:0:0:0:
245,100,26534,1,10,0:0:0:0:
245,100,26702,1,2,0:0:0:0:
384,30,27208,2,0,P|427:10|473:16,1,94.499997116089,2|2,0:0|0:0,0:0:0:0:
467,120,27882,1,10,0:0:0:0:
507,215,28219,5,2,1:2:0:0:
425,277,28556,1,2,0:0:0:0:
425,277,28725,2,0,B|353:263|353:263|328:294,1,94.499997116089,10|0,0:0|1:0,0:0:0:0:
380,375,29399,1,0,1:0:0:0:
380,375,29567,1,2,1:2:0:0:
276,365,29904,2,0,P|234:344|188:352,1,94.499997116089,2|2,0:0|0:0,0:0:0:0:
110,290,30579,1,2,0:0:0:0:
110,290,30747,6,0,L|126:186,1,94.499997116089,2|2,0:0|0:0,0:0:0:0:
134,145,31253,1,2,0:0:0:0:
283,189,31758,2,0,B|314:178|345:180|345:180|361:140,1,94.499997116089,0|0,1:0|0:0,0:0:0:0:
340,101,32264,5,0,1:0:0:0:
155,8,32938,2,0,P|164:30|167:54,1,47.2499985580445,4|0,1:2|0:0,0:0:0:0:
204,91,33275,2,0,P|195:112|192:136,1,47.2499985580445,4|0,1:2|0:0,0:0:0:0:
158,186,33612,5,2,1:2:0:0:
267,316,34118,1,2,0:0:0:0:
267,316,34286,2,0,L|257:386,2,49.8749986681939,2|2|0,1:2|0:0|1:0,0:0:0:0:
254,261,34792,2,0,P|303:267|347:244,1,99.7499973363877,2|0,0:0|0:0,0:0:0:0:
376,197,35298,1,0,1:0:0:0:
461,265,35635,1,2,1:2:0:0:
510,167,35972,1,2,1:2:0:0:
424,98,36309,6,0,B|439:64|434:28|434:28|474:9,2,99.7499973363877,2|0|0,1:2|1:0|1:0,0:0:0:0:
318,100,37320,1,2,1:2:0:0:
318,100,37489,2,0,P|276:74|227:76,1,99.7499973363877,2|2,0:0|0:0,0:0:0:0:
181,106,37994,1,2,1:2:0:0:
121,198,38331,1,0,1:0:0:0:
205,268,38669,2,0,L|198:317,1,49.8749986681939,8|0,0:0|0:0,0:0:0:0:
156,353,39006,6,0,P|106:359|61:340,1,99.7499973363877,4|0,1:2|1:2,0:0:0:0:
0,250,39680,1,10,0:0:0:0:
0,250,39848,1,10,0:0:0:0:
65,89,40354,6,0,P|38:86|14:78,2,52.5,4|2|10,1:2|0:0|0:0,0:0:0:0:
122,79,40860,1,2,1:2:0:0:
229,36,41197,2,0,L|239:96,1,52.5,2|2,1:2|0:0,0:0:0:0:
270,134,41534,2,0,P|240:175|244:227,1,105,10|0,0:0|1:0,0:0:0:0:
286,274,42039,1,10,0:0:0:0:
286,274,42208,1,2,0:0:0:0:
374,199,42545,1,2,1:2:0:0:
489,205,42882,6,0,L|470:326,1,105,2|0,1:2|0:0,0:0:0:0:
438,355,43388,2,0,P|411:355|386:361,1,52.5,2|8,1:2|0:0,0:0:0:0:
328,355,43725,1,2,0:0:0:0:
221,309,44062,2,0,L|165:317,2,52.5,0|8|0,1:0|0:0|0:0,0:0:0:0:
240,198,44736,1,2,0:0:0:0:
240,198,44904,1,6,1:2:0:0:
160,121,45242,5,2,1:2:0:0:
160,121,45410,2,0,P|173:71|219:50,1,105,10|2,0:0|1:2,0:0:0:0:
275,69,45916,2,0,L|286:127,1,52.5,2|0,0:0|1:2,0:0:0:0:
323,163,46253,1,10,0:0:0:0:
397,75,46590,1,2,1:2:0:0:
397,75,46758,2,0,L|452:68,1,52.5,10|6,0:0|1:2,0:0:0:0:
499,98,47095,2,0,P|523:143|513:194,1,105,2|8,0:0|0:0,0:0:0:0:
404,233,47770,1,2,1:2:0:0:
294,270,48107,1,2,1:2:0:0:
199,204,48444,6,0,P|212:155|194:107,1,105,4|0,1:2|1:0,0:0:0:0:
210,50,48949,2,0,L|86:68,1,105,8|0,0:0|1:0,0:0:0:0:
60,39,49455,1,2,1:2:0:0:
60,39,49624,2,0,L|52:90,1,52.5,10|8,0:0|0:0,0:0:0:0:
0,197,50129,1,0,1:0:0:0:
0,197,50298,1,2,0:0:0:0:
94,264,50635,2,0,L|170:256,1,52.5,8|10,0:0|0:0,0:0:0:0:
180,211,50972,6,0,P|203:164|195:113,1,105,12|2,0:0|1:2,0:0:0:0:
217,62,51477,1,10,0:0:0:0:
217,62,51646,2,0,L|290:51,1,52.5,2|0,0:0|1:0,0:0:0:0:
400,174,52320,1,2,0:0:0:0:
400,174,52489,1,2,1:2:0:0:
298,230,52826,1,8,0:0:0:0:
321,345,53163,1,2,1:2:0:0:
437,359,53500,1,8,0:0:0:0:
488,253,53837,6,0,B|502:184|502:184|547:160,2,105,4|8|0,1:2|0:0|1:0,0:0:0:0:
437,359,54848,1,2,1:2:0:0:
437,359,55017,2,0,P|392:331|341:333,1,105,4|0,0:0|1:0,0:0:0:0:
290,320,55522,1,2,0:0:0:0:
290,320,55691,1,12,0:0:0:0:
298,149,56197,2,0,L|306:94,1,52.5,2|2,0:0|0:0,0:0:0:0:
279,44,56534,6,0,P|227:50|180:27,1,105,8|8,0:0|0:0,0:0:0:0:
134,59,57039,1,2,1:2:0:0:
134,59,57208,1,10,0:0:0:0:
197,163,57545,1,10,0:0:0:0:
197,163,57713,1,4,1:2:0:0:
154,334,58219,1,8,0:0:0:0:
154,334,58388,2,0,L|30:308,1,105,2|0,0:0|1:0,0:0:0:0:
21,269,58893,1,2,0:0:0:0:
21,269,59062,6,0,P|25:218|-1:173,1,105,4|0,1:2|0:0,0:0:0:0:
10,116,59567,1,10,0:2:0:0:
104,49,59904,1,2,1:2:0:0:
194,122,60242,2,0,L|185:186,1,52.5,10|0,0:2|0:0,0:0:0:0:
158,224,60579,2,0,L|287:208,1,105,2|8,1:2|0:0,0:0:0:0:
326,307,61253,2,0,L|221:319,1,105,2|8,1:2|0:0,0:0:0:0:
158,224,61927,5,12,0:0:0:0:
201,116,62264,1,8,0:0:0:0:
244,8,62601,2,0,L|302:1,1,52.5,2|2,1:2|0:0,0:0:0:0:
354,26,62938,1,0,1:0:0:0:
354,26,63107,1,12,0:0:0:0:
452,100,63444,1,0,1:0:0:0:
452,100,63612,2,0,P|423:142|425:194,1,105,8|0,0:0|1:0,0:0:0:0:
388,239,64118,2,0,L|379:300,1,52.5,8|2,0:0|0:0,0:0:0:0:
267,280,64624,5,4,1:2:0:0:
267,280,64792,1,2,0:0:0:0:
267,280,64961,2,0,L|256:211,2,55.1249983177186,10|0|8,0:0|1:2|0:0,0:0:0:0:
161,339,65635,2,0,L|150:270,1,55.1249983177186,10|0,0:0|1:0,0:0:0:0:
142,224,65972,1,10,0:0:0:0:
199,117,66309,1,10,0:0:0:0:
104,40,66646,1,10,0:0:0:0:
2,106,66983,2,0,L|11:166,1,55.1249983177186,10|0,0:0|1:0,0:0:0:0:
50,205,67320,6,0,P|15:246|16:300,2,110.249996635437,12|8|8,0:0|0:0|0:0,0:0:0:0:
171,237,68331,1,2,0:0:0:0:
171,237,68500,2,0,B|203:257|203:257|295:236,1,110.249996635437,6|0,1:2|1:0,0:0:0:0:
332,225,69006,1,8,0:0:0:0:
442,175,69343,2,0,L|456:102,1,55.1249983177186,2|8,1:2|0:0,0:0:0:0:
464,61,69680,1,8,0:0:0:0:
345,78,70017,5,4,1:2:0:0:
234,27,70354,2,0,P|243:80|214:125,1,110.249996635437,10|2,0:0|1:2,0:0:0:0:
155,141,70860,2,0,L|144:212,2,55.1249983177186,2|8|2,0:0|0:0|0:0,0:0:0:0:
121,90,71365,1,2,1:2:0:0:
17,153,71702,1,10,0:2:0:0:
73,260,72039,2,0,L|91:386,1,110.249996635437,2|8,1:2|0:0,0:0:0:0:
202,327,72713,6,0,L|191:250,1,55.1249983177186,4|2,1:2|0:0,0:0:0:0:
224,221,73051,1,2,1:2:0:0:
224,221,73219,1,8,0:0:0:0:
335,281,73556,1,0,1:0:0:0:
335,281,73725,2,0,L|346:353,2,55.1249983177186,8|2|2,0:0|1:2|1:2,0:0:0:0:
438,215,74399,1,8,0:0:0:0:
438,215,74567,2,0,P|452:191|474:175,1,55.1249983177186,2|2,1:2|1:2,0:0:0:0:
443,57,75073,2,0,L|384:68,1,55.1249983177186,8|2,0:0|0:0,0:0:0:0:
352,115,75410,5,10,0:0:0:0:
237,146,75747,1,12,0:0:0:0:
237,146,75916,2,0,L|225:209,2,55.1249983177186,2|2|0,0:0|1:2|1:0,0:0:0:0:
250,29,76590,1,4,1:2:0:0:
250,29,76758,2,0,P|202:3|148:11,2,110.249996635437,2|8|2,0:0|0:0|0:0,0:0:0:0:
371,38,77770,2,0,L|443:23,1,55.1249983177186,8|0,0:0|0:0,0:0:0:0:
483,43,78107,6,0,B|454:93|454:93|471:158,1,110.249996635437,4|8,1:2|0:0,0:0:0:0:
373,220,78781,2,0,B|402:270|402:270|385:335,1,110.249996635437,2|8,1:2|0:0,0:0:0:0:
343,360,79286,1,2,0:0:0:0:
343,360,79455,1,2,1:2:0:0:
247,295,79792,1,8,0:0:0:0:
247,295,79961,2,0,L|232:237,1,55.1249983177186,2|0,0:0|1:0,0:0:0:0:
171,137,80466,2,0,P|144:143|121:159,1,55.1249983177186,10|0,0:0|1:0,0:0:0:0:
65,180,80803,6,0,L|40:63,1,110.249996635437,12|8,0:0|0:0,0:0:0:0:
141,2,81477,2,0,P|195:0|241:28,1,110.249996635437,8|8,0:0|0:0,0:0:0:0:
282,81,81983,1,2,1:2:0:0:
282,81,82152,2,0,L|399:56,1,110.249996635437,12|8,0:0|0:0,0:0:0:0:
445,93,82657,1,2,1:2:0:0:
445,93,82826,1,8,0:0:0:0:
479,209,83163,1,8,0:0:0:0:
357,201,83500,5,4,1:2:0:0:
264,278,83837,1,2,1:2:0:0:
264,278,84006,1,8,0:0:0:0:
144,256,84343,2,0,L|134:197,1,55.1249983177186,2|0,0:0|1:0,0:0:0:0:
176,157,84680,2,0,L|186:98,2,55.1249983177186,8|2|0,0:0|0:0|0:0,0:0:0:0:
227,188,85185,1,4,1:2:0:0:
298,91,85522,1,2,1:2:0:0:
298,91,85691,1,8,0:0:0:0:
214,3,86028,2,0,P|187:12|160:12,1,55.1249983177186,0|8,1:0|0:0,0:0:0:0:
100,3,86365,6,0,P|63:43|56:97,1,110.249996635437,2|0,1:2|1:0,0:0:0:0:
70,156,86871,1,8,0:0:0:0:
157,240,87208,1,4,1:2:0:0:
266,187,87545,1,0,1:0:0:0:
344,279,87882,2,0,P|371:278|397:270,1,55.1249983177186,2|0,0:0|0:0,0:0:0:0:
439,226,88219,2,0,P|447:199|447:172,1,55.1249983177186,2|0,0:0|0:0,0:0:0:0:
416,121,88556,6,0,P|365:128|319:105,1,105,4|2,1:2|1:2,0:0:0:0:
285,58,89061,1,8,0:0:0:0:
225,158,89398,1,0,1:0:0:0:
225,158,89567,2,0,P|178:180|127:173,1,105,12|0,0:0|1:0,0:0:0:0:
74,147,90072,1,8,0:0:0:0:
5,241,90409,1,0,1:0:0:0:
5,241,90578,6,0,P|32:284|30:332,1,99.7499973363877,4|0,1:2|0:0,0:0:0:0:
59,377,91084,2,0,P|100:351|149:352,1,99.7499973363877,2|0,0:2|0:0,0:0:0:0:
199,329,91589,5,2,0:0:0:0:
