osu file format v14

[General]
AudioFilename: audio.mp3
AudioLeadIn: 0
PreviewTime: 63868
Countdown: 1
SampleSet: Soft
StackLeniency: 0.4
Mode: 0
LetterboxInBreaks: 0
WidescreenStoryboard: 1

[Editor]
Bookmarks: 16938,22242,43457,59369
DistanceSpacing: 2
BeatDivisor: 4
GridSize: 16
TimelineZoom: 1.7

[Metadata]
Title:Kimi no Atokata ~Whites nen zai, rin o eclef~
TitleUnicode:君の跡形 ~Whites nen zai, rin o eclef~
Artist:Shimotsuki Haruka & Oda Kaori & Annabel
ArtistUnicode:霜月はるか & 織田かおり & Annabel
Creator:ImpurePug
Version:Insane
Source:
Tags:雨の後,芽生えたもの CRAFTSCAPE 花想少女~Lip-Aura~幻想歌曲集 Kasou Shoujo Nao Tomori Enkrypton Deca
BeatmapID:1814700
BeatmapSetID:867790

[Difficulty]
HPDrainRate:6
CircleSize:4
OverallDifficulty:8.4
ApproachRate:9
SliderMultiplier:1.8
SliderTickRate:1

[Events]
//Background and Video events
0,0,"oof.jpg",0,0
//Break Periods
//Storyboard Layer 0 (Background)
//Storyboard Layer 1 (Fail)
//Storyboard Layer 2 (Pass)
//Storyboard Layer 3 (Foreground)
//Storyboard Sound Samples

[TimingPoints]
1027,331.491712707182,4,2,1,40,1,0
1027,-250,4,2,1,40,0,0
22242,-166.666666666667,4,2,1,40,0,0
43457,-133.333333333333,4,2,1,50,0,0
46607,-111.111111111111,4,2,1,50,0,0
47104,-133.333333333333,4,2,1,50,0,0
48761,-133.333333333333,4,2,1,50,0,0
49259,-117.647058823529,4,2,1,50,0,0
49756,-133.333333333333,4,2,1,50,0,0
51910,-111.111111111111,4,2,1,50,0,0
52408,-250,4,2,1,50,0,0
54065,-133.333333333333,4,2,1,50,0,0
59369,-100,4,2,1,50,0,0
60364,-181.818181818182,4,2,1,50,0,0
61358,-133.333333333333,4,2,1,50,0,0
61689,-111.111111111111,4,2,1,50,0,0
62021,-100,4,2,1,50,0,0
63015,-159.090909091271,4,2,1,50,0,0
63678,-100,4,2,1,50,0,0
63720,-100,4,2,1,5,0,0
64010,-111.111111111111,4,2,1,55,0,0
64673,-83.3333333333333,4,2,1,65,0,1
72629,-74.0740740740741,4,2,1,65,0,1
73623,-285.714285714286,4,2,1,65,0,1
74783,-100,4,2,1,65,0,1
75281,-83.3333333333333,4,2,1,65,0,1
85391,-71.4285714285714,4,2,1,65,0,1
85888,-333.333333333333,4,2,1,65,0,1
89701,-66.6666666666667,4,2,1,65,0,1
90198,-71.4285714285714,4,2,1,65,0,1
91192,-83.3333333333333,4,2,1,65,0,0

[Colours]
Combo1 : 200,132,102
Combo2 : 247,131,91
Combo3 : 239,239,120

[HitObjects]
56,69,861,5,2,0:0:0:0:
56,69,944,1,2,0:0:0:0:
56,69,1027,2,0,P|112:63|62:154,1,216,2|2,0:0|0:0,0:0:0:0:
71,158,2352,6,0,B|126:139|183:192|163:245|163:245|160:209|191:201,1,216,2|2,0:0|0:0,0:0:0:0:
192,201,3678,2,0,P|210:186|257:171,1,72,2|2,0:0|0:0,0:0:0:0:
347,240,4341,6,0,P|335:309|278:349,2,144,2|2|2,0:0|0:0|0:0,0:0:0:0:
298,160,5833,2,0,L|308:112,1,36,0|0,0:0|0:0,0:0:0:0:
305,124,6330,6,0,L|273:270,1,144,2|0,0:0|0:0,0:0:0:0:
366,322,7325,2,0,L|397:181,1,144,2|0,0:0|0:0,0:0:0:0:
413,199,8319,1,0,0:0:0:0:
428,216,8485,2,0,L|438:168,1,36,2|2,0:0|0:0,0:0:0:0:
443,149,8817,1,2,0:0:0:0:
483,51,8982,6,0,B|378:18|386:110|268:62,1,216,2|2,0:0|0:0,0:0:0:0:
259,52,10143,1,0,0:0:0:0:
154,56,10474,2,0,L|166:98,1,36,2|0,0:0|0:0,0:0:0:0:
147,35,10806,1,0,0:0:0:0:
58,54,10971,2,0,L|79:127,1,72,2|2,0:0|0:0,0:0:0:0:
195,223,11634,6,0,B|144:237|96:209|96:209|68:255|4:269,1,216,2|2,0:1|0:0,0:0:0:0:
93,358,12960,6,0,B|97:336|120:321|120:321|161:368|235:366|275:320,1,216,2|2,0:0|0:0,0:0:0:0:
270,324,14286,2,0,P|290:295|296:259,1,72,2|2,0:0|0:0,0:0:0:0:
265,160,14949,6,0,L|187:178,1,72,2|2,0:0|0:0,0:0:0:0:
166,183,15446,1,0,0:0:0:0:
247,261,15778,2,0,L|203:270,1,36,2|0,0:0|0:0,0:0:0:0:
274,255,16109,1,0,0:0:0:0:
301,249,16275,2,0,P|349:243|394:293,1,108,2|0,0:0|0:0,0:0:0:0:
419,361,16938,6,0,P|467:367|510:287,1,144,2|0,0:0|0:0,0:0:0:0:
394,334,17933,2,0,P|430:365|491:258,1,216,2|0,0:0|0:0,0:0:0:0:
412,195,19093,2,0,L|363:189,1,36,2|2,0:0|0:0,0:0:0:0:
376,190,19590,6,0,P|413:196|469:114,1,144,2|2,0:0|0:0,0:0:0:0:
377,39,20585,6,0,L|389:89,1,36,2|0,0:0|0:0,0:0:0:0:
295,68,21082,2,0,L|307:118,1,36,2|0,0:0|0:0,0:0:0:0:
287,41,21413,1,0,0:0:0:0:
207,162,21579,1,2,0:0:0:0:
207,162,21910,6,0,P|178:155|157:158,1,36,0|0,0:0|0:0,0:0:0:0:
91,214,22242,6,0,P|47:223|-5:171,1,107.999996704102,2|2,3:1|0:0,0:0:0:0:
102,240,22905,2,0,P|67:251|30:244,2,53.9999983520508,0|0|2,0:0|0:0|0:0,0:0:0:0:
177,189,23402,1,0,3:0:0:0:
248,244,23568,6,0,L|333:309,1,107.999996704102,0|2,0:0|0:0,0:0:0:0:
446,285,24065,2,0,L|360:219,1,107.999996704102,0|0,0:0|0:0,0:0:0:0:
248,244,24562,2,0,P|207:246|183:234,1,53.9999983520508,2|2,0:0|0:0,0:0:0:0:
128,161,24894,6,0,P|97:198|95:276,2,107.999996704102,0|2|0,3:0|0:0|0:0,0:0:0:0:
207,114,25723,1,0,0:0:0:0:
223,137,25888,1,2,0:0:0:0:
112,138,26054,6,0,P|76:108|104:48,1,107.999996704102,0|0,3:0|0:0,0:0:0:0:
171,2,26551,2,0,L|291:23,1,107.999996704102,2|0,0:0|0:0,0:0:0:0:
379,41,27049,2,0,P|359:83|340:99,2,53.9999983520508,0|2|2,0:0|0:0|0:0,0:0:0:0:
465,0,27546,6,0,P|478:53|449:106,1,107.999996704102,0|2,3:0|0:0,0:0:0:0:
378,162,28043,2,0,P|355:210|369:261,1,107.999996704102,0|0,0:0|0:0,0:0:0:0:
451,329,28540,1,2,0:0:0:0:
369,261,28706,6,0,P|326:290|335:340,1,107.999996704102,0|0,3:0|0:0,0:0:0:0:
413,287,29203,2,0,P|394:267|368:261,1,53.9999983520508,2|0,0:0|0:0,0:0:0:0:
265,296,29535,1,0,0:0:0:0:
284,188,29701,1,2,0:0:0:0:
369,261,29866,1,2,0:0:0:0:
369,261,30198,6,0,P|408:266|463:221,1,107.999996704102,0|2,3:0|0:0,0:0:0:0:
352,286,30861,2,0,P|388:295|422:291,2,53.9999983520508,0|0|2,0:0|0:0|0:0,0:0:0:0:
267,234,31358,2,0,P|208:220|153:249,1,107.999996704102,0|0,3:0|0:0,0:0:0:0:
102,301,31855,1,2,0:0:0:0:
102,301,32187,2,0,L|111:361,1,53.9999983520508,0|0,0:0|0:0,0:0:0:0:
25,369,32518,2,0,L|16:315,1,53.9999983520508,2|0,0:0|0:0,0:0:0:0:
142,217,32850,6,0,B|198:207|192:244|245:236,1,107.999996704102,2|0,3:1|0:0,0:0:0:0:
141,126,33513,2,0,P|106:132|83:146,2,53.9999983520508,0|0|2,0:0|0:0|0:0,0:0:0:0:
196,45,34010,1,0,3:0:0:0:
243,154,34176,6,0,P|278:157|338:114,1,107.999996704102,0|2,0:0|0:0,0:0:0:0:
302,34,34673,2,0,P|267:31|207:74,1,107.999996704102,0|0,0:0|0:0,0:0:0:0:
234,180,35170,2,0,P|263:188|297:184,1,53.9999983520508,2|2,0:0|0:0,0:0:0:0:
384,127,35502,6,0,L|499:150,2,107.999996704102,0|2|0,3:0|0:0|0:0,0:0:0:0:
286,186,36330,1,0,0:0:0:0:
311,207,36496,1,2,0:0:0:0:
359,106,36662,6,0,P|341:70|276:60,1,107.999996704102,0|0,3:0|0:0,0:0:0:0:
193,111,37159,2,0,P|144:129|100:102,1,107.999996704102,2|0,0:0|0:0,0:0:0:0:
62,12,37656,2,0,L|2:24,2,53.9999983520508,0|2|2,0:0|0:0|0:0,0:0:0:0:
100,102,38154,6,0,P|92:153|45:177,1,107.999996704102,0|2,3:0|0:0,0:0:0:0:
0,287,38651,2,0,P|61:278|112:323,1,107.999996704102,0|0,0:0|0:0,0:0:0:0:
152,380,39148,1,2,0:0:0:0:
228,239,39314,6,0,L|247:350,1,107.999996704102,0|0,3:0|0:0,0:0:0:0:
357,380,39811,2,0,L|347:326,1,53.9999983520508,2|0,0:0|0:0,0:0:0:0:
333,229,40143,1,0,0:0:0:0:
399,164,40308,2,0,P|430:167|461:195,1,53.9999983520508,2|2,0:0|0:0,0:0:0:0:
379,142,40640,1,0,0:0:0:0:
488,52,40806,6,0,P|427:35|382:67,1,107.999996704102,0|2,3:0|0:0,0:0:0:0:
512,26,41468,2,0,P|481:9|451:5,2,53.9999983520508,0|0|2,0:0|0:0|0:0,0:0:0:0:
510,165,41966,2,0,P|473:182|396:161,1,107.999996704102,0|0,3:0|0:0,0:0:0:0:
334,95,42463,2,0,P|282:81|232:100,1,107.999996704102,2|0,0:0|1:0,0:0:0:0:
129,175,42960,1,8,0:0:0:0:
209,219,43126,5,0,3:0:0:0:
232,203,43292,1,0,3:0:0:0:
242,318,43457,6,0,P|289:274|353:268,1,101.250003862381,4|0,3:2|0:0,0:0:0:0:
354,264,43789,2,0,P|334:237|337:183,2,67.5000025749208,2|0|0,0:0|1:0|0:0,0:0:0:0:
354,264,44286,1,0,3:0:0:0:
394,141,44452,6,0,P|435:149|420:284,1,202.500007724762,2|0,3:2|0:0,0:0:0:0:
294,258,45115,2,0,P|328:254|373:283,1,67.5000025749208,0|0,3:0|0:0,0:0:0:0:
213,202,45446,2,0,P|235:175|287:163,1,67.5000025749208,2|0,1:2|0:0,0:0:0:0:
122,220,45778,2,0,P|119:186|147:141,1,67.5000025749208,2|0,0:0|0:0,0:0:0:0:
111,25,46109,6,0,L|128:138,1,101.250003862381,0|0,3:0|0:0,0:0:0:0:
131,155,46441,1,2,0:0:0:0:
111,25,46607,2,0,B|129:62|163:89|163:89|141:133,1,121.499996292114,0|0,1:0|0:0,0:0:0:0:
131,155,46938,1,0,3:0:0:0:
111,25,47104,6,0,P|146:9|204:27,1,67.5000025749208,0|2,3:0|0:0,0:0:0:0:
307,81,47435,2,0,P|229:118|179:72,2,135.000005149842,2|2|0,0:0|3:2|1:0,0:0:0:0:
240,1,48264,1,0,1:0:0:0:
396,133,48430,5,0,3:0:0:0:
454,38,48596,1,8,0:3:0:0:
466,243,48761,6,0,P|410:252|347:217,1,101.250003862381,0|0,3:0|0:0,0:0:0:0:
346,217,49093,1,2,0:0:0:0:
466,243,49259,2,0,B|466:225|457:215|455:206|455:206|400:194|352:217,1,114.750002188683,0|0,1:0|0:0,0:0:0:0:
346,217,49590,1,0,3:0:0:0:
210,133,49756,2,0,P|244:132|275:144,1,67.5000025749208,0|2,3:0|0:0,0:0:0:0:
250,251,50087,2,0,P|210:199|211:132,1,135.000005149842,2|0,0:0|3:0,0:0:0:0:
262,37,50585,1,2,0:0:0:0:
286,20,50750,5,0,1:0:0:0:
148,0,50916,1,8,0:3:0:0:
53,101,51082,1,0,3:0:0:0:
53,101,51413,6,0,P|116:123|157:110,1,101.250003862381,0|0,3:0|0:0,0:0:0:0:
175,96,51745,1,2,0:0:0:0:
53,101,51910,2,0,B|94:119|112:145|112:145|132:117|163:109,1,121.499996292114,0|0,1:0|0:0,0:0:0:0:
175,96,52242,1,0,3:0:0:0:
116,240,52408,6,0,B|123:273|180:292|214:227|182:155|108:144,1,216,2|0,3:2|1:0,0:0:0:0:
0,203,53568,1,0,1:0:0:0:
41,328,53734,5,8,0:3:0:0:
48,306,53899,1,0,3:0:0:0:
144,384,54065,6,0,P|191:340|255:334,1,101.250003862381,4|0,3:2|0:0,0:0:0:0:
257,329,54397,2,0,P|222:343|182:333,2,67.5000025749208,2|0|0,0:0|1:0|0:0,0:0:0:0:
257,329,54894,1,0,3:0:0:0:
207,199,55060,6,0,P|289:244|260:333,1,202.500007724762,2|0,3:2|0:0,0:0:0:0:
197,325,55723,2,0,P|231:321|276:350,1,67.5000025749208,0|0,3:0|0:0,0:0:0:0:
379,245,56054,2,0,P|354:267|300:269,1,67.5000025749208,0|0,1:0|0:0,0:0:0:0:
205,196,56386,2,0,P|240:197|280:233,1,67.5000025749208,0|0,3:0|0:0,0:0:0:0:
130,218,56717,6,0,P|73:222|6:147,1,135.000005149842,0|0,3:0|0:0,0:0:0:0:
78,67,57214,2,0,L|98:147,1,67.5000025749208,0|0,1:0|0:0,0:0:0:0:
208,15,57546,1,0,3:2:0:0:
199,43,57712,1,0,3:0:0:0:
199,43,58043,6,0,P|257:67|300:47,1,67.5000025749208,2|0,0:0|0:0,0:0:0:0:
351,14,58375,1,0,3:0:0:0:
397,152,58540,1,0,3:0:0:0:
347,0,58706,1,0,1:0:0:0:
347,0,59038,5,0,1:0:0:0:
397,152,59203,1,0,1:0:0:0:
319,282,59369,6,0,P|253:309|137:240,1,180,4|0,3:2|1:0,0:0:0:0:
380,284,59866,2,0,P|339:329|201:343,1,180,2|2,3:1|0:0,0:0:0:0:
65,314,60364,2,0,P|87:287|119:358,1,148.50000453186,6|8,3:2|0:3,0:0:0:0:
127,352,61192,1,0,0:0:0:0:
8,231,61358,2,0,P|45:197|88:190,1,67.5000025749208,0|0,3:0|3:0,0:0:0:0:
208,123,61689,2,0,L|106:112,1,80.9999975280763,0|0,1:0|3:0,0:0:0:0:
324,117,62021,6,0,P|351:183|282:299,1,180,4|0,3:2|1:0,0:0:0:0:
326,56,62518,2,0,P|371:97|385:235,1,180,2|2,3:1|0:0,0:0:0:0:
247,329,63015,2,0,P|318:276|362:352,1,197.999996547154,2|0,3:2|0:0,0:0:0:0:
362,352,63678,5,2,0:0:0:0:
367,356,64010,5,0,1:2:0:0:
292,216,64176,1,6,3:2:0:0:
195,347,64341,5,2,0:0:0:0:
197,164,64507,1,2,1:2:0:0:
51,298,64673,6,0,P|89:247|178:255,1,107.999996704102,4|0,3:2|0:0,0:0:0:0:
262,356,65004,2,0,P|198:348|161:267,1,107.999996704102,2|2,1:2|0:0,0:0:0:0:
310,226,65336,1,0,3:0:0:0:
169,318,65502,1,2,0:0:0:0:
320,253,65667,1,2,1:2:0:0:
159,291,65833,1,2,3:2:0:0:
330,280,65999,6,0,P|383:276|435:331,1,107.999996704102,2|0,0:0|3:2,0:0:0:0:
236,277,66330,2,0,P|232:224|287:172,1,107.999996704102,2|2,1:2|0:0,0:0:0:0:
418,117,66662,1,0,3:2:0:0:
261,36,66828,1,2,0:0:0:0:
370,203,66993,2,0,P|416:218|480:193,1,107.999996704102,2|0,1:2|0:0,0:0:0:0:
417,16,67325,6,0,B|332:-5|343:65|253:34,1,161.999995056153,0|0,3:2|0:0,0:0:0:0:
171,2,67656,2,0,L|45:38,1,107.999996704102,2|0,1:2|0:0,0:0:0:0:
242,175,67988,1,2,3:2:0:0:
67,31,68154,1,2,0:0:0:0:
119,248,68319,1,2,1:2:0:0:
209,31,68485,6,0,P|274:13|370:132,1,215.999993408203,2|0,3:2|3:2,0:0:0:0:
395,259,68982,2,0,P|412:204|470:191,1,107.999996704102,2|0,1:2|0:0,0:0:0:0:
302,234,69314,1,0,3:2:0:0:
370,107,69480,1,0,3:2:0:0:
289,257,69645,2,0,P|228:268|213:175,1,161.999995056153,2|0,1:2|0:0,0:0:0:0:
237,70,69977,6,0,L|111:104,1,107.999996704102,6|0,3:2|0:0,0:0:0:0:
39,175,70308,1,2,1:2:0:0:
231,43,70474,2,0,L|105:77,1,107.999996704102,2|0,0:0|3:2,0:0:0:0:
39,175,70806,1,2,0:0:0:0:
231,43,70971,2,0,P|297:37|358:123,1,161.999995056153,2|0,1:2|0:0,0:0:0:0:
393,203,71303,6,0,P|441:163|507:170,1,107.999996704102,2|0,0:0|3:2,0:0:0:0:
270,123,71634,1,2,1:2:0:0:
402,223,71800,2,0,P|450:183|516:190,1,107.999996704102,2|0,0:0|3:2,0:0:0:0:
270,123,72131,1,2,0:0:0:0:
296,301,72297,5,2,1:2:0:0:
379,47,72463,1,0,1:2:0:0:
216,193,72629,6,0,B|106:225|134:150|29:186,1,182.250000695229,6|0,3:2|0:0,0:0:0:0:
18,206,72960,6,0,P|78:189|138:223,1,121.500000463486,2|6,0:0|3:2,0:0:0:0:
201,342,73292,5,2,0:0:0:0:
291,197,73457,1,2,0:0:0:0:
233,357,73623,6,0,B|243:268|243:268|249:254|249:254|260:160,1,188.999994232178,6|8,3:2|0:0,0:0:0:0:
258,170,74949,6,0,P|311:191|361:170,1,90,2|0,0:0|0:0,0:0:0:0:
455,52,75281,6,0,L|427:168,1,107.999996704102,6|0,3:2|0:0,0:0:0:0:
316,288,75612,2,0,L|341:183,1,107.999996704102,2|2,1:2|0:0,0:0:0:0:
373,24,75944,1,0,3:2:0:0:
234,142,76109,1,2,0:0:0:0:
405,130,76275,1,2,1:2:0:0:
255,34,76440,1,0,3:2:0:0:
405,158,76607,6,0,P|464:169|520:113,1,107.999996704102,2|0,0:0|3:2,0:0:0:0:
487,31,76938,1,2,1:2:0:0:
402,190,77104,2,0,L|410:67,1,107.999996704102,2|0,0:0|3:2,0:0:0:0:
314,235,77435,1,2,0:0:0:0:
180,116,77601,2,0,L|214:218,1,107.999996704102,2|2,1:2|0:0,0:0:0:0:
467,271,77933,6,0,P|410:298|318:244,1,161.999995056153,2|0,3:2|0:0,0:0:0:0:
325,258,78264,2,0,P|337:297|264:341,1,107.999996704102,2|0,1:2|0:0,0:0:0:0:
166,335,78596,5,2,3:2:0:0:
325,258,78761,1,0,3:2:0:0:
139,346,78927,2,0,P|70:354|10:324,1,107.999996704102,0|0,1:2|3:2,0:0:0:0:
80,138,79259,6,0,P|99:187|137:226,1,107.999996704102,2|0,0:0|3:2,0:0:0:0:
274,37,79590,2,0,P|230:99|296:188,1,161.999995056153,2|0,1:2|0:0,0:0:0:0:
386,145,79922,2,0,P|388:85|349:36,1,107.999996704102,0|0,3:2|0:0,0:0:0:0:
261,201,80253,5,2,1:2:0:0:
369,15,80419,1,2,1:2:0:0:
429,246,80585,6,0,P|455:281|525:232,1,107.999996704102,6|0,3:2|0:0,0:0:0:0:
425,109,80916,1,2,1:2:0:0:
427,254,81082,2,0,P|453:289|523:240,1,107.999996704102,2|0,0:0|3:2,0:0:0:0:
425,109,81413,1,2,0:0:0:0:
268,234,81579,5,2,1:2:0:0:
205,59,81745,1,2,3:2:0:0:
355,255,81910,6,0,P|317:312|257:322,1,107.999996704102,2|0,0:0|3:2,0:0:0:0:
134,299,82242,1,2,1:2:0:0:
362,265,82408,2,0,P|324:322|264:332,1,107.999996704102,2|0,0:0|3:2,0:0:0:0:
134,299,82739,1,2,3:2:0:0:
280,163,82905,5,2,1:2:0:0:
198,365,83071,1,2,0:0:0:0:
125,128,83236,6,0,P|70:106|16:137,1,107.999996704102,2|0,3:2|0:0,0:0:0:0:
203,8,83568,1,2,1:2:0:0:
120,141,83734,2,0,P|65:119|11:150,1,107.999996704102,2|0,0:0|3:2,0:0:0:0:
203,8,84065,1,2,0:0:0:0:
291,261,84231,5,2,1:2:0:0:
120,141,84397,1,2,3:2:0:0:
256,336,84562,2,0,P|310:345|366:295,1,107.999996704102,2|0,0:0|3:2,0:0:0:0:
382,147,84894,6,0,P|378:175|402:204,1,53.9999983520508,2|0,1:2|0:0,0:0:0:0:
493,172,85060,5,2,0:0:0:0:
497,145,85142,1,8,0:0:0:0:
484,122,85225,2,0,P|452:98|411:96,1,53.9999983520508,0|0,1:2|0:0,0:0:0:0:
343,263,85391,2,0,P|385:279|444:258,1,62.9999980773926,2|0,1:2|0:0,0:0:0:0:
445,60,85557,5,10,0:0:0:0:
324,289,85723,1,2,1:2:0:0:
464,35,85888,6,0,L|485:0,1,40.4999987640381,6|0,3:2|0:0,0:0:0:0:
511,17,86220,5,2,1:2:0:0:
325,44,86386,1,0,3:2:0:0:
500,114,86551,5,2,1:2:0:0:
320,39,86717,1,0,3:2:0:0:
442,193,86883,5,2,1:2:0:0:
315,34,87049,1,0,3:2:0:0:
267,245,87214,6,0,L|255:284,1,40.4999987640381,2|0,1:2|0:0,0:0:0:0:
223,299,87546,5,2,1:2:0:0:
33,233,87712,1,0,3:2:0:0:
147,368,87877,5,2,1:2:0:0:
108,163,88043,1,0,3:2:0:0:
44,338,88209,5,2,1:2:0:0:
211,193,88375,1,0,3:2:0:0:
406,345,88540,6,0,L|445:333,1,40.4999987640381,2|0,1:2|0:0,0:0:0:0:
473,355,88872,5,2,1:2:0:0:
392,146,89038,1,0,3:2:0:0:
310,312,89203,5,2,1:2:0:0:
496,176,89369,1,0,3:2:0:0:
481,378,89535,5,2,1:2:0:0:
383,121,89701,2,0,P|301:62|272:183,1,270.000010299683,6|0,3:2|1:0,0:0:0:0:
192,323,90198,2,0,P|251:298|321:320,1,125.999996154785,2|2,1:2|1:2,0:0:0:0:
335,330,90446,1,0,1:0:0:0:
354,351,90529,5,0,1:0:0:0:
462,308,90695,1,8,0:3:0:0:
454,191,90861,1,2,3:2:0:0:
341,162,91026,1,2,3:2:0:0:
279,261,91192,1,4,3:2:0:0:
