osu file format v14

[General]
AudioFilename: audio.ogg
AudioLeadIn: 0
PreviewTime: 76848
Countdown: 0
SampleSet: Soft
StackLeniency: 0.7
Mode: 3
LetterboxInBreaks: 0
SpecialStyle: 0
WidescreenStoryboard: 1

[Editor]
Bookmarks: 27112,43954,60796,77638,94480,111322
DistanceSpacing: 0.8
BeatDivisor: 4
GridSize: 4
TimelineZoom: 1.2

[Metadata]
Title:Mawaru Sekai de
TitleUnicode:廻る世界で
Artist:Shimotsuki Haruka / riya
ArtistUnicode:霜月はるか / riya
Creator:Muse Dash
Version:Hard
Source:アカイイト
Tags:lgbt+ lgbtq+ pride Nabi- PlayStation 2 PS2 Akai Ito Akaiito Original Soundtrack KICA-1336 yuri Visual Novel op opening short version video game Japanese pop jpop j-pop 寺谷知己 Teratani Tomomi Little Wing MANYO 麓川智之 Fumotogawa Tomoyuki サクセス Success eufonius
BeatmapID:4117595
BeatmapSetID:1851654

[Difficulty]
HPDrainRate:8
CircleSize:4
OverallDifficulty:8
ApproachRate:5
SliderMultiplier:1.4
SliderTickRate:1

[Events]
//Background and Video events
0,0,"034.jpg",0,0
//Break Periods
//Storyboard Layer 0 (Background)
//Storyboard Layer 1 (Fail)
//Storyboard Layer 2 (Pass)
//Storyboard Layer 3 (Foreground)
//Storyboard Layer 4 (Overlay)
//Storyboard Sound Samples

[TimingPoints]
712,600,4,2,2,25,1,0
712,-87.719298245614,4,2,2,25,0,0
27112,526.315789473684,4,2,1,25,1,0
77638,-100,4,2,1,25,0,1
93954,-100,4,2,1,25,0,0
94480,-100,4,2,1,25,0,1
111322,-100,4,2,2,25,0,0

[HitObjects]
64,192,712,128,0,1312:0:0:0:0:
192,192,1012,128,0,1312:0:0:0:0:
320,192,1312,128,0,1612:0:0:0:0:
320,192,1762,128,0,2062:0:0:0:0:
64,192,2212,128,0,2512:0:0:0:0:
320,192,2512,1,0,0:0:0:0:
448,192,2512,128,0,3262:0:0:0:0:
448,192,3412,128,0,3712:0:0:0:0:
64,192,3712,1,0,0:0:0:0:
192,192,3712,128,0,4312:0:0:0:0:
320,192,4312,128,0,4612:0:0:0:0:
64,192,4612,128,0,5512:0:0:0:0:
448,192,4912,128,0,5212:0:0:0:0:
320,192,5212,128,0,5512:0:0:0:0:
192,192,5512,128,0,5812:0:0:0:0:
64,192,5812,128,0,6112:0:0:0:0:
320,192,6112,128,0,7312:0:0:0:0:
192,192,7312,128,0,8512:0:0:0:0:
448,192,7912,128,0,8512:0:0:0:0:
64,192,8512,128,0,10312:0:0:0:0:
320,192,9712,128,0,10312:0:0:0:0:
448,192,10312,128,0,10912:0:0:0:0:
320,192,10612,128,0,10912:0:0:0:0:
192,192,10912,128,0,11212:0:0:0:0:
192,192,11362,128,0,11662:0:0:0:0:
448,192,11812,128,0,12112:0:0:0:0:
64,192,12112,128,0,12862:0:0:0:0:
192,192,12112,1,0,0:0:0:0:
64,192,13012,128,0,13312:0:0:0:0:
320,192,13312,128,0,13612:0:0:0:0:
192,192,13612,128,0,13912:0:0:0:0:
448,192,13912,128,0,14212:0:0:0:0:
192,192,14212,1,0,0:0:0:0:
320,192,14212,128,0,15712:0:0:0:0:
192,192,15112,128,0,15712:0:0:0:0:
64,192,15712,128,0,18112:0:0:0:0:
448,192,16912,128,0,19312:0:0:0:0:
192,192,18112,128,0,19312:0:0:0:0:
320,192,19312,128,0,24412:0:0:0:0:
64,192,20812,128,0,24412:0:0:0:0:
64,192,26812,1,0,0:0:0:0:
320,192,26912,1,0,0:0:0:0:
192,192,27012,1,0,0:0:0:0:
64,192,27112,128,2,27638:0:0:0:0:
320,192,27112,1,4,0:0:0:0:
448,192,27112,128,0,27638:0:0:0:0:
192,192,27638,1,0,0:0:0:0:
192,192,27901,128,0,28427:0:0:0:0:
448,192,28164,128,0,28427:0:0:0:0:
64,192,28427,1,0,0:0:0:0:
448,192,28690,1,0,0:0:0:0:
64,192,28954,128,0,29480:0:0:0:0:
320,192,29217,128,0,29743:0:0:0:0:
448,192,29217,1,0,0:0:0:0:
192,192,29480,128,0,29743:0:0:0:0:
448,192,29743,128,0,30269:0:0:0:0:
320,192,30006,128,0,30269:0:0:0:0:
64,192,30269,1,0,0:0:0:0:
192,192,30533,128,0,30796:0:0:0:0:
320,192,30796,128,0,31059:0:0:0:0:
448,192,31059,128,0,31322:0:0:0:0:
64,192,31322,1,0,0:0:0:0:
192,192,31322,128,0,31848:0:0:0:0:
320,192,31585,128,0,31848:0:0:0:0:
64,192,31848,128,0,32375:0:0:0:0:
448,192,32112,128,0,32638:0:0:0:0:
320,192,32375,1,0,0:0:0:0:
192,192,32638,128,0,32901:0:0:0:0:
64,192,32901,1,0,0:0:0:0:
320,192,33164,128,0,33427:0:0:0:0:
192,192,33427,1,0,0:0:0:0:
448,192,33427,128,0,33954:0:0:0:0:
64,192,33690,128,0,34217:0:0:0:0:
320,192,33954,128,0,34480:0:0:0:0:
192,192,34217,128,0,34480:0:0:0:0:
448,192,34480,1,0,0:0:0:0:
320,192,34743,128,0,35269:0:0:0:0:
64,192,35006,1,0,0:0:0:0:
192,192,35269,1,0,0:0:0:0:
320,192,35533,128,0,36059:0:0:0:0:
448,192,35533,1,0,0:0:0:0:
64,192,35796,128,0,36322:0:0:0:0:
192,192,36059,128,0,36322:0:0:0:0:
448,192,36322,128,0,36848:0:0:0:0:
64,192,36585,1,0,0:0:0:0:
192,192,36848,128,0,37375:0:0:0:0:
320,192,37112,1,0,0:0:0:0:
448,192,37375,128,0,37638:0:0:0:0:
64,192,37638,128,0,38164:0:0:0:0:
192,192,37638,1,0,0:0:0:0:
320,192,37901,128,0,38164:0:0:0:0:
192,192,38164,128,0,38690:0:0:0:0:
448,192,38427,128,0,38690:0:0:0:0:
64,192,38690,1,0,0:0:0:0:
320,192,38954,128,0,39480:0:0:0:0:
64,192,39217,128,0,39480:0:0:0:0:
448,192,39480,128,0,40269:0:0:0:0:
64,192,39743,1,0,0:0:0:0:
192,192,39743,128,0,40533:0:0:0:0:
320,192,40006,1,0,0:0:0:0:
64,192,40269,1,0,0:0:0:0:
448,192,40533,1,0,0:0:0:0:
192,192,40796,128,0,41059:0:0:0:0:
320,192,41059,128,0,41585:0:0:0:0:
64,192,41322,128,0,41848:0:0:0:0:
192,192,41585,128,0,41848:0:0:0:0:
320,192,41848,1,0,0:0:0:0:
448,192,41848,128,0,42111:0:0:0:0:
192,192,42111,1,0,0:0:0:0:
320,192,42243,128,0,42506:0:0:0:0:
64,192,42375,1,0,0:0:0:0:
192,192,42638,128,0,42901:0:0:0:0:
64,192,42901,128,0,43427:0:0:0:0:
448,192,42901,1,0,0:0:0:0:
320,192,43164,1,0,0:0:0:0:
192,192,43427,1,0,0:0:0:0:
448,192,43427,1,0,0:0:0:0:
192,192,43690,1,0,0:0:0:0:
64,192,43954,1,2,0:0:0:0:
320,192,43954,1,4,0:0:0:0:
448,192,43954,128,0,44480:0:0:0:0:
192,192,44480,1,0,0:0:0:0:
192,192,44743,128,2,45269:0:0:0:0:
320,192,44743,1,0,0:0:0:0:
448,192,45006,128,0,45269:0:0:0:0:
64,192,45269,128,0,45533:0:0:0:0:
320,192,45533,1,0,0:0:0:0:
192,192,45796,1,2,0:0:0:0:
448,192,45796,128,0,46322:0:0:0:0:
64,192,46059,1,2,0:0:0:0:
192,192,46059,128,0,46585:0:0:0:0:
320,192,46322,128,0,46585:0:0:0:0:
64,192,46585,128,0,47111:0:0:0:0:
192,192,46848,128,2,47111:0:0:0:0:
448,192,46848,1,0,0:0:0:0:
448,192,47111,128,0,47375:0:0:0:0:
320,192,47375,128,0,47638:0:0:0:0:
192,192,47638,128,0,47901:0:0:0:0:
64,192,47901,128,0,48164:0:0:0:0:
192,192,48164,1,2,0:0:0:0:
448,192,48164,128,0,48427:0:0:0:0:
192,192,48427,1,0,0:0:0:0:
448,192,48690,1,0,0:0:0:0:
64,192,48954,1,2,0:0:0:0:
320,192,48954,128,0,49480:0:0:0:0:
64,192,49217,128,0,49480:0:0:0:0:
192,192,49480,128,0,49743:0:0:0:0:
320,192,49743,128,0,50006:0:0:0:0:
192,192,50006,1,0,0:0:0:0:
448,192,50006,128,0,50269:0:0:0:0:
64,192,50269,128,2,50708:0:0:0:0:
320,192,50269,1,0,0:0:0:0:
448,192,50533,1,0,0:0:0:0:
320,192,50708,128,0,51059:0:0:0:0:
192,192,50796,1,0,0:0:0:0:
448,192,51059,1,2,0:0:0:0:
192,192,51190,1,0,0:0:0:0:
320,192,51256,1,0,0:0:0:0:
64,192,51322,1,0,0:0:0:0:
448,192,51322,128,0,51585:0:0:0:0:
320,192,51585,128,0,51761:0:0:0:0:
192,192,51848,128,0,51980:0:0:0:0:
64,192,52111,1,0,0:0:0:0:
192,192,52375,128,2,52901:0:0:0:0:
448,192,52375,1,0,0:0:0:0:
448,192,52638,128,0,53164:0:0:0:0:
320,192,52901,128,0,53164:0:0:0:0:
64,192,53164,1,2,0:0:0:0:
192,192,53164,128,0,53690:0:0:0:0:
448,192,53427,1,0,0:0:0:0:
320,192,53690,128,0,54217:0:0:0:0:
192,192,53954,1,0,0:0:0:0:
64,192,54217,128,0,54743:0:0:0:0:
320,192,54480,1,2,0:0:0:0:
448,192,54480,128,0,55006:0:0:0:0:
192,192,54743,128,0,55006:0:0:0:0:
320,192,55006,128,0,55269:0:0:0:0:
64,192,55269,128,2,55796:0:0:0:0:
192,192,55269,1,0,0:0:0:0:
320,192,55533,1,0,0:0:0:0:
448,192,55533,128,0,55796:0:0:0:0:
192,192,55796,128,0,56322:0:0:0:0:
64,192,56059,1,0,0:0:0:0:
448,192,56059,128,0,56322:0:0:0:0:
320,192,56322,128,0,56848:0:0:0:0:
64,192,56585,128,2,57111:0:0:0:0:
192,192,56585,1,0,0:0:0:0:
448,192,56848,128,0,57375:0:0:0:0:
192,192,57111,1,0,0:0:0:0:
64,192,57375,1,2,0:0:0:0:
320,192,57375,1,0,0:0:0:0:
64,192,57638,128,0,57901:0:0:0:0:
192,192,57901,128,0,58427:0:0:0:0:
64,192,58164,1,0,0:0:0:0:
448,192,58164,128,0,58690:0:0:0:0:
320,192,58427,128,0,58690:0:0:0:0:
64,192,58690,128,2,59085:0:0:0:0:
192,192,58690,1,0,0:0:0:0:
320,192,58954,1,0,0:0:0:0:
192,192,59085,128,0,59480:0:0:0:0:
448,192,59217,1,0,0:0:0:0:
64,192,59480,1,2,0:0:0:0:
320,192,59480,128,0,59743:0:0:0:0:
192,192,59743,1,0,0:0:0:0:
448,192,59743,128,0,60138:0:0:0:0:
320,192,60006,1,2,0:0:0:0:
64,192,60269,1,8,0:0:0:0:
192,192,60269,1,0,0:0:0:0:
448,192,60269,1,0,0:0:0:0:
192,192,60533,1,2,0:0:0:0:
64,192,60796,1,2,0:0:0:0:
320,192,60796,128,4,61190:0:0:0:0:
448,192,60796,1,0,0:0:0:0:
64,192,61190,1,0,0:0:0:0:
192,192,61322,1,8,0:0:0:0:
320,192,61322,1,0,0:0:0:0:
448,192,61322,1,0,0:0:0:0:
64,192,61585,1,2,0:0:0:0:
192,192,61585,128,0,61980:0:0:0:0:
320,192,61717,1,2,0:0:0:0:
448,192,61848,128,0,62243:0:0:0:0:
64,192,62111,1,2,0:0:0:0:
192,192,62111,1,0,0:0:0:0:
64,192,62375,128,8,62769:0:0:0:0:
192,192,62375,1,0,0:0:0:0:
448,192,62375,1,0,0:0:0:0:
320,192,62638,1,2,0:0:0:0:
64,192,62901,128,2,63559:0:0:0:0:
192,192,62901,1,0,0:0:0:0:
448,192,63164,1,0,0:0:0:0:
320,192,63296,1,0,0:0:0:0:
192,192,63427,1,8,0:0:0:0:
448,192,63427,1,0,0:0:0:0:
64,192,63690,1,2,0:0:0:0:
448,192,63690,128,0,64348:0:0:0:0:
192,192,63822,128,2,64085:0:0:0:0:
192,192,64217,128,2,64480:0:0:0:0:
320,192,64217,1,0,0:0:0:0:
64,192,64480,1,8,0:0:0:0:
320,192,64480,128,0,64875:0:0:0:0:
448,192,64480,1,0,0:0:0:0:
192,192,64611,1,0,0:0:0:0:
448,192,64743,1,2,0:0:0:0:
64,192,65006,1,2,0:0:0:0:
320,192,65006,128,0,65796:0:0:0:0:
448,192,65269,1,0,0:0:0:0:
192,192,65401,1,0,0:0:0:0:
64,192,65533,128,8,66059:0:0:0:0:
448,192,65533,1,0,0:0:0:0:
192,192,65796,128,2,66059:0:0:0:0:
320,192,65927,1,2,0:0:0:0:
448,192,66059,128,0,66454:0:0:0:0:
64,192,66190,1,2,0:0:0:0:
320,192,66322,128,0,66585:0:0:0:0:
64,192,66585,1,8,0:0:0:0:
192,192,66585,128,0,66980:0:0:0:0:
448,192,66585,1,0,0:0:0:0:
448,192,66848,128,0,67111:0:0:0:0:
192,192,67111,1,2,0:0:0:0:
320,192,67111,128,0,67506:0:0:0:0:
64,192,67375,128,0,67638:0:0:0:0:
192,192,67638,1,8,0:0:0:0:
320,192,67638,1,0,0:0:0:0:
448,192,67638,128,0,67901:0:0:0:0:
64,192,67901,1,0,0:0:0:0:
192,192,67901,128,0,68296:0:0:0:0:
448,192,68033,128,2,68427:0:0:0:0:
320,192,68296,1,0,0:0:0:0:
64,192,68427,128,2,68559:0:0:0:0:
192,192,68427,1,0,0:0:0:0:
64,192,68690,1,8,0:0:0:0:
192,192,68690,1,0,0:0:0:0:
320,192,68690,128,0,68822:0:0:0:0:
320,192,68954,1,2,0:0:0:0:
192,192,69085,1,0,0:0:0:0:
448,192,69151,1,0,0:0:0:0:
64,192,69217,128,2,69611:0:0:0:0:
320,192,69217,1,4,0:0:0:0:
320,192,69611,1,0,0:0:0:0:
64,192,69743,128,8,70006:0:0:0:0:
192,192,69743,1,0,0:0:0:0:
448,192,69743,1,0,0:0:0:0:
320,192,70006,128,2,70269:0:0:0:0:
448,192,70006,1,0,0:0:0:0:
64,192,70138,128,2,70401:0:0:0:0:
192,192,70269,128,0,70401:0:0:0:0:
192,192,70533,128,2,70664:0:0:0:0:
320,192,70533,1,0,0:0:0:0:
64,192,70796,1,8,0:0:0:0:
192,192,70796,1,0,0:0:0:0:
448,192,70796,128,0,71059:0:0:0:0:
64,192,71059,1,2,0:0:0:0:
320,192,71059,128,0,71322:0:0:0:0:
192,192,71322,128,2,71980:0:0:0:0:
448,192,71322,1,0,0:0:0:0:
320,192,71585,1,0,0:0:0:0:
64,192,71717,1,0,0:0:0:0:
320,192,71848,1,8,0:0:0:0:
448,192,71848,1,0,0:0:0:0:
192,192,72111,1,0,0:0:0:0:
448,192,72111,128,0,72375:0:0:0:0:
320,192,72243,1,2,0:0:0:0:
448,192,72506,1,0,0:0:0:0:
64,192,72638,128,2,72901:0:0:0:0:
192,192,72638,1,0,0:0:0:0:
192,192,72901,128,8,73164:0:0:0:0:
320,192,72901,1,0,0:0:0:0:
448,192,72901,1,0,0:0:0:0:
64,192,73164,1,2,0:0:0:0:
320,192,73164,128,0,73427:0:0:0:0:
192,192,73427,1,2,0:0:0:0:
448,192,73427,128,0,73822:0:0:0:0:
64,192,73690,1,0,0:0:0:0:
320,192,73822,1,0,0:0:0:0:
192,192,73954,128,8,74217:0:0:0:0:
448,192,73954,1,0,0:0:0:0:
64,192,74217,128,2,74875:0:0:0:0:
320,192,74217,1,0,0:0:0:0:
448,192,74480,1,0,0:0:0:0:
320,192,74611,1,2,0:0:0:0:
192,192,74743,1,0,0:0:0:0:
64,192,75006,1,8,0:0:0:0:
320,192,75006,1,0,0:0:0:0:
448,192,75006,1,0,0:0:0:0:
64,192,75269,1,2,0:0:0:0:
192,192,75269,1,0,0:0:0:0:
320,192,75533,1,2,0:0:0:0:
448,192,75533,1,0,0:0:0:0:
320,192,75796,1,2,0:0:0:0:
64,192,75927,1,8,0:0:0:0:
192,192,75927,1,0,0:0:0:0:
448,192,75927,1,0,0:0:0:0:
192,192,76190,1,2,0:0:0:0:
64,192,76322,1,2,0:0:0:0:
448,192,76322,1,0,0:0:0:0:
320,192,76454,1,2,0:0:0:0:
64,192,76585,1,8,0:0:0:0:
192,192,76585,1,0,0:0:0:0:
64,192,76717,1,8,0:0:0:0:
192,192,76717,1,0,0:0:0:0:
320,192,76848,1,2,0:0:0:0:
448,192,76848,1,0,0:0:0:0:
320,192,76980,1,2,0:0:0:0:
64,192,77111,128,2,77375:0:0:0:0:
192,192,77243,1,2,0:0:0:0:
192,192,77375,128,8,77638:0:0:0:0:
320,192,77375,1,0,0:0:0:0:
64,192,77638,128,2,77901:0:0:0:0:
320,192,77638,128,4,78033:0:0:0:0:
448,192,77638,1,0,0:0:0:0:
448,192,77901,1,2,0:0:0:0:
64,192,78033,1,8,0:0:0:0:
192,192,78033,1,0,0:0:0:0:
448,192,78033,128,0,78427:0:0:0:0:
192,192,78296,1,0,0:0:0:0:
64,192,78427,128,0,78559:0:0:0:0:
320,192,78427,1,0,0:0:0:0:
192,192,78559,1,2,0:0:0:0:
448,192,78559,1,0,0:0:0:0:
64,192,78690,128,0,79085:0:0:0:0:
320,192,78822,1,0,0:0:0:0:
448,192,78954,1,2,0:0:0:0:
192,192,79085,1,0,0:0:0:0:
64,192,79217,1,8,0:0:0:0:
320,192,79217,1,0,0:0:0:0:
448,192,79217,1,0,0:0:0:0:
64,192,79480,1,8,0:0:0:0:
192,192,79480,128,0,79611:0:0:0:0:
448,192,79480,1,0,0:0:0:0:
192,192,79743,128,2,80006:0:0:0:0:
320,192,79743,1,0,0:0:0:0:
64,192,80006,1,2,0:0:0:0:
320,192,80006,128,0,80269:0:0:0:0:
64,192,80138,1,8,0:0:0:0:
192,192,80138,1,0,0:0:0:0:
448,192,80269,128,0,80533:0:0:0:0:
320,192,80401,1,0,0:0:0:0:
64,192,80533,128,0,80927:0:0:0:0:
192,192,80533,1,0,0:0:0:0:
192,192,80664,1,2,0:0:0:0:
448,192,80796,128,0,81059:0:0:0:0:
320,192,80927,128,0,81190:0:0:0:0:
64,192,81059,1,2,0:0:0:0:
192,192,81059,1,0,0:0:0:0:
448,192,81190,1,0,0:0:0:0:
64,192,81322,1,8,0:0:0:0:
320,192,81322,1,0,0:0:0:0:
320,192,81454,1,8,0:0:0:0:
448,192,81454,1,0,0:0:0:0:
64,192,81585,1,2,0:0:0:0:
192,192,81651,1,2,0:0:0:0:
320,192,81717,1,2,0:0:0:0:
192,192,81848,128,2,82111:0:0:0:0:
448,192,81848,1,0,0:0:0:0:
320,192,81980,1,0,0:0:0:0:
64,192,82111,1,2,0:0:0:0:
192,192,82243,1,8,0:0:0:0:
320,192,82243,1,0,0:0:0:0:
448,192,82243,128,0,82506:0:0:0:0:
64,192,82375,128,0,82638:0:0:0:0:
320,192,82506,1,0,0:0:0:0:
192,192,82638,1,0,0:0:0:0:
64,192,82769,1,2,0:0:0:0:
192,192,82769,1,0,0:0:0:0:
320,192,82901,128,0,83164:0:0:0:0:
448,192,82901,1,0,0:0:0:0:
192,192,83033,1,0,0:0:0:0:
64,192,83164,1,2,0:0:0:0:
448,192,83164,1,0,0:0:0:0:
320,192,83296,1,0,0:0:0:0:
64,192,83427,1,8,0:0:0:0:
192,192,83427,1,0,0:0:0:0:
448,192,83427,128,0,83690:0:0:0:0:
64,192,83690,128,8,84085:0:0:0:0:
192,192,83690,1,0,0:0:0:0:
320,192,83690,1,0,0:0:0:0:
192,192,83954,1,2,0:0:0:0:
448,192,83954,1,0,0:0:0:0:
192,192,84085,1,0,0:0:0:0:
320,192,84217,128,2,84480:0:0:0:0:
448,192,84217,1,0,0:0:0:0:
64,192,84348,1,8,0:0:0:0:
448,192,84348,1,0,0:0:0:0:
192,192,84480,128,0,84743:0:0:0:0:
320,192,84611,128,0,84875:0:0:0:0:
64,192,84743,1,0,0:0:0:0:
192,192,84875,1,2,0:0:0:0:
448,192,84875,1,0,0:0:0:0:
64,192,85006,1,0,0:0:0:0:
320,192,85006,128,0,85269:0:0:0:0:
448,192,85138,128,0,85401:0:0:0:0:
192,192,85269,1,2,0:0:0:0:
320,192,85401,1,0,0:0:0:0:
64,192,85533,1,2,0:0:0:0:
320,192,85533,1,0,0:0:0:0:
64,192,85664,1,8,0:0:0:0:
192,192,85664,1,0,0:0:0:0:
448,192,85796,1,2,0:0:0:0:
320,192,85861,1,2,0:0:0:0:
192,192,85927,1,2,0:0:0:0:
64,192,86059,128,2,86454:0:0:0:0:
320,192,86059,128,4,86322:0:0:0:0:
448,192,86059,1,0,0:0:0:0:
192,192,86322,1,2,0:0:0:0:
192,192,86454,1,8,0:0:0:0:
320,192,86454,128,0,86717:0:0:0:0:
448,192,86454,1,0,0:0:0:0:
64,192,86585,1,0,0:0:0:0:
448,192,86717,1,0,0:0:0:0:
64,192,86848,1,0,0:0:0:0:
192,192,86848,128,0,86980:0:0:0:0:
320,192,86980,1,2,0:0:0:0:
448,192,86980,1,0,0:0:0:0:
192,192,87111,128,0,87506:0:0:0:0:
448,192,87243,1,0,0:0:0:0:
64,192,87375,1,2,0:0:0:0:
320,192,87506,1,0,0:0:0:0:
64,192,87638,1,8,0:0:0:0:
192,192,87638,1,0,0:0:0:0:
320,192,87638,1,0,0:0:0:0:
192,192,87901,1,8,0:0:0:0:
320,192,87901,1,0,0:0:0:0:
448,192,87901,128,0,88033:0:0:0:0:
192,192,88033,1,0,0:0:0:0:
320,192,88164,128,2,88296:0:0:0:0:
448,192,88164,128,0,88427:0:0:0:0:
192,192,88427,128,2,88559:0:0:0:0:
320,192,88427,1,0,0:0:0:0:
64,192,88559,1,8,0:0:0:0:
448,192,88559,1,0,0:0:0:0:
192,192,88690,128,0,88954:0:0:0:0:
320,192,88822,1,0,0:0:0:0:
64,192,88954,128,0,89217:0:0:0:0:
320,192,88954,1,0,0:0:0:0:
448,192,89085,1,2,0:0:0:0:
192,192,89217,1,0,0:0:0:0:
320,192,89217,128,0,89480:0:0:0:0:
64,192,89348,1,0,0:0:0:0:
192,192,89480,128,2,89743:0:0:0:0:
448,192,89480,1,0,0:0:0:0:
64,192,89611,1,0,0:0:0:0:
64,192,89743,1,8,0:0:0:0:
320,192,89743,1,0,0:0:0:0:
192,192,89875,1,8,0:0:0:0:
448,192,89875,1,0,0:0:0:0:
320,192,90006,1,2,0:0:0:0:
192,192,90072,1,2,0:0:0:0:
64,192,90138,1,2,0:0:0:0:
320,192,90269,1,2,0:0:0:0:
448,192,90269,128,0,91059:0:0:0:0:
192,192,90401,1,0,0:0:0:0:
192,192,90533,1,2,0:0:0:0:
64,192,90664,1,8,0:0:0:0:
320,192,90664,1,0,0:0:0:0:
192,192,90796,128,0,91059:0:0:0:0:
64,192,90927,1,0,0:0:0:0:
320,192,91059,128,0,91322:0:0:0:0:
192,192,91190,1,2,0:0:0:0:
448,192,91322,128,0,91585:0:0:0:0:
320,192,91454,1,0,0:0:0:0:
64,192,91585,1,2,0:0:0:0:
192,192,91585,128,0,91848:0:0:0:0:
320,192,91717,1,0,0:0:0:0:
64,192,91848,128,8,92111:0:0:0:0:
320,192,91848,1,0,0:0:0:0:
448,192,91848,1,0,0:0:0:0:
192,192,91980,1,0,0:0:0:0:
192,192,92111,1,0,0:0:0:0:
320,192,92111,128,0,92243:0:0:0:0:
64,192,92375,1,2,0:0:0:0:
320,192,92375,128,0,92638:0:0:0:0:
448,192,92375,1,0,0:0:0:0:
192,192,92506,1,0,0:0:0:0:
64,192,92638,128,2,92769:0:0:0:0:
448,192,92638,1,0,0:0:0:0:
192,192,92769,128,8,93033:0:0:0:0:
320,192,92769,1,0,0:0:0:0:
448,192,92901,128,0,93033:0:0:0:0:
320,192,93033,128,0,93296:0:0:0:0:
192,192,93164,1,0,0:0:0:0:
64,192,93296,1,2,0:0:0:0:
448,192,93296,1,0,0:0:0:0:
64,192,93427,128,2,93690:0:0:0:0:
320,192,93427,1,0,0:0:0:0:
320,192,93559,1,0,0:0:0:0:
192,192,93690,1,8,0:0:0:0:
448,192,93690,1,0,0:0:0:0:
192,192,93822,1,2,0:0:0:0:
320,192,93822,128,0,94085:0:0:0:0:
64,192,93954,1,8,0:0:0:0:
448,192,93954,1,4,0:0:0:0:
64,192,94085,1,8,0:0:0:0:
192,192,94085,1,0,0:0:0:0:
448,192,94217,1,2,0:0:0:0:
320,192,94283,1,2,0:0:0:0:
192,192,94348,1,2,0:0:0:0:
64,192,94414,1,2,0:0:0:0:
320,192,94480,128,2,94743:0:0:0:0:
448,192,94480,128,4,94743:0:0:0:0:
192,192,94743,128,2,94875:0:0:0:0:
64,192,94875,128,8,95269:0:0:0:0:
320,192,94875,1,0,0:0:0:0:
448,192,94875,128,0,95006:0:0:0:0:
192,192,95138,1,0,0:0:0:0:
320,192,95269,128,0,95401:0:0:0:0:
448,192,95269,1,0,0:0:0:0:
64,192,95401,1,2,0:0:0:0:
192,192,95401,1,0,0:0:0:0:
320,192,95533,128,0,95927:0:0:0:0:
448,192,95664,1,0,0:0:0:0:
192,192,95796,1,2,0:0:0:0:
192,192,95927,1,0,0:0:0:0:
64,192,96059,128,8,96190:0:0:0:0:
320,192,96059,1,0,0:0:0:0:
448,192,96059,1,0,0:0:0:0:
64,192,96322,1,8,0:0:0:0:
192,192,96322,128,0,96454:0:0:0:0:
448,192,96322,1,0,0:0:0:0:
320,192,96454,1,0,0:0:0:0:
192,192,96585,1,2,0:0:0:0:
320,192,96585,128,0,96848:0:0:0:0:
192,192,96848,128,2,97111:0:0:0:0:
448,192,96848,1,0,0:0:0:0:
320,192,96980,1,8,0:0:0:0:
448,192,96980,1,0,0:0:0:0:
64,192,97111,128,0,97506:0:0:0:0:
320,192,97243,1,0,0:0:0:0:
320,192,97375,128,0,97769:0:0:0:0:
192,192,97506,1,2,0:0:0:0:
448,192,97638,128,0,97901:0:0:0:0:
64,192,97769,1,0,0:0:0:0:
192,192,97901,128,2,98164:0:0:0:0:
320,192,97901,1,0,0:0:0:0:
448,192,98033,1,0,0:0:0:0:
64,192,98164,1,8,0:0:0:0:
320,192,98164,1,0,0:0:0:0:
64,192,98296,1,8,0:0:0:0:
192,192,98296,1,0,0:0:0:0:
448,192,98427,1,2,0:0:0:0:
320,192,98493,1,2,0:0:0:0:
192,192,98559,1,2,0:0:0:0:
64,192,98690,1,2,0:0:0:0:
320,192,98690,128,0,98954:0:0:0:0:
192,192,98822,1,0,0:0:0:0:
448,192,98954,1,2,0:0:0:0:
64,192,99085,128,8,99348:0:0:0:0:
192,192,99085,1,0,0:0:0:0:
320,192,99085,1,0,0:0:0:0:
448,192,99217,128,0,99480:0:0:0:0:
192,192,99348,1,0,0:0:0:0:
320,192,99480,1,0,0:0:0:0:
320,192,99611,1,2,0:0:0:0:
448,192,99611,1,0,0:0:0:0:
64,192,99743,1,0,0:0:0:0:
192,192,99743,128,0,100006:0:0:0:0:
448,192,99875,1,0,0:0:0:0:
64,192,100006,1,2,0:0:0:0:
320,192,100006,128,0,100138:0:0:0:0:
192,192,100138,1,0,0:0:0:0:
64,192,100269,128,8,100401:0:0:0:0:
320,192,100269,128,0,100533:0:0:0:0:
448,192,100269,1,0,0:0:0:0:
64,192,100533,1,8,0:0:0:0:
192,192,100533,128,0,100796:0:0:0:0:
448,192,100533,128,0,100927:0:0:0:0:
64,192,100796,1,2,0:0:0:0:
320,192,100796,128,0,100927:0:0:0:0:
192,192,100927,1,0,0:0:0:0:
64,192,101059,128,2,101322:0:0:0:0:
320,192,101059,1,0,0:0:0:0:
192,192,101190,1,8,0:0:0:0:
448,192,101190,1,0,0:0:0:0:
320,192,101322,128,0,101585:0:0:0:0:
192,192,101454,128,0,101717:0:0:0:0:
448,192,101585,1,0,0:0:0:0:
64,192,101717,1,2,0:0:0:0:
320,192,101717,1,0,0:0:0:0:
192,192,101848,128,0,102111:0:0:0:0:
448,192,101848,1,0,0:0:0:0:
64,192,101980,128,0,102243:0:0:0:0:
320,192,102111,1,2,0:0:0:0:
192,192,102243,1,2,0:0:0:0:
192,192,102375,1,8,0:0:0:0:
448,192,102375,1,0,0:0:0:0:
64,192,102506,1,2,0:0:0:0:
448,192,102506,1,0,0:0:0:0:
64,192,102638,1,8,0:0:0:0:
320,192,102638,1,0,0:0:0:0:
320,192,102769,1,2,0:0:0:0:
64,192,102901,1,2,0:0:0:0:
192,192,102901,128,4,103164:0:0:0:0:
448,192,102901,128,0,103296:0:0:0:0:
320,192,103164,1,2,0:0:0:0:
64,192,103296,1,8,0:0:0:0:
192,192,103296,128,0,103559:0:0:0:0:
320,192,103296,1,0,0:0:0:0:
448,192,103427,1,0,0:0:0:0:
64,192,103559,1,0,0:0:0:0:
320,192,103690,128,0,103822:0:0:0:0:
448,192,103690,1,0,0:0:0:0:
64,192,103822,1,2,0:0:0:0:
192,192,103822,1,0,0:0:0:0:
320,192,103954,128,0,104348:0:0:0:0:
64,192,104085,1,0,0:0:0:0:
448,192,104217,1,2,0:0:0:0:
192,192,104348,1,0,0:0:0:0:
192,192,104480,1,8,0:0:0:0:
320,192,104480,1,0,0:0:0:0:
448,192,104480,128,0,104611:0:0:0:0:
64,192,104743,128,8,104875:0:0:0:0:
320,192,104743,1,0,0:0:0:0:
448,192,104743,1,0,0:0:0:0:
320,192,104875,1,0,0:0:0:0:
64,192,105006,128,2,105269:0:0:0:0:
192,192,105006,128,0,105138:0:0:0:0:
192,192,105269,1,2,0:0:0:0:
320,192,105269,128,0,105401:0:0:0:0:
64,192,105401,1,8,0:0:0:0:
448,192,105401,1,0,0:0:0:0:
320,192,105533,128,0,105796:0:0:0:0:
192,192,105664,1,0,0:0:0:0:
192,192,105796,1,0,0:0:0:0:
448,192,105796,128,0,106059:0:0:0:0:
64,192,105927,1,2,0:0:0:0:
192,192,106059,128,0,106322:0:0:0:0:
320,192,106059,1,0,0:0:0:0:
448,192,106190,1,0,0:0:0:0:
64,192,106322,1,2,0:0:0:0:
320,192,106322,128,0,106585:0:0:0:0:
448,192,106454,1,0,0:0:0:0:
192,192,106585,1,8,0:0:0:0:
448,192,106585,1,0,0:0:0:0:
64,192,106717,1,8,0:0:0:0:
320,192,106717,1,0,0:0:0:0:
192,192,106848,1,2,0:0:0:0:
320,192,106914,1,2,0:0:0:0:
448,192,106980,1,2,0:0:0:0:
64,192,107111,128,2,107375:0:0:0:0:
192,192,107111,1,0,0:0:0:0:
448,192,107243,1,0,0:0:0:0:
320,192,107375,1,2,0:0:0:0:
64,192,107506,1,8,0:0:0:0:
320,192,107506,128,0,107901:0:0:0:0:
448,192,107506,1,0,0:0:0:0:
192,192,107638,1,0,0:0:0:0:
448,192,107769,128,0,108033:0:0:0:0:
64,192,107901,1,0,0:0:0:0:
192,192,107901,128,0,108164:0:0:0:0:
320,192,108033,1,2,0:0:0:0:
64,192,108164,128,0,108427:0:0:0:0:
448,192,108164,1,0,0:0:0:0:
192,192,108296,1,0,0:0:0:0:
320,192,108427,128,2,108690:0:0:0:0:
448,192,108427,1,0,0:0:0:0:
192,192,108559,1,0,0:0:0:0:
64,192,108690,1,8,0:0:0:0:
192,192,108690,128,0,108954:0:0:0:0:
448,192,108690,1,0,0:0:0:0:
320,192,108822,1,0,0:0:0:0:
64,192,108954,1,8,0:0:0:0:
320,192,108954,1,0,0:0:0:0:
448,192,108954,128,0,109480:0:0:0:0:
64,192,109217,128,2,109480:0:0:0:0:
320,192,109217,1,0,0:0:0:0:
192,192,109480,1,2,0:0:0:0:
320,192,109480,1,0,0:0:0:0:
64,192,109611,1,8,0:0:0:0:
192,192,109611,1,4,0:0:0:0:
448,192,109611,1,0,0:0:0:0:
320,192,109743,128,0,110006:0:0:0:0:
64,192,109875,1,0,0:0:0:0:
192,192,110006,128,0,110269:0:0:0:0:
320,192,110138,1,2,0:0:0:0:
64,192,110269,1,2,0:0:0:0:
320,192,110269,1,0,0:0:0:0:
192,192,110401,1,8,0:0:0:0:
448,192,110401,1,0,0:0:0:0:
320,192,110533,1,8,0:0:0:0:
448,192,110533,1,0,0:0:0:0:
64,192,110664,1,2,0:0:0:0:
192,192,110730,1,0,0:0:0:0:
320,192,110796,1,6,0:0:0:0:
448,192,110861,1,0,0:0:0:0:
64,192,110927,1,8,0:0:0:0:
192,192,110927,1,0,0:0:0:0:
64,192,111059,1,2,0:0:0:0:
320,192,111059,128,0,111322:0:0:0:0:
192,192,111322,1,0,0:0:0:0:
448,192,111322,128,0,111848:0:0:0:0:
64,192,112111,1,0,0:0:0:0:
192,192,112177,1,0,0:0:0:0:
320,192,112243,1,0,0:0:0:0:
64,192,112375,128,0,112769:0:0:0:0:
320,192,112901,128,0,113296:0:0:0:0:
192,192,113427,128,0,113822:0:0:0:0:
448,192,113822,128,0,114217:0:0:0:0:
320,192,114480,128,0,114743:0:0:0:0:
64,192,115006,128,0,115269:0:0:0:0:
192,192,115533,128,0,115796:0:0:0:0:
448,192,115927,128,0,116190:0:0:0:0:
320,192,116585,128,0,116848:0:0:0:0:
64,192,117111,128,0,117375:0:0:0:0:
