osu file format v14

[General]
AudioFilename: audio.mp3
AudioLeadIn: 0
PreviewTime: 10100
Countdown: 0
SampleSet: Drum
StackLeniency: 0.7
Mode: 0
LetterboxInBreaks: 0
WidescreenStoryboard: 1

[Editor]
Bookmarks: 6479,10100,19756,29411,39067,51136,101827
DistanceSpacing: 1
BeatDivisor: 4
GridSize: 8
TimelineZoom: 1

[Metadata]
Title:Saranaru Otenami Haiken!
TitleUnicode:更なるお手並み拝見!
Artist:Shimomura Yoko
ArtistUnicode:下村陽子
Creator:StarCastler
Version:Normal
Source:マリオ&ルイージRPG
Tags:Mario & Luigi Superstar Saga Youko nintendo alphadream videogame ost instrumental boss battle game boy advance gba vgm
BeatmapID:2200019
BeatmapSetID:1052734

[Difficulty]
HPDrainRate:3
CircleSize:3
OverallDifficulty:5
ApproachRate:6
SliderMultiplier:1.3
SliderTickRate:1

[Events]
//Background and Video events
0,0,"SI_GBA_MarioAndLugiSuperStarSaga_image1600w.jpg",0,0
//Break Periods
//Storyboard Layer 0 (Background)
//Storyboard Layer 1 (Fail)
//Storyboard Layer 2 (Pass)
//Storyboard Layer 3 (Foreground)
//Storyboard Layer 4 (Overlay)
//Storyboard Sound Samples

[TimingPoints]
445,301.734976112648,4,3,0,65,1,0
19756,-100,4,3,0,65,0,1
29411,-100,4,3,0,65,0,0
39067,-100,4,2,0,65,0,0
43894,-100,4,3,0,65,0,0
70447,-100,4,3,0,65,0,1
80103,-100,4,3,0,65,0,0
89758,-100,4,2,0,65,0,0
94586,-100,4,3,0,65,0,0

[Colours]
Combo1 : 128,255,128
Combo2 : 255,0,0
Combo3 : 255,128,128
Combo4 : 0,255,0

[HitObjects]
256,56,445,5,4,0:3:0:0:
256,192,746,1,2,1:2:0:0:
256,192,897,1,2,0:3:0:0:
64,232,1350,1,2,1:2:0:0:
64,232,1501,2,2,P|320:368|448:232,1,520,2|0,0:3|0:3,0:2:0:0:
256,192,3160,5,2,1:2:0:0:
144,256,3462,1,2,0:3:0:0:
64,152,3764,1,0,1:3:0:0:
64,152,3914,2,2,P|320:16|448:152,1,520,2|0,0:3|0:3,0:2:0:0:
256,136,5574,5,2,1:2:0:0:
192,248,5876,1,2,0:3:0:0:
320,248,6177,1,0,1:3:0:0:
320,248,6328,1,2,0:2:0:0:
448,152,6630,6,0,P|456:88|448:24,1,130,2|2,0:2|0:2,0:0:0:0:
320,24,7234,2,0,P|312:88|320:152,1,130,2|2,0:2|0:2,0:0:0:0:
192,152,7837,6,0,P|200:88|192:24,1,130,2|2,0:1|0:1,0:0:0:0:
64,24,8440,2,0,P|56:88|64:152,1,130,2|2,0:1|0:1,0:0:0:0:
64,280,9044,5,4,0:2:0:0:
152,376,9346,1,4,0:2:0:0:
152,248,9647,1,4,0:2:0:0:
256,328,9949,1,4,0:2:0:0:
256,328,10100,5,4,0:3:0:0:
256,192,10402,1,2,1:2:0:0:
256,192,10553,1,2,0:3:0:0:
448,152,11005,1,2,1:2:0:0:
448,152,11156,2,2,P|192:16|64:152,1,520,2|0,0:3|0:3,0:2:0:0:
256,192,12816,5,2,1:2:0:0:
368,128,13117,1,2,0:3:0:0:
448,232,13419,1,0,1:3:0:0:
448,232,13570,2,2,P|192:368|64:232,1,520,2|0,0:3|0:3,0:2:0:0:
256,248,15230,5,2,1:2:0:0:
320,136,15531,1,2,0:3:0:0:
192,136,15833,1,0,1:3:0:0:
192,136,15984,1,2,0:2:0:0:
64,232,16286,6,0,P|56:296|64:360,1,130,2|2,0:2|0:2,0:0:0:0:
192,360,16889,2,0,P|200:296|192:232,1,130,2|2,0:2|0:2,0:0:0:0:
320,232,17493,6,0,P|312:296|320:360,1,130,2|2,0:1|0:1,0:0:0:0:
448,360,18096,2,0,P|456:296|448:232,1,130,2|2,0:1|0:1,0:0:0:0:
448,104,18699,5,4,0:2:0:0:
376,0,19001,1,4,0:2:0:0:
256,56,19303,1,4,0:2:0:0:
256,192,19605,1,4,0:2:0:0:
256,192,19756,6,0,B|256:288|352:288|352:288,2,130,4|2|4,0:0|1:2|0:0,0:0:0:0:
384,192,20661,1,2,1:2:0:0:
512,192,20962,6,0,B|512:96|416:96|416:96,2,130,4|2|4,0:3|1:2|0:3,0:0:0:0:
512,320,21868,1,2,1:2:0:0:
448,320,22019,1,2,1:2:0:0:
384,320,22169,6,0,B|288:320|288:224|288:224,2,130,4|2|4,0:3|1:2|0:3,0:0:0:0:
384,192,23075,1,2,1:2:0:0:
384,64,23376,6,0,B|480:64|480:160|480:160,2,130,4|2|4,0:3|1:2|0:3,0:0:0:0:
384,192,24282,1,2,1:2:0:0:
320,192,24432,1,2,1:2:0:0:
256,192,24583,6,0,B|256:96|160:96|160:96,2,130,4|2|4,0:3|1:2|0:3,0:0:0:0:
128,192,25489,1,2,1:2:0:0:
0,192,25790,6,0,B|0:288|96:288|96:288,2,130,4|2|4,0:3|1:2|0:3,0:0:0:0:
0,64,26695,1,2,1:2:0:0:
64,64,26846,1,2,1:2:0:0:
128,64,26997,6,0,B|224:64|224:160|224:160,2,130,4|2|4,0:3|1:2|0:3,0:0:0:0:
128,192,27902,1,2,1:2:0:0:
128,320,28204,6,0,B|32:320|32:224|32:224,2,130,4|2|4,0:3|1:2|0:3,0:0:0:0:
256,320,29109,1,2,1:2:0:0:
320,320,29260,1,2,1:2:0:0:
384,320,29411,5,4,0:3:0:0:
384,320,29562,1,0,0:3:0:0:
384,64,30015,1,4,0:3:0:0:
384,64,30165,1,0,0:3:0:0:
128,64,30618,2,4,P|112:152|128:256,2,195,4|4|8,0:3|0:3|0:3,0:0:0:0:
256,64,31825,5,4,0:3:0:0:
256,64,31976,1,0,0:3:0:0:
512,64,32428,1,4,0:3:0:0:
512,64,32579,1,0,0:3:0:0:
512,320,33032,2,4,P|424:336|320:320,2,195,4|4|8,0:3|0:3|0:3,0:0:0:0:
512,192,34239,5,4,0:3:0:0:
512,192,34390,1,0,0:3:0:0:
256,192,34842,1,4,0:3:0:0:
256,192,34993,1,0,0:3:0:0:
0,192,35446,2,4,P|-16:104|0:0,2,195,4|4|8,0:3|0:3|0:3,0:0:0:0:
0,320,36653,5,4,0:3:0:0:
0,320,36804,1,0,0:3:0:0:
256,320,37256,1,4,0:3:0:0:
256,320,37407,1,0,0:3:0:0:
512,320,37860,1,4,0:3:0:0:
512,320,38011,1,0,0:3:0:0:
512,192,38312,1,4,0:3:0:0:
256,192,39067,12,0,40877,0:3:0:0:
256,192,41480,12,0,43291,0:3:0:0:
256,192,43894,5,4,0:3:0:0:
256,320,44196,2,0,L|392:320,1,130,0|0,1:3|0:3,0:0:0:0:
384,192,44800,1,0,1:3:0:0:
384,64,45101,5,4,0:3:0:0:
256,64,45403,2,0,L|120:64,1,130,0|0,1:3|0:3,0:0:0:0:
128,192,46006,1,0,1:3:0:0:
128,256,46157,1,0,1:3:0:0:
128,320,46308,5,4,0:3:0:0:
256,320,46610,2,0,L|392:320,1,130,0|0,1:3|0:3,0:0:0:0:
384,192,47213,1,0,1:3:0:0:
256,192,47515,5,4,0:3:0:0:
128,192,47817,2,0,B|48:200|24:128|24:128,1,130,0|0,1:3|0:3,0:0:0:0:
128,64,48420,1,0,1:3:0:0:
192,64,48571,1,0,1:3:0:0:
256,64,48722,5,4,0:3:0:0:
256,64,48873,1,0,0:3:0:0:
256,320,49326,1,4,0:3:0:0:
256,320,49476,1,0,0:3:0:0:
88,192,49929,5,4,0:3:0:0:
88,192,50080,1,4,0:2:0:0:
88,64,50382,1,4,0:2:0:0:
176,160,50683,1,4,0:2:0:0:
256,56,50985,1,4,0:2:0:0:
256,56,51136,5,4,0:3:0:0:
368,120,51438,1,2,1:2:0:0:
368,120,51589,1,2,0:3:0:0:
480,296,52041,1,2,1:2:0:0:
480,296,52192,2,2,B|432:400|304:368|256:296|208:224|80:192|32:296,1,520,2|0,0:3|0:3,0:2:0:0:
256,192,53852,5,2,1:2:0:0:
384,176,54153,1,2,0:3:0:0:
480,88,54455,1,0,1:3:0:0:
480,88,54606,2,2,B|432:-16|304:16|256:88|208:160|80:192|32:88,1,520,2|0,0:3|0:3,0:2:0:0:
256,192,56265,5,2,1:2:0:0:
320,304,56567,1,2,0:3:0:0:
192,304,56869,1,0,1:3:0:0:
192,304,57020,1,2,0:2:0:0:
80,216,57322,6,0,P|72:152|80:88,1,130,2|2,0:2|0:2,0:0:0:0:
192,24,57925,2,0,P|200:88|192:152,1,130,2|2,0:2|0:2,0:0:0:0:
320,152,58528,6,0,P|312:88|320:24,1,130,2|2,0:1|0:1,0:0:0:0:
432,88,59132,2,0,P|440:152|432:216,1,130,2|2,0:1|0:1,0:0:0:0:
432,344,59735,5,4,0:2:0:0:
304,344,60037,1,4,0:2:0:0:
304,216,60339,1,4,0:2:0:0:
200,144,60641,1,4,0:2:0:0:
200,144,60791,5,4,0:3:0:0:
144,264,61093,1,2,1:2:0:0:
144,264,61244,1,2,0:3:0:0:
32,88,61697,1,2,1:2:0:0:
32,88,61848,2,2,B|80:-16|208:16|256:88|304:160|432:192|480:88,1,520,2|0,0:3|0:3,0:2:0:0:
256,192,63507,5,2,1:2:0:0:
128,208,63809,1,2,0:3:0:0:
32,296,64111,1,0,1:3:0:0:
32,296,64261,2,2,B|80:400|208:368|256:296|304:224|432:192|480:296,1,520,2|0,0:3|0:3,0:2:0:0:
256,192,65921,5,2,1:2:0:0:
192,80,66223,1,2,0:3:0:0:
320,80,66524,1,0,1:3:0:0:
320,80,66675,1,2,0:2:0:0:
432,168,66977,6,0,B|448:232|448:232|432:296,1,130,2|2,0:2|0:2,0:0:0:0:
320,360,67581,2,0,B|304:296|304:296|320:232,1,130,2|2,0:2|0:2,0:0:0:0:
192,232,68184,6,0,B|208:296|208:296|192:360,1,130,2|2,0:1|0:1,0:0:0:0:
80,296,68787,2,0,B|64:232|64:232|80:168,1,130,2|2,0:1|0:1,0:0:0:0:
80,40,69391,5,4,0:2:0:0:
208,40,69693,1,4,0:2:0:0:
328,88,69994,1,4,0:2:0:0:
256,192,70296,1,4,0:2:0:0:
256,192,70447,6,0,B|256:328,1,130,4|2,0:3|1:2,0:0:0:0:
128,320,71050,1,4,0:3:0:0:
128,192,71352,1,2,1:2:0:0:
0,192,71654,6,0,B|0:96|96:96|96:96,1,130,4|2,0:3|1:2,0:0:0:0:
192,56,72257,1,4,0:3:0:0:
320,56,72559,1,2,1:2:0:0:
384,56,72710,1,2,1:2:0:0:
448,56,72861,6,0,B|448:192,1,130,4|2,0:3|1:2,0:0:0:0:
448,320,73464,1,4,0:3:0:0:
320,320,73766,1,2,1:2:0:0:
200,376,74068,6,0,L|80:328,1,130,4|2,0:3|1:2,0:0:0:0:
80,192,74671,1,4,0:3:0:0:
192,256,74973,1,2,1:2:0:0:
256,256,75124,1,2,1:2:0:0:
256,192,75275,6,0,B|256:56,1,130,4|2,0:3|1:2,0:0:0:0:
384,64,75878,1,4,0:3:0:0:
384,192,76180,1,2,1:2:0:0:
512,192,76482,6,0,B|512:288|416:288|416:288,1,130,4|2,0:3|1:2,0:0:0:0:
320,320,77085,1,4,0:3:0:0:
192,320,77387,1,2,1:2:0:0:
128,320,77538,1,2,1:2:0:0:
64,320,77689,6,0,B|64:184,1,130,4|2,0:3|1:2,0:0:0:0:
64,56,78292,1,4,0:3:0:0:
192,56,78594,1,2,1:2:0:0:
320,56,78896,6,0,B|384:80|416:144|416:144,1,130,4|2,0:3|1:2,0:0:0:0:
376,264,79499,1,4,0:3:0:0:
256,320,79801,1,2,1:2:0:0:
192,320,79952,1,2,1:2:0:0:
128,320,80103,5,4,0:3:0:0:
128,320,80253,1,0,0:3:0:0:
128,64,80706,1,4,0:3:0:0:
128,64,80857,1,0,0:3:0:0:
384,64,81309,2,4,P|400:152|384:256,2,195,4|4|8,0:3|0:3|0:3,0:0:0:0:
256,64,82516,5,4,0:3:0:0:
256,64,82667,1,0,0:3:0:0:
0,64,83120,1,4,0:3:0:0:
0,64,83271,1,0,0:3:0:0:
0,320,83723,2,4,P|88:336|192:320,2,195,4|4|8,0:3|0:3|0:3,0:0:0:0:
0,192,84930,5,4,0:3:0:0:
0,192,85081,1,0,0:3:0:0:
256,192,85534,1,4,0:3:0:0:
256,192,85685,1,0,0:3:0:0:
512,192,86137,2,4,P|528:104|512:0,2,195,4|4|8,0:3|0:3|0:3,0:0:0:0:
512,320,87344,5,4,0:3:0:0:
512,320,87495,1,0,0:3:0:0:
256,320,87948,1,4,0:3:0:0:
256,320,88099,1,0,0:3:0:0:
0,320,88551,1,4,0:3:0:0:
0,320,88702,1,0,0:3:0:0:
0,192,89004,1,4,0:3:0:0:
256,192,89758,12,0,91568,0:3:0:0:
256,192,92172,12,0,93982,0:3:0:0:
256,192,94586,5,4,0:3:0:0:
256,320,94888,2,0,L|120:320,1,130,0|0,1:3|0:3,0:0:0:0:
128,192,95491,1,0,1:3:0:0:
128,64,95793,5,4,0:3:0:0:
256,64,96094,2,0,L|392:64,1,130,0|0,1:3|0:3,0:0:0:0:
384,192,96698,1,0,1:3:0:0:
384,256,96849,1,0,1:3:0:0:
384,320,97000,5,4,0:3:0:0:
256,320,97301,2,0,L|120:320,1,130,0|0,1:3|0:3,0:0:0:0:
128,192,97905,1,0,1:3:0:0:
256,192,98207,5,4,0:3:0:0:
384,192,98508,2,0,B|464:200|488:128|488:128,1,130,0|0,1:3|0:3,0:0:0:0:
384,64,99112,1,0,1:3:0:0:
320,64,99263,1,0,1:3:0:0:
256,64,99414,5,4,0:3:0:0:
256,64,99564,1,0,0:3:0:0:
256,320,100017,1,4,0:3:0:0:
256,320,100168,1,0,0:3:0:0:
424,192,100621,5,4,0:3:0:0:
424,192,100771,1,4,0:2:0:0:
424,64,101073,1,4,0:2:0:0:
336,160,101375,1,4,0:2:0:0:
256,56,101677,1,4,0:2:0:0:
256,56,101827,5,4,0:1:0:0:
