osu file format v14

[General]
AudioFilename: audio.mp3
AudioLeadIn: 0
PreviewTime: 10100
Countdown: 0
SampleSet: Drum
StackLeniency: 0.7
Mode: 0
LetterboxInBreaks: 0
WidescreenStoryboard: 1

[Editor]
Bookmarks: 6479,10100,19756,29411,39067,51136,60791,70447,80103,89758,101827
DistanceSpacing: 1
BeatDivisor: 4
GridSize: 8
TimelineZoom: 1

[Metadata]
Title:Saranaru Otenami Haiken!
TitleUnicode:更なるお手並み拝見!
Artist:Shimomura Yoko
ArtistUnicode:下村陽子
Creator:StarCastler
Version:Insane
Source:マリオ&ルイージRPG
Tags:Mario & Luigi Superstar Saga Youko nintendo alphadream videogame ost instrumental boss battle game boy advance gba vgm
BeatmapID:2264160
BeatmapSetID:1052734

[Difficulty]
HPDrainRate:5
CircleSize:4
OverallDifficulty:8
ApproachRate:9
SliderMultiplier:1.92
SliderTickRate:1

[Events]
//Background and Video events
0,0,"SI_GBA_MarioAndLugiSuperStarSaga_image1600w.jpg",0,0
//Break Periods
//Storyboard Layer 0 (Background)
//Storyboard Layer 1 (Fail)
//Storyboard Layer 2 (Pass)
//Storyboard Layer 3 (Foreground)
//Storyboard Layer 4 (Overlay)
//Storyboard Sound Samples

[TimingPoints]
445,301.734976112648,4,3,0,65,1,0
19756,-100,4,3,0,65,0,1
29411,-133.333333333333,4,3,0,65,0,0
39067,-133.333333333333,4,2,0,65,0,0
43894,-100,4,3,0,65,0,0
70447,-100,4,3,0,65,0,1
80103,-133.333333333333,4,3,0,65,0,0
89758,-133.333333333333,4,2,0,65,0,0
94586,-100,4,3,0,65,0,0

[Colours]
Combo1 : 128,255,128
Combo2 : 255,0,0
Combo3 : 255,128,128
Combo4 : 0,255,0

[HitObjects]
256,120,445,5,4,0:3:0:0:
176,192,595,1,0,0:3:0:0:
256,264,746,1,2,1:2:0:0:
176,336,897,2,0,P|304:368|336:336,1,192,2|0,0:3|0:3,0:2:0:0:
384,240,1350,1,2,1:2:0:0:
480,288,1501,2,2,P|496:192|480:96,3,192,2|0|0|0,0:3|0:3|0:3|0:3,0:2:0:0:
384,144,2557,1,0,1:3:0:0:
384,144,2708,2,0,P|336:128|288:128,1,96,0|0,0:3|0:3,0:3:0:0:
176,176,3009,5,2,0:2:0:0:
176,192,3085,1,2,0:2:0:0:
176,208,3160,1,2,1:3:0:0:
256,264,3311,1,2,0:2:0:0:
336,336,3462,2,0,P|208:368|176:336,1,192,2|0,0:3|1:3,0:2:0:0:
80,384,3914,2,2,P|32:256|56:224,3,192,2|0|0|0,0:3|0:3|0:3|0:3,0:2:0:0:
128,144,4971,1,0,1:3:0:0:
128,144,5121,2,0,P|176:128|224:128,1,96,0|0,0:3|0:3,0:3:0:0:
336,176,5423,5,2,0:2:0:0:
336,192,5499,1,2,0:2:0:0:
336,208,5574,1,2,1:3:0:0:
256,264,5725,1,2,0:2:0:0:
176,336,5876,2,0,P|304:368|336:336,1,192,2|0,0:3|1:3,0:2:0:0:
432,288,6328,1,2,0:2:0:0:
376,192,6479,5,4,0:3:0:0:
448,112,6630,2,0,L|496:24,1,96,2|0,0:2|1:2,0:2:0:0:
328,96,6932,2,0,L|336:0,1,96,2|0,0:2|0:2,0:2:0:0:
184,96,7234,2,0,L|176:0,1,96,2|0,0:2|1:2,0:2:0:0:
64,112,7535,2,0,L|16:24,1,96,2|0,0:2|0:2,0:2:0:0:
64,272,7837,6,0,L|16:360,1,96,2|0,0:1|1:1,0:1:0:0:
184,288,8139,2,0,L|176:384,1,96,2|0,0:1|0:1,0:1:0:0:
328,288,8440,2,0,L|336:384,1,96,2|0,0:1|1:1,0:1:0:0:
448,272,8742,2,0,L|496:360,1,96,2|0,0:1|0:1,0:1:0:0:
256,64,9044,6,0,L|352:56,1,96,4|0,0:2|1:2,0:2:0:0:
256,320,9346,2,0,L|160:328,1,96,4|0,0:2|0:2,0:2:0:0:
448,240,9647,2,0,P|456:192|448:144,1,96,4|0,0:2|1:2,0:2:0:0:
64,168,9949,1,4,0:2:0:0:
80,216,10025,1,0,0:3:0:0:
96,264,10100,5,4,0:3:0:0:
176,192,10251,1,0,0:3:0:0:
256,120,10402,1,2,1:2:0:0:
336,48,10553,2,0,P|208:16|176:48,1,192,2|0,0:3|0:3,0:2:0:0:
128,144,11005,1,2,1:2:0:0:
32,96,11156,2,2,P|16:192|32:288,3,192,2|0|0|0,0:3|0:3|0:3|0:3,0:2:0:0:
128,240,12212,1,0,1:3:0:0:
128,240,12363,2,0,P|176:256|224:256,1,96,0|0,0:3|0:3,0:3:0:0:
336,208,12665,5,2,0:2:0:0:
336,192,12740,1,2,0:2:0:0:
336,174,12816,1,2,1:3:0:0:
256,120,12967,1,2,0:2:0:0:
176,48,13117,2,0,P|304:16|336:48,1,192,2|0,0:3|1:3,0:3:0:0:
432,0,13570,2,2,P|480:128|456:160,3,192,2|0|0|0,0:3|0:3|0:3|0:3,0:2:0:0:
384,240,14626,1,0,1:3:0:0:
384,240,14777,2,0,P|336:256|288:256,1,96,0|0,0:3|0:3,0:3:0:0:
176,208,15079,5,2,0:2:0:0:
176,192,15154,1,2,0:2:0:0:
176,176,15230,1,2,1:3:0:0:
256,120,15380,1,2,0:2:0:0:
336,48,15531,2,0,P|208:16|176:48,1,192,2|0,0:3|1:3,0:3:0:0:
80,96,15984,1,2,0:2:0:0:
136,192,16135,5,4,0:3:0:0:
64,272,16286,2,0,L|16:360,1,96,2|0,0:2|1:3,0:3:0:0:
184,288,16587,2,0,L|176:384,1,96,2|0,0:2|0:3,0:3:0:0:
328,288,16889,2,0,L|336:384,1,96,2|0,0:2|1:3,0:3:0:0:
448,272,17191,2,0,L|495:361,1,96,2|0,0:2|0:3,0:3:0:0:
448,112,17493,6,0,L|495:23,1,96,2|0,0:1|1:3,0:3:0:0:
328,96,17794,2,0,L|336:0,1,96,2|0,0:1|0:3,0:3:0:0:
184,96,18096,2,0,L|176:0,1,96,2|0,0:1|1:3,0:3:0:0:
64,112,18398,2,0,L|17:23,1,96,2|0,0:1|0:3,0:3:0:0:
136,192,18699,6,0,L|128:288,1,96,4|0,0:2|1:2,0:2:0:0:
376,192,19001,2,0,L|384:96,1,96,4|0,0:2|0:2,0:2:0:0:
208,376,19303,2,0,P|256:384|304:376,1,96,4|0,0:2|1:2,0:2:0:0:
256,96,19605,1,4,0:2:0:0:
248,144,19680,1,0,0:3:0:0:
256,192,19756,6,0,B|288:256|352:304|352:304,1,144,4|0,0:0|0:2,0:3:0:0:
320,336,20057,2,0,B|288:368|255:334|255:334|224:304|192:336,1,144,2|0,1:2|0:3,0:3:0:0:
160,368,20359,2,0,B|96:336|48:272|48:272,1,144,4|0,0:0|0:2,0:3:0:0:
16,240,20661,1,2,1:2:0:0:
16,368,20812,1,2,1:2:0:0:
160,240,20962,6,0,B|176:144|128:96|128:96,1,144,4|0,0:3|0:3,0:3:0:0:
88,112,21264,2,0,B|80:168|144:184|192:160,1,144,2|0,1:2|0:3,0:3:0:0:
224,144,21566,2,0,B|256:80|256:80|288:144,1,144,4|0,0:3|0:3,0:3:0:0:
320,160,21868,1,2,1:2:0:0:
440,192,22019,1,2,1:2:0:0:
440,312,22169,5,4,0:3:0:0:
320,384,22396,1,0,0:3:0:0:
320,384,22471,1,2,1:2:0:0:
192,384,22697,1,0,0:3:0:0:
192,384,22773,1,4,0:3:0:0:
72,312,22999,1,0,0:3:0:0:
72,312,23075,1,2,1:2:0:0:
144,192,23225,1,2,1:2:0:0:
72,72,23376,5,4,0:3:0:0:
192,0,23603,1,0,0:3:0:0:
192,0,23678,1,2,1:2:0:0:
320,0,23904,1,0,0:3:0:0:
320,0,23980,1,4,0:3:0:0:
440,72,24206,1,0,0:3:0:0:
440,72,24282,1,2,1:2:0:0:
368,192,24432,1,2,1:2:0:0:
256,192,24583,6,0,B|224:128|160:80|160:80,1,144,4|0,0:3|0:3,0:3:0:0:
192,48,24885,2,0,B|224:16|257:50|257:50|288:80|320:48,1,144,2|0,1:2|0:3,0:3:0:0:
352,16,25187,2,0,B|416:48|464:112|464:112,1,144,4|0,0:3|0:3,0:3:0:0:
496,144,25489,1,2,1:2:0:0:
496,16,25639,1,2,1:2:0:0:
352,144,25790,6,0,B|336:240|384:288|384:288,1,144,4|0,0:3|0:3,0:3:0:0:
424,272,26092,2,0,B|432:216|368:200|320:224,1,144,2|0,1:2|0:3,0:3:0:0:
288,240,26394,2,0,B|256:304|256:304|224:240,1,144,4|0,0:3|0:3,0:3:0:0:
192,224,26695,1,2,1:2:0:0:
64,192,26846,1,2,1:2:0:0:
72,72,26997,5,4,0:3:0:0:
192,0,27223,1,0,0:3:0:0:
192,0,27299,1,2,1:2:0:0:
320,0,27525,1,0,0:3:0:0:
320,0,27601,1,4,0:3:0:0:
440,72,27827,1,0,0:3:0:0:
440,72,27902,1,2,1:2:0:0:
368,192,28053,1,2,1:2:0:0:
440,312,28204,5,4,0:3:0:0:
320,384,28430,1,0,0:3:0:0:
320,384,28506,1,2,1:2:0:0:
192,384,28732,1,0,0:3:0:0:
192,384,28808,1,4,0:3:0:0:
72,312,29034,1,0,0:3:0:0:
72,312,29109,1,2,1:2:0:0:
144,192,29260,1,2,1:2:0:0:
256,192,29411,5,4,0:3:0:0:
256,192,29562,1,0,0:3:0:0:
0,192,30015,1,4,0:3:0:0:
0,192,30165,1,0,0:3:0:0:
512,192,30618,1,4,0:3:0:0:
512,192,30769,1,0,0:3:0:0:
256,192,31071,2,0,B|248:120|328:120|328:192|408:192|400:120,1,216.000008239746,4|8,0:3|0:3,0:3:0:0:
328,8,31674,2,0,L|288:0,1,36.0000013732911,0|0,0:3|0:3,0:3:0:0:
256,0,31825,5,4,0:3:0:0:
256,0,31976,1,0,0:3:0:0:
0,0,32428,1,4,0:3:0:0:
0,0,32579,1,0,0:3:0:0:
512,0,33032,1,4,0:3:0:0:
512,0,33183,1,0,0:3:0:0:
256,0,33484,2,0,B|264:72|184:72|184:0|104:0|112:72,1,216.000008239746,4|8,0:3|0:3,0:3:0:0:
184,184,34088,2,0,L|224:192,1,36.0000013732911,0|0,0:3|0:3,0:3:0:0:
256,192,34239,5,4,0:3:0:0:
256,192,34390,1,0,0:3:0:0:
512,192,34842,1,4,0:3:0:0:
512,192,34993,1,0,0:3:0:0:
0,192,35446,1,4,0:3:0:0:
0,192,35597,1,0,0:3:0:0:
256,192,35898,2,0,B|248:264|328:264|328:192|408:192|400:264,1,216.000008239746,4|8,0:3|0:3,0:3:0:0:
328,376,36502,2,0,L|288:384,1,36.0000013732911,0|0,0:3|0:3,0:3:0:0:
256,384,36653,5,4,0:3:0:0:
256,384,36804,1,0,0:3:0:0:
0,384,37256,1,4,0:3:0:0:
0,384,37407,1,0,0:3:0:0:
512,384,37860,1,4,0:3:0:0:
512,384,38011,1,0,0:3:0:0:
256,384,38312,2,0,B|264:312|184:312|184:384|104:384|112:312,1,216.000008239746,4|8,0:3|0:3,0:3:0:0:
184,200,38916,2,0,L|224:192,1,36.0000013732911,0|0,0:3|0:3,0:3:0:0:
256,192,39067,6,0,P|328:184|400:192,3,144.000005493164,2|0|0|0,0:2|0:3|0:3|0:3,0:3:0:0:
480,200,40123,1,0,0:3:0:0:
488,280,40274,2,0,P|472:344|400:360,3,144.000005493164,2|0|0|0,0:2|0:3|0:3|1:3,0:3:0:0:
328,336,41330,1,0,1:3:0:0:
256,368,41480,6,0,P|184:376|112:368,3,144.000005493164,2|0|0|0,0:2|0:3|0:3|0:3,0:3:0:0:
32,360,42537,1,0,0:3:0:0:
24,280,42687,2,0,P|40:216|112:200,3,144.000005493164,2|0|0|0,0:2|0:3|0:3|1:3,0:3:0:0:
120,280,43743,1,0,1:3:0:0:
168,256,43819,1,0,0:3:0:0:
216,232,43894,5,4,0:3:0:0:
304,144,44121,2,0,L|304:96,1,48,2|0,0:2|1:3,0:3:0:0:
144,16,44422,2,0,L|96:8,1,48,0|0,0:3|0:3,0:3:0:0:
368,16,44724,2,0,L|416:8,1,48,2|0,0:2|1:3,0:3:0:0:
208,144,44950,1,0,1:3:0:0:
304,144,45101,5,4,0:3:0:0:
208,240,45328,2,0,L|208:288,1,48,2|0,0:2|1:3,0:3:0:0:
368,368,45629,2,0,L|416:376,1,48,0|0,0:3|0:3,0:3:0:0:
144,368,45931,2,0,L|96:376,1,48,2|0,0:2|1:3,0:3:0:0:
304,240,46157,1,0,1:3:0:0:
304,144,46308,5,4,0:3:0:0:
208,240,46535,2,0,L|160:240,1,48,2|0,0:2|1:3,0:3:0:0:
80,80,46836,2,0,L|72:32,1,48,0|0,0:3|0:3,0:3:0:0:
80,304,47138,2,0,L|72:352,1,48,2|0,0:2|1:3,0:3:0:0:
208,144,47364,1,0,1:3:0:0:
208,240,47515,5,4,0:3:0:0:
304,144,47741,2,0,L|352:144,1,48,2|0,0:2|1:3,0:3:0:0:
432,304,48043,2,0,L|440:352,1,48,0|0,0:3|0:3,0:3:0:0:
432,80,48345,2,0,L|440:32,1,48,2|0,0:2|1:3,0:3:0:0:
304,240,48571,1,0,1:3:0:0:
512,192,48722,5,4,0:3:0:0:
512,192,48873,1,0,0:3:0:0:
0,192,49326,1,4,0:3:0:0:
0,192,49476,1,0,0:3:0:0:
256,112,49929,5,4,0:3:0:0:
256,272,50080,2,0,L|256:368,1,96,4|0,0:2|1:2,0:2:0:0:
176,192,50382,2,0,L|80:192,1,96,4|0,0:2|0:2,0:2:0:0:
336,192,50683,2,0,L|432:192,1,96,4|0,0:2|1:2,0:2:0:0:
256,24,50985,1,4,0:2:0:0:
256,72,51061,1,0,0:3:0:0:
256,120,51136,5,4,0:3:0:0:
336,192,51287,1,0,0:3:0:0:
256,264,51438,1,2,1:2:0:0:
336,336,51589,2,0,P|208:368|176:336,1,192,2|0,0:3|0:3,0:2:0:0:
80,384,52041,1,2,1:2:0:0:
32,288,52192,2,2,P|16:192|32:96,3,192,2|0|0|0,0:3|0:3|0:3|0:3,0:2:0:0:
128,144,53248,1,0,1:3:0:0:
128,144,53399,2,0,P|176:128|224:128,1,96,0|0,0:3|0:3,0:3:0:0:
320,232,53701,5,2,0:2:0:0:
304,232,53776,1,2,0:2:0:0:
288,232,53852,1,2,1:3:0:0:
192,232,54002,1,2,0:2:0:0:
176,336,54153,2,0,P|304:368|336:336,1,192,2|0,0:3|1:3,0:2:0:0:
432,384,54606,2,2,P|480:256|456:224,3,192,2|0|0|0,0:3|0:3|0:3|0:3,0:2:0:0:
384,144,55662,1,0,1:3:0:0:
384,144,55813,2,0,P|336:128|288:128,1,96,0|0,0:3|0:3,0:3:0:0:
192,232,56115,5,2,0:2:0:0:
208,232,56190,1,2,0:2:0:0:
224,232,56265,1,2,1:3:0:0:
320,232,56416,1,2,0:2:0:0:
336,336,56567,2,0,P|208:368|176:336,1,192,2|0,0:3|1:3,0:2:0:0:
80,288,57020,1,2,0:2:0:0:
136,192,57171,5,4,0:3:0:0:
64,112,57322,2,0,P|16:88|0:48,1,96,2|0,0:2|1:2,0:2:0:0:
144,8,57623,2,0,P|176:40|192:88,1,96,2|0,0:2|0:2,0:2:0:0:
320,88,57925,2,0,P|336:40|368:8,1,96,2|0,0:2|1:2,0:2:0:0:
512,48,58227,2,0,P|496:88|448:112,1,96,2|0,0:2|0:2,0:2:0:0:
448,272,58528,6,0,P|496:296|512:336,1,96,2|0,0:1|1:2,0:2:0:0:
368,376,58830,2,0,P|336:344|320:296,1,96,2|0,0:1|0:2,0:2:0:0:
192,296,59132,2,0,P|176:344|144:376,1,96,2|0,0:1|1:2,0:2:0:0:
0,336,59434,2,0,P|16:296|64:272,1,96,2|0,0:1|0:2,0:2:0:0:
256,64,59735,6,0,L|160:56,1,96,4|0,0:2|1:2,0:2:0:0:
256,320,60037,2,0,L|352:328,1,96,4|0,0:2|0:2,0:2:0:0:
64,240,60339,2,0,P|56:192|64:144,1,96,4|0,0:2|1:2,0:2:0:0:
448,168,60641,1,4,0:2:0:0:
432,216,60716,1,0,0:3:0:0:
416,264,60791,5,4,0:3:0:0:
336,192,60942,1,0,0:3:0:0:
256,120,61093,1,2,1:2:0:0:
176,48,61244,2,0,P|304:16|336:48,1,192,2|0,0:3|0:3,0:2:0:0:
432,0,61697,1,2,1:2:0:0:
480,96,61848,2,2,P|496:192|480:288,3,192,2|0|0|0,0:3|0:3|0:3|0:3,0:2:0:0:
384,240,62904,1,0,1:3:0:0:
384,240,63055,2,0,P|336:256|288:256,1,96,0|0,0:3|0:3,0:3:0:0:
192,152,63356,5,2,0:2:0:0:
208,152,63432,1,2,0:2:0:0:
224,152,63507,1,2,1:3:0:0:
320,152,63658,1,2,0:2:0:0:
336,48,63809,2,0,P|208:16|176:48,1,192,2|0,0:3|1:3,0:2:0:0:
80,0,64261,2,2,P|32:128|56:160,3,192,2|0|0|0,0:3|0:3|0:3|0:3,0:2:0:0:
128,240,65318,1,0,1:3:0:0:
128,240,65468,2,0,P|176:256|224:256,1,96,0|0,0:3|0:3,0:3:0:0:
320,152,65770,5,2,0:2:0:0:
304,152,65846,1,2,0:2:0:0:
288,152,65921,1,2,1:3:0:0:
192,152,66072,1,2,0:2:0:0:
176,48,66223,2,0,P|304:16|336:48,1,192,2|0,0:3|1:3,0:2:0:0:
432,96,66675,1,2,0:2:0:0:
376,192,66826,5,4,0:3:0:0:
448,272,66977,2,0,P|496:296|512:336,1,96,2|0,0:2|1:2,0:2:0:0:
368,376,67279,2,0,P|336:344|320:296,1,96,2|0,0:2|0:2,0:2:0:0:
192,296,67581,2,0,P|176:344|144:376,1,96,2|0,0:2|1:2,0:2:0:0:
0,336,67882,2,0,P|16:296|64:272,1,96,2|0,0:2|0:2,0:2:0:0:
64,112,68184,6,0,P|16:88|0:48,1,96,2|0,0:1|1:2,0:2:0:0:
144,8,68486,2,0,P|176:40|192:88,1,96,2|0,0:1|0:2,0:2:0:0:
320,88,68787,2,0,P|336:40|368:8,1,96,2|0,0:1|1:2,0:2:0:0:
512,48,69089,2,0,P|496:88|448:112,1,96,2|0,0:1|0:2,0:2:0:0:
376,192,69391,6,0,L|384:288,1,96,4|0,0:2|1:2,0:2:0:0:
136,192,69693,2,0,L|128:96,1,96,4|0,0:2|0:2,0:2:0:0:
304,376,69994,2,0,P|256:384|208:376,1,96,4|0,0:2|1:2,0:2:0:0:
256,96,70296,1,4,0:2:0:0:
264,144,70372,1,0,0:3:0:0:
256,192,70447,6,0,B|248:240|208:248|168:256|160:304,1,144,4|0,0:3|0:3,0:3:0:0:
192,336,70749,2,0,B|224:368|256:368|288:368|320:336,1,144,2|0,1:2|0:3,0:3:0:0:
312,288,71050,2,0,B|368:224|464:240|464:240,1,144,4|0,0:3|0:3,0:3:0:0:
496,240,71352,1,2,1:2:0:0:
496,368,71503,1,2,1:2:0:0:
312,288,71654,6,0,B|296:192|360:144|360:144,1,144,4|0,0:3|0:3,0:3:0:0:
392,136,71956,2,0,B|400:80|336:64|288:88,1,144,2|0,1:2|0:3,0:3:0:0:
256,120,72257,2,0,B|184:136|184:136|208:208,1,144,4|0,0:3|0:3,0:3:0:0:
240,208,72559,1,2,1:2:0:0:
128,264,72710,1,2,1:2:0:0:
72,376,72861,5,4,0:3:0:0:
192,304,73087,1,0,0:3:0:0:
192,304,73163,1,2,1:2:0:0:
320,376,73389,1,0,0:3:0:0:
320,376,73464,1,4,0:3:0:0:
440,312,73691,1,0,0:3:0:0:
440,312,73766,1,2,1:2:0:0:
368,192,73917,1,2,1:2:0:0:
440,72,74068,5,4,0:3:0:0:
320,0,74294,1,0,0:3:0:0:
320,0,74370,1,2,1:2:0:0:
192,72,74596,1,0,0:3:0:0:
192,72,74671,1,4,0:3:0:0:
72,0,74898,1,0,0:3:0:0:
72,0,74973,1,2,1:2:0:0:
128,120,75124,1,2,1:2:0:0:
256,192,75275,6,0,B|264:144|304:136|344:128|352:80,1,144,4|0,0:3|0:3,0:3:0:0:
320,48,75577,2,0,B|288:16|256:16|224:16|192:48,1,144,2|0,1:2|0:3,0:3:0:0:
200,96,75878,2,0,B|144:160|48:144|48:144,1,144,4|0,0:3|0:3,0:3:0:0:
16,144,76180,1,2,1:2:0:0:
16,16,76331,1,2,1:2:0:0:
200,96,76482,6,0,B|216:192|152:240|152:240,1,144,4|0,0:3|0:3,0:3:0:0:
120,248,76783,2,0,B|112:304|176:320|224:296,1,144,2|0,1:2|0:3,0:3:0:0:
256,264,77085,2,0,B|328:248|328:248|304:176,1,144,4|0,0:3|0:3,0:3:0:0:
272,176,77387,1,2,1:2:0:0:
384,120,77538,1,2,1:2:0:0:
440,8,77689,5,4,0:3:0:0:
320,80,77915,1,0,0:3:0:0:
320,80,77990,1,2,1:2:0:0:
192,8,78217,1,0,0:3:0:0:
192,8,78292,1,4,0:3:0:0:
72,72,78518,1,0,0:3:0:0:
72,72,78594,1,2,1:2:0:0:
144,192,78745,1,2,1:2:0:0:
72,312,78896,5,4,0:3:0:0:
192,384,79122,1,0,0:3:0:0:
192,384,79197,1,2,1:2:0:0:
320,312,79424,1,0,0:3:0:0:
320,312,79499,1,4,0:3:0:0:
440,384,79725,1,0,0:3:0:0:
440,384,79801,1,2,1:2:0:0:
384,264,79952,1,2,1:2:0:0:
256,192,80103,5,4,0:3:0:0:
256,192,80253,1,0,0:3:0:0:
512,192,80706,1,4,0:3:0:0:
512,192,80857,1,0,0:3:0:0:
0,192,81309,1,4,0:3:0:0:
0,192,81460,1,0,0:3:0:0:
256,192,81762,2,0,B|264:120|184:120|184:192|104:192|112:120,1,216.000008239746,4|8,0:3|0:3,0:3:0:0:
184,8,82366,2,0,L|224:0,1,36.0000013732911,0|0,0:3|0:3,0:3:0:0:
256,0,82516,5,4,0:3:0:0:
256,0,82667,1,0,0:3:0:0:
512,0,83120,1,4,0:3:0:0:
512,0,83271,1,0,0:3:0:0:
0,0,83723,1,4,0:3:0:0:
0,0,83874,1,0,0:3:0:0:
256,0,84176,2,0,B|248:72|328:72|328:0|408:0|400:72,1,216.000008239746,4|8,0:3|0:3,0:3:0:0:
328,184,84779,2,0,L|288:192,1,36.0000013732911,0|0,0:3|0:3,0:3:0:0:
256,192,84930,5,4,0:3:0:0:
256,192,85081,1,0,0:3:0:0:
0,192,85534,1,4,0:3:0:0:
0,192,85685,1,0,0:3:0:0:
512,192,86137,1,4,0:3:0:0:
512,192,86288,1,0,0:3:0:0:
256,192,86590,2,0,B|264:264|184:264|184:192|104:192|112:264,1,216.000008239746,4|8,0:3|0:3,0:3:0:0:
184,376,87193,2,0,L|224:384,1,36.0000013732911,0|0,0:3|0:3,0:3:0:0:
256,384,87344,5,4,0:3:0:0:
256,384,87495,1,0,0:3:0:0:
512,384,87948,1,4,0:3:0:0:
512,384,88099,1,0,0:3:0:0:
0,384,88551,1,4,0:3:0:0:
0,384,88702,1,0,0:3:0:0:
256,384,89004,2,0,B|248:312|328:312|328:384|408:384|400:312,1,216.000008239746,4|8,0:3|0:3,0:3:0:0:
328,200,89607,2,0,L|288:192,1,36.0000013732911,0|0,0:3|0:3,0:3:0:0:
256,192,89758,6,0,P|184:184|112:192,3,144.000005493164,2|0|0|0,0:2|0:3|0:3|0:3,0:3:0:0:
32,200,90814,1,0,0:3:0:0:
24,280,90965,2,0,P|40:344|112:360,3,144.000005493164,2|0|0|0,0:2|0:3|0:3|1:3,0:3:0:0:
184,336,92021,1,0,1:3:0:0:
256,368,92172,6,0,P|328:376|400:368,3,144.000005493164,2|0|0|0,0:2|0:3|0:3|0:3,0:3:0:0:
480,360,93228,1,0,0:3:0:0:
488,280,93379,2,0,P|472:216|400:200,3,144.000005493164,2|0|0|0,0:2|0:3|0:3|1:3,0:3:0:0:
392,280,94435,1,0,1:3:0:0:
344,256,94510,1,0,0:3:0:0:
296,232,94586,5,4,0:3:0:0:
208,144,94812,2,0,L|208:96,1,48,2|0,0:2|1:3,0:3:0:0:
384,72,95114,2,0,L|392:24,1,48,0|0,0:3|0:3,0:3:0:0:
120,24,95416,2,0,L|128:72,1,48,2|0,0:2|1:3,0:3:0:0:
304,144,95642,1,0,1:3:0:0:
208,144,95793,5,4,0:3:0:0:
304,240,96019,2,0,L|304:288,1,48,2|0,0:2|1:3,0:3:0:0:
128,312,96321,2,0,L|120:360,1,48,0|0,0:3|0:3,0:3:0:0:
392,360,96623,2,0,L|384:312,1,48,2|0,0:2|1:3,0:3:0:0:
208,240,96849,1,0,1:3:0:0:
208,144,97000,5,4,0:3:0:0:
304,240,97226,2,0,L|352:240,1,48,2|0,0:2|1:3,0:3:0:0:
376,64,97528,2,0,L|424:56,1,48,0|0,0:3|0:3,0:3:0:0:
424,328,97829,2,0,L|376:320,1,48,2|0,0:2|1:3,0:3:0:0:
304,144,98056,1,0,1:3:0:0:
304,240,98207,5,4,0:3:0:0:
208,144,98433,2,0,L|160:144,1,48,2|0,0:2|1:3,0:3:0:0:
136,320,98735,2,0,L|88:328,1,48,0|0,0:3|0:3,0:3:0:0:
80,56,99036,2,0,L|128:64,1,48,2|0,0:2|1:3,0:3:0:0:
208,240,99263,1,0,1:3:0:0:
0,192,99414,5,4,0:3:0:0:
0,192,99564,1,0,0:3:0:0:
512,192,100017,1,4,0:3:0:0:
512,192,100168,1,0,0:3:0:0:
256,96,100621,5,4,0:3:0:0:
304,368,100771,2,0,P|256:376|208:368,1,96,4|0,0:2|1:2,0:2:0:0:
336,216,101073,2,0,L|432:208,1,96,4|0,0:2|0:2,0:2:0:0:
176,216,101375,2,0,L|80:208,1,96,4|0,0:2|1:2,0:2:0:0:
256,96,101677,1,4,0:2:0:0:
256,144,101752,1,0,0:3:0:0:
256,192,101827,5,4,0:1:0:0:
