osu file format v14

[General]
AudioFilename: audio.mp3
AudioLeadIn: 0
PreviewTime: 10100
Countdown: 0
SampleSet: Drum
StackLeniency: 0.7
Mode: 0
LetterboxInBreaks: 0
WidescreenStoryboard: 1

[Editor]
Bookmarks: 6479,10100,19756,29411,39067,51136,101827
DistanceSpacing: 1
BeatDivisor: 4
GridSize: 8
TimelineZoom: 1

[Metadata]
Title:Saranaru Otenami Haiken!
TitleUnicode:更なるお手並み拝見!
Artist:Shimomura Yoko
ArtistUnicode:下村陽子
Creator:StarCastler
Version:Hard
Source:マリオ&ルイージRPG
Tags:Mario & Luigi Superstar Saga Youko nintendo alphadream videogame ost instrumental boss battle game boy advance gba vgm
BeatmapID:2200017
BeatmapSetID:1052734

[Difficulty]
HPDrainRate:4
CircleSize:4
OverallDifficulty:7
ApproachRate:8
SliderMultiplier:1.6
SliderTickRate:1

[Events]
//Background and Video events
0,0,"SI_GBA_MarioAndLugiSuperStarSaga_image1600w.jpg",0,0
//Break Periods
//Storyboard Layer 0 (Background)
//Storyboard Layer 1 (Fail)
//Storyboard Layer 2 (Pass)
//Storyboard Layer 3 (Foreground)
//Storyboard Layer 4 (Overlay)
//Storyboard Sound Samples

[TimingPoints]
445,301.734976112648,4,3,0,65,1,0
19756,-100,4,3,0,65,0,1
29411,-133.333333333333,4,3,0,65,0,0
39067,-133.333333333333,4,2,0,65,0,0
43894,-100,4,3,0,65,0,0
70447,-100,4,3,0,65,0,1
80103,-133.333333333333,4,3,0,65,0,0
89758,-133.333333333333,4,2,0,65,0,0
94586,-100,4,3,0,65,0,0

[Colours]
Combo1 : 128,255,128
Combo2 : 255,0,0
Combo3 : 255,128,128
Combo4 : 0,255,0

[HitObjects]
256,168,445,6,0,L|256:248,1,80,4|0,0:3|0:3,0:0:0:0:
256,248,746,1,2,1:2:0:0:
184,312,897,2,0,P|256:344|328:312,1,160,2|0,0:3|0:3,0:2:0:0:
400,272,1350,1,2,1:2:0:0:
480,288,1501,2,2,B|480:208|480:208|480:112|384:72|304:192|424:192,2,320,2|0|0,0:3|0:3|0:3,0:2:0:0:
280,336,3009,5,2,0:2:0:0:
272,344,3085,1,2,0:2:0:0:
264,352,3160,2,0,L|184:368,1,80,2|2,1:3|0:2,0:0:0:0:
184,288,3462,2,0,P|104:280|24:288,1,160,2|0,0:3|1:3,0:2:0:0:
88,360,3914,2,2,B|144:272|64:200|64:200|-8:136|64:56,2,320,2|0|0,0:3|0:3|0:3,0:2:0:0:
248,288,5423,5,2,0:2:0:0:
248,280,5499,1,2,0:2:0:0:
248,272,5574,2,0,P|272:224|320:208,1,80,2|2,1:3|0:2,0:0:0:0:
328,288,5876,2,0,P|408:280|488:288,1,160,2|0,0:3|1:3,0:2:0:0:
448,136,6479,5,4,0:3:0:0:
480,48,6630,2,0,P|440:48|400:56,1,80,2|0,0:2|1:2,0:0:0:0:
296,72,6932,2,0,L|296:152,1,80,2|0,0:2|0:2,0:0:0:0:
216,232,7234,2,0,L|216:312,1,80,2|0,0:2|1:2,0:0:0:0:
111,328,7535,2,0,P|71:336|32:336,1,80,2|0,0:2|0:2,0:0:0:0:
64,232,7837,6,0,L|80:152,1,80,2|0,0:1|1:1,0:0:0:0:
184,152,8139,2,0,L|200:232,1,80,2|0,0:1|0:1,0:0:0:0:
312,232,8440,2,0,L|328:152,1,80,2|0,0:1|1:1,0:0:0:0:
432,153,8742,2,0,L|448:232,1,80,2|0,0:1|0:1,0:0:0:0:
488,336,9044,6,0,P|448:344|408:336,1,80,4|0,0:2|1:2,0:0:0:0:
296,376,9346,2,0,P|256:368|216:376,1,80,4|0,0:2|0:2,0:0:0:0:
216,288,9647,2,0,P|256:296|296:288,1,80,4|0,0:2|1:2,0:0:0:0:
344,216,9949,1,4,0:2:0:0:
256,216,10100,6,0,L|256:136,1,80,4|0,0:3|0:3,0:0:0:0:
256,136,10402,1,2,1:2:0:0:
328,72,10553,2,0,P|256:40|184:72,1,160,2|0,0:3|0:3,0:2:0:0:
112,112,11005,1,2,1:2:0:0:
32,96,11156,2,2,B|32:176|32:176|32:272|128:312|208:192|88:192,2,320,2|0|0,0:3|0:3|0:3,0:2:0:0:
240,48,12665,5,2,0:2:0:0:
248,40,12740,1,2,0:2:0:0:
256,32,12816,2,0,L|336:16,1,80,2|2,1:3|0:2,0:0:0:0:
328,96,13117,2,0,P|408:104|488:96,1,160,2|0,0:3|1:3,0:2:0:0:
424,24,13570,2,2,B|368:112|448:184|448:184|520:248|448:328,2,320,2|0|0,0:3|0:3|0:3,0:2:0:0:
264,96,15079,5,2,0:2:0:0:
264,104,15154,1,2,0:2:0:0:
264,112,15230,2,0,P|240:160|192:176,1,80,2|2,1:3|0:2,0:0:0:0:
184,96,15531,2,0,P|104:104|24:96,1,160,2|0,0:3|1:3,0:2:0:0:
64,248,16135,5,4,0:3:0:0:
32,336,16286,2,0,P|72:336|112:328,1,80,2|0,0:2|1:3,0:0:0:0:
216,312,16587,2,0,L|216:232,1,80,2|0,0:2|0:3,0:0:0:0:
296,152,16889,2,0,L|296:72,1,80,2|0,0:2|1:3,0:0:0:0:
401,56,17191,2,0,P|441:48|480:48,1,80,2|0,0:2|0:3,0:0:0:0:
448,152,17493,6,0,L|432:232,1,80,2|0,0:1|1:3,0:0:0:0:
328,232,17794,2,0,L|312:152,1,80,2|0,0:1|0:3,0:0:0:0:
200,152,18096,2,0,L|184:232,1,80,2|0,0:1|1:3,0:0:0:0:
80,231,18398,2,0,L|64:152,1,80,2|0,0:1|0:3,0:0:0:0:
24,48,18699,6,0,P|64:40|104:48,1,80,4|0,0:2|1:2,0:0:0:0:
216,8,19001,2,0,P|256:16|296:8,1,80,4|0,0:2|0:2,0:0:0:0:
296,96,19303,2,0,P|256:88|216:96,1,80,4|0,0:2|1:2,0:0:0:0:
168,168,19605,1,4,0:2:0:0:
256,176,19756,6,0,B|312:208|320:272|320:272,1,120,4|0,0:0|0:2,0:0:0:0:
320,296,20057,2,0,B|304:328|256:352|192:336,1,120,2|0,1:2|0:3,0:0:0:0:
192,336,20359,2,0,B|129:314|97:258|97:258,1,120,4|0,0:0|0:2,0:0:0:0:
96,240,20661,1,2,1:2:0:0:
104,144,20812,1,2,1:2:0:0:
184,192,20962,6,0,B|200:120|168:72|168:72,1,120,4|0,0:3|0:3,0:0:0:0:
160,56,21264,2,0,B|120:24|80:32|40:64,1,120,2|0,1:2|0:3,0:0:0:0:
32,72,21566,2,0,B|16:136|16:136|32:192,1,120,4|0,0:3|0:3,0:0:0:0:
40,208,21868,1,2,1:2:0:0:
128,248,22019,1,2,1:2:0:0:
224,224,22169,6,0,B|296:208|336:160|336:160,1,120,4|0,0:3|0:3,0:0:0:0:
344,160,22471,2,0,B|392:136|416:200|456:168,1,120,2|0,1:2|0:3,0:0:0:0:
480,160,22773,2,0,B|512:200|512:232|480:272,1,120,4|0,0:3|0:3,0:0:0:0:
456,272,23075,1,2,1:2:0:0:
360,256,23225,1,2,1:2:0:0:
336,352,23376,6,0,B|288:376|240:376|200:352,1,120,4|0,0:3|0:3,0:0:0:0:
200,352,23678,2,0,B|144:328|144:288|208:280,1,120,2|0,1:2|0:3,0:0:0:0:
224,280,23980,2,0,B|272:304|312:280|336:248,1,120,4|0,0:3|0:3,0:0:0:0:
344,240,24282,1,2,1:2:0:0:
328,144,24432,1,2,1:2:0:0:
256,208,24583,6,0,B|200:176|192:112|192:112,1,120,4|0,0:3|0:3,0:0:0:0:
192,88,24885,2,0,B|208:56|256:32|320:48,1,120,2|0,1:2|0:3,0:0:0:0:
320,48,25187,2,0,B|383:70|415:126|415:126,1,120,4|0,0:3|0:3,0:0:0:0:
416,144,25489,1,2,1:2:0:0:
408,240,25639,1,2,1:2:0:0:
328,192,25790,6,0,B|312:264|344:312|344:312,1,120,4|0,0:3|0:3,0:0:0:0:
352,328,26092,2,0,B|392:360|432:352|472:320,1,120,2|0,1:2|0:3,0:0:0:0:
480,312,26394,2,0,B|496:248|496:248|480:192,1,120,4|0,0:3|0:3,0:0:0:0:
472,176,26695,1,2,1:2:0:0:
384,136,26846,1,2,1:2:0:0:
288,160,26997,6,0,B|216:176|176:224|176:224,1,120,4|0,0:3|0:3,0:0:0:0:
168,224,27299,2,0,B|120:248|96:184|56:216,1,120,2|0,1:2|0:3,0:0:0:0:
32,224,27601,2,0,B|0:184|0:152|32:112,1,120,4|0,0:3|0:3,0:0:0:0:
56,112,27902,1,2,1:2:0:0:
152,128,28053,1,2,1:2:0:0:
176,32,28204,6,0,B|224:8|272:8|312:32,1,120,4|0,0:3|0:3,0:0:0:0:
312,32,28506,2,0,B|368:56|368:96|304:104,1,120,2|0,1:2|0:3,0:0:0:0:
288,104,28808,2,0,B|240:80|200:104|176:136,1,120,4|0,0:3|0:3,0:0:0:0:
168,144,29109,1,2,1:2:0:0:
184,240,29260,1,2,1:2:0:0:
256,192,29411,5,4,0:3:0:0:
256,192,29562,1,0,0:3:0:0:
472,192,30015,1,4,0:3:0:0:
472,192,30165,1,0,0:3:0:0:
360,368,30618,1,4,0:3:0:0:
360,368,30769,1,0,0:3:0:0:
256,256,31071,2,0,B|216:256|216:200|248:184|264:200|296:184|296:128|256:128,1,180.000006866455,4|8,0:3|0:3,0:0:0:0:
256,8,31825,5,4,0:3:0:0:
256,8,31976,1,0,0:3:0:0:
40,8,32428,1,4,0:3:0:0:
40,8,32579,1,0,0:3:0:0:
152,184,33032,1,4,0:3:0:0:
152,184,33183,1,0,0:3:0:0:
192,40,33484,2,0,P|320:72|320:80,1,180.000006866455,4|8,0:3|0:3,0:0:0:0:
256,192,34239,5,4,0:3:0:0:
256,192,34390,1,0,0:3:0:0:
40,192,34842,1,4,0:3:0:0:
40,192,34993,1,0,0:3:0:0:
152,16,35446,1,4,0:3:0:0:
152,16,35597,1,0,0:3:0:0:
256,128,35898,2,0,B|296:128|296:184|264:200|248:184|216:200|216:256|256:256,1,180.000006866455,4|8,0:3|0:3,0:0:0:0:
256,376,36653,5,4,0:3:0:0:
256,376,36804,1,0,0:3:0:0:
472,376,37256,1,4,0:3:0:0:
472,376,37407,1,0,0:3:0:0:
360,200,37860,1,4,0:3:0:0:
360,200,38011,1,0,0:3:0:0:
320,344,38312,2,0,P|192:312|192:304,1,180.000006866455,4|8,0:3|0:3,0:0:0:0:
256,192,39067,6,0,P|320:184|376:192,3,120.000004577637,2|0|0|0,0:2|0:3|0:3|0:3,0:0:0:0:
432,216,40123,1,0,0:3:0:0:
469,262,40274,2,0,B|429:310|365:350|365:350,3,120.000004577637,2|0|0|0,0:2|0:3|0:3|1:3,0:0:0:0:
320,360,41330,1,0,1:3:0:0:
256,368,41480,6,0,P|200:376|136:368,3,120.000004577637,2|0|0|0,0:2|0:3|0:3|0:3,0:0:0:0:
80,344,42537,1,0,0:3:0:0:
40,296,42687,2,0,B|80:248|144:208|144:208,3,120.000004577637,2|0|0|0,0:2|0:3|0:3|1:3,0:0:0:0:
192,200,43743,1,0,1:3:0:0:
256,192,43894,5,4,0:3:0:0:
376,192,44121,2,0,L|376:152,1,40,2|0,0:2|1:3,0:0:0:0:
376,32,44422,2,0,L|336:32,1,40,0|0,0:3|0:3,0:0:0:0:
216,32,44724,2,0,L|216:72,1,40,2|0,0:2|1:3,0:0:0:0:
296,112,44950,1,0,1:3:0:0:
256,192,45101,5,4,0:3:0:0:
136,192,45328,2,0,L|136:232,1,40,2|0,0:2|1:3,0:0:0:0:
136,352,45629,2,0,L|176:352,1,40,0|0,0:3|0:3,0:0:0:0:
296,352,45931,2,0,L|296:312,1,40,2|0,0:2|1:3,0:0:0:0:
216,272,46157,1,0,1:3:0:0:
256,192,46308,5,4,0:3:0:0:
256,72,46535,2,0,L|216:72,1,40,2|0,0:2|1:3,0:0:0:0:
96,72,46836,2,0,L|96:112,1,40,0|0,0:3|0:3,0:0:0:0:
96,232,47138,2,0,L|136:232,1,40,2|0,0:2|1:3,0:0:0:0:
176,152,47364,1,0,1:3:0:0:
256,192,47515,5,4,0:3:0:0:
256,312,47741,2,0,L|296:312,1,40,2|0,0:2|1:3,0:0:0:0:
416,312,48043,2,0,L|416:272,1,40,0|0,0:3|0:3,0:0:0:0:
416,152,48345,2,0,L|376:152,1,40,2|0,0:2|1:3,0:0:0:0:
336,232,48571,1,0,1:3:0:0:
296,304,48722,5,4,0:3:0:0:
296,304,48873,1,0,0:3:0:0:
216,80,49326,1,4,0:3:0:0:
216,80,49476,1,0,0:3:0:0:
256,312,49929,5,4,0:3:0:0:
320,232,50080,2,0,L|320:152,1,80,4|0,0:2|1:2,0:0:0:0:
192,232,50382,2,0,L|192:152,1,80,4|0,0:2|0:2,0:0:0:0:
216,48,50683,2,0,P|256:40|296:48,1,80,4|0,0:2|1:2,0:0:0:0:
294,47,50985,1,4,0:2:0:0:
256,136,51136,6,0,L|256:216,1,80,4|0,0:3|0:3,0:0:0:0:
336,232,51438,1,2,1:2:0:0:
328,312,51589,2,0,P|256:344|184:312,1,160,2|0,0:3|0:3,0:2:0:0:
104,336,52041,1,2,1:2:0:0:
32,288,52192,2,2,B|32:208|32:208|32:112|128:72|208:192|88:192,2,320,2|0|0,0:3|0:3|0:3,0:2:0:0:
248,336,53701,5,2,0:2:0:0:
256,328,53776,1,2,0:2:0:0:
264,320,53852,2,0,L|256:240,1,80,2|2,1:3|0:2,0:0:0:0:
336,248,54153,2,0,P|408:280|488:288,1,160,2|0,0:3|1:3,0:2:0:0:
424,360,54606,2,2,B|368:272|448:200|448:200|520:136|448:56,2,320,2|0|0,0:3|0:3|0:3,0:2:0:0:
280,288,56115,5,2,0:2:0:0:
288,280,56190,1,2,0:2:0:0:
296,272,56265,2,0,P|272:224|224:208,1,80,2|2,1:3|0:2,0:0:0:0:
184,264,56567,2,0,P|104:264|24:288,1,160,2|0,0:3|1:3,0:2:0:0:
24,128,57171,5,4,0:3:0:0:
32,48,57322,2,0,P|72:64|112:56,1,80,2|0,0:2|1:2,0:0:0:0:
208,80,57623,2,0,B|215:120|215:120|208:160,1,80,2|0,0:2|0:2,0:0:0:0:
296,224,57925,2,0,B|288:264|288:264|296:304,1,80,2|0,0:2|1:2,0:0:0:0:
401,328,58227,2,0,P|448:320|480:336,1,80,2|0,0:2|0:2,0:0:0:0:
448,232,58528,6,0,L|432:152,1,80,2|0,0:1|1:1,0:0:0:0:
352,224,58830,2,0,L|312:152,1,80,2|0,0:1|0:1,0:0:0:0:
200,152,59132,2,0,L|160:224,1,80,2|0,0:1|1:1,0:0:0:0:
80,153,59434,2,0,L|64:232,1,80,2|0,0:1|0:1,0:0:0:0:
24,336,59735,6,0,P|64:344|104:336,1,80,4|0,0:2|1:2,0:0:0:0:
184,320,60037,2,0,P|224:320|264:328,1,80,4|0,0:2|0:2,0:0:0:0:
328,384,60339,2,0,P|344:352|344:304,1,80,4|0,0:2|1:2,0:0:0:0:
336,232,60641,1,4,0:2:0:0:
256,248,60791,6,0,L|256:168,1,80,4|0,0:3|0:3,0:0:0:0:
176,152,61093,1,2,1:2:0:0:
184,72,61244,2,0,P|256:40|328:72,1,160,2|0,0:3|0:3,0:2:0:0:
408,48,61697,1,2,1:2:0:0:
480,96,61848,2,2,B|480:176|480:176|480:272|384:312|304:192|424:192,2,320,2|0|0,0:3|0:3|0:3,0:2:0:0:
264,48,63356,5,2,0:2:0:0:
256,56,63432,1,2,0:2:0:0:
248,64,63507,2,0,L|256:144,1,80,2|2,1:3|0:2,0:0:0:0:
176,136,63809,2,0,P|104:104|24:96,1,160,2|0,0:3|1:3,0:2:0:0:
88,24,64261,2,2,B|144:112|64:184|64:184|-8:248|64:328,2,320,2|0|0,0:3|0:3|0:3,0:2:0:0:
232,96,65770,5,2,0:2:0:0:
224,104,65846,1,2,0:2:0:0:
216,112,65921,2,0,P|240:160|288:176,1,80,2|2,1:3|0:2,0:0:0:0:
328,120,66223,2,0,P|408:120|488:96,1,160,2|0,0:3|1:3,0:2:0:0:
488,256,66826,5,4,0:3:0:0:
480,336,66977,2,0,P|440:320|400:328,1,80,2|0,0:2|1:2,0:0:0:0:
304,304,67279,2,0,B|297:264|297:264|304:224,1,80,2|0,0:2|0:2,0:0:0:0:
216,160,67581,2,0,B|224:120|224:120|216:80,1,80,2|0,0:2|1:2,0:0:0:0:
111,56,67882,2,0,P|64:64|32:48,1,80,2|0,0:2|0:2,0:0:0:0:
64,152,68184,6,0,L|80:232,1,80,2|0,0:1|1:1,0:0:0:0:
160,160,68486,2,0,L|200:232,1,80,2|0,0:1|0:1,0:0:0:0:
312,232,68787,2,0,L|352:160,1,80,2|0,0:1|1:1,0:0:0:0:
432,231,69089,2,0,L|448:152,1,80,2|0,0:1|0:1,0:0:0:0:
488,48,69391,6,0,P|448:40|408:48,1,80,4|0,0:2|1:2,0:0:0:0:
328,64,69693,2,0,P|288:64|248:56,1,80,4|0,0:2|0:2,0:0:0:0:
184,0,69994,2,0,P|168:32|168:80,1,80,4|0,0:2|1:2,0:0:0:0:
176,152,70296,1,4,0:2:0:0:
256,192,70447,6,0,B|248:240|208:248|168:256|160:304,1,120,4|0,0:3|0:3,0:0:0:0:
160,288,70749,2,0,B|168:336|224:360|256:336,1,120,2|0,1:2|0:3,0:0:0:0:
272,328,71050,2,0,B|328:264|384:328|384:328,1,120,4|0,0:3|0:3,0:0:0:0:
392,336,71352,1,2,1:2:0:0:
440,248,71503,1,2,1:2:0:0:
344,232,71654,6,0,B|328:160|376:112|376:112,1,120,4|0,0:3|0:3,0:0:0:0:
384,104,71956,2,0,B|400:40|336:16|280:56|280:56,1,120,2|0,1:2|0:3,0:0:0:0:
288,48,72257,2,0,B|224:56|224:56|160:48,1,120,4|0,0:3|0:3,0:0:0:0:
144,48,72559,1,2,1:2:0:0:
112,144,72710,1,2,1:2:0:0:
144,240,72861,6,0,B|184:264|200:328|152:368,1,120,4|0,0:3|0:3,0:0:0:0:
152,360,73163,2,0,B|96:376|48:352|32:328,1,120,2|0,1:2|0:3,0:0:0:0:
24,320,73464,2,0,B|56:240|32:200|32:200,1,120,4|0,0:3|0:3,0:0:0:0:
24,184,73766,1,2,1:2:0:0:
112,144,73917,1,2,1:2:0:0:
208,160,74068,6,0,B|256:176|280:176|328:160,1,120,4|0,0:3|0:3,0:0:0:0:
344,152,74370,2,0,B|384:176|408:224|392:280,1,120,2|0,1:2|0:3,0:0:0:0:
392,272,74671,2,0,B|360:312|312:328|272:328,1,120,4|0,0:3|0:3,0:0:0:0:
264,328,74973,1,2,1:2:0:0:
192,264,75124,1,2,1:2:0:0:
256,192,75275,6,0,B|264:144|304:136|344:128|352:80,1,120,4|0,0:3|0:3,0:0:0:0:
352,96,75577,2,0,B|344:48|288:24|256:48,1,120,2|0,1:2|0:3,0:0:0:0:
240,56,75878,2,0,B|184:120|128:56|128:56,1,120,4|0,0:3|0:3,0:0:0:0:
120,48,76180,1,2,1:2:0:0:
72,136,76331,1,2,1:2:0:0:
168,152,76482,6,0,B|184:224|136:272|136:272,1,120,4|0,0:3|0:3,0:0:0:0:
128,280,76783,2,0,B|112:344|176:368|232:328|232:328,1,120,2|0,1:2|0:3,0:0:0:0:
224,336,77085,2,0,B|288:328|288:328|352:336,1,120,4|0,0:3|0:3,0:0:0:0:
368,336,77387,1,2,1:2:0:0:
400,240,77538,1,2,1:2:0:0:
368,144,77689,6,0,B|328:120|312:56|360:16,1,120,4|0,0:3|0:3,0:0:0:0:
360,24,77990,2,0,B|416:8|464:32|480:56,1,120,2|0,1:2|0:3,0:0:0:0:
488,64,78292,2,0,B|456:144|480:184|480:184,1,120,4|0,0:3|0:3,0:0:0:0:
488,200,78594,1,2,1:2:0:0:
400,240,78745,1,2,1:2:0:0:
304,224,78896,6,0,B|256:208|232:208|184:224,1,120,4|0,0:3|0:3,0:0:0:0:
168,232,79197,2,0,B|128:208|104:160|120:104,1,120,2|0,1:2|0:3,0:0:0:0:
120,112,79499,2,0,B|152:72|200:56|240:56,1,120,4|0,0:3|0:3,0:0:0:0:
248,56,79801,1,2,1:2:0:0:
320,120,79952,1,2,1:2:0:0:
256,192,80103,5,4,0:3:0:0:
256,192,80253,1,0,0:3:0:0:
40,192,80706,1,4,0:3:0:0:
40,192,80857,1,0,0:3:0:0:
152,368,81309,1,4,0:3:0:0:
152,368,81460,1,0,0:3:0:0:
256,256,81762,2,0,B|296:256|296:200|264:184|248:200|216:184|216:128|256:128,1,180.000006866455,4|8,0:3|0:3,0:0:0:0:
256,8,82516,5,4,0:3:0:0:
256,8,82667,1,0,0:3:0:0:
472,8,83120,1,4,0:3:0:0:
472,8,83271,1,0,0:3:0:0:
360,184,83723,1,4,0:3:0:0:
360,184,83874,1,0,0:3:0:0:
320,40,84176,2,0,P|192:72|192:80,1,180.000006866455,4|8,0:3|0:3,0:0:0:0:
256,192,84930,5,4,0:3:0:0:
256,192,85081,1,0,0:3:0:0:
472,192,85534,1,4,0:3:0:0:
472,192,85685,1,0,0:3:0:0:
360,16,86137,1,4,0:3:0:0:
360,16,86288,1,0,0:3:0:0:
256,128,86590,2,0,B|216:128|216:184|248:200|264:184|296:200|296:256|256:256,1,180.000006866455,4|8,0:3|0:3,0:0:0:0:
256,376,87344,5,4,0:3:0:0:
256,376,87495,1,0,0:3:0:0:
40,376,87948,1,4,0:3:0:0:
40,376,88099,1,0,0:3:0:0:
152,200,88551,1,4,0:3:0:0:
152,200,88702,1,0,0:3:0:0:
192,344,89004,2,0,P|320:312|320:304,1,180.000006866455,4|8,0:3|0:3,0:0:0:0:
256,192,89758,6,0,P|192:184|136:192,3,120.000004577637,2|0|0|0,0:2|0:3|0:3|0:3,0:0:0:0:
80,216,90814,1,0,0:3:0:0:
43,262,90965,2,0,B|83:310|147:350|147:350,3,120.000004577637,2|0|0|0,0:2|0:3|0:3|1:3,0:0:0:0:
192,360,92021,1,0,1:3:0:0:
256,368,92172,6,0,P|312:376|376:368,3,120.000004577637,2|0|0|0,0:2|0:3|0:3|0:3,0:0:0:0:
432,344,93228,1,0,0:3:0:0:
472,296,93379,2,0,B|432:248|368:208|368:208,3,120.000004577637,2|0|0|0,0:2|0:3|0:3|1:3,0:0:0:0:
320,200,94435,1,0,1:3:0:0:
256,192,94586,5,4,0:3:0:0:
136,192,94812,2,0,L|136:152,1,40,2|0,0:2|1:3,0:0:0:0:
136,32,95114,2,0,L|176:32,1,40,0|0,0:3|0:3,0:0:0:0:
296,32,95416,2,0,L|296:72,1,40,2|0,0:2|1:3,0:0:0:0:
216,112,95642,1,0,1:3:0:0:
256,192,95793,5,4,0:3:0:0:
376,192,96019,2,0,L|376:232,1,40,2|0,0:2|1:3,0:0:0:0:
376,352,96321,2,0,L|336:352,1,40,0|0,0:3|0:3,0:0:0:0:
216,352,96623,2,0,L|216:312,1,40,2|0,0:2|1:3,0:0:0:0:
296,272,96849,1,0,1:3:0:0:
256,192,97000,5,4,0:3:0:0:
256,72,97226,2,0,L|296:72,1,40,2|0,0:2|1:3,0:0:0:0:
416,72,97528,2,0,L|416:112,1,40,0|0,0:3|0:3,0:0:0:0:
416,232,97829,2,0,L|376:232,1,40,2|0,0:2|1:3,0:0:0:0:
336,152,98056,1,0,1:3:0:0:
256,192,98207,5,4,0:3:0:0:
256,312,98433,2,0,L|216:312,1,40,2|0,0:2|1:3,0:0:0:0:
96,312,98735,2,0,L|96:272,1,40,0|0,0:3|0:3,0:0:0:0:
96,152,99036,2,0,L|136:152,1,40,2|0,0:2|1:3,0:0:0:0:
176,232,99263,1,0,1:3:0:0:
216,304,99414,5,4,0:3:0:0:
216,304,99564,1,0,0:3:0:0:
296,80,100017,1,4,0:3:0:0:
296,80,100168,1,0,0:3:0:0:
256,304,100621,5,4,0:3:0:0:
200,224,100771,2,0,L|192:144,1,80,4|0,0:2|1:2,0:0:0:0:
320,224,101073,2,0,L|328:144,1,80,4|0,0:2|0:2,0:0:0:0:
256,16,101375,2,0,L|256:96,1,80,4|0,0:2|1:2,0:0:0:0:
256,96,101677,1,4,0:2:0:0:
256,192,101827,5,4,0:1:0:0:
