osu file format v14

[General]
AudioFilename: spaghetticode.mp3
AudioLeadIn: 0
PreviewTime: 3116
Countdown: 0
SampleSet: Normal
StackLeniency: 0.7
Mode: 1
LetterboxInBreaks: 0
WidescreenStoryboard: 0

[Editor]
DistanceSpacing: 1.5
BeatDivisor: 6
GridSize: 16
TimelineZoom: 1.3

[Metadata]
Title:Itsu demo Happy
TitleUnicode:いつでもハッピー
Artist:Shimomura Yoko
ArtistUnicode:下村陽子
Creator:Basensorex
Version:Muzukashii
Source:マリオ&ルイージRPG3!!!
Tags:mario and & luigi bowser's inside story video game original soundtrack ost instrumental nintendo ds nds 3ds have a nice talk persistent joy alpha dream
BeatmapID:2909891
BeatmapSetID:1411472

[Difficulty]
HPDrainRate:7
CircleSize:5
OverallDifficulty:5
ApproachRate:5
SliderMultiplier:1.4
SliderTickRate:1

[Events]
//Background and Video events
0,0,"bg.jpg",0,85
//Break Periods
//Storyboard Layer 0 (Background)
//Storyboard Layer 1 (Fail)
//Storyboard Layer 2 (Pass)
//Storyboard Layer 3 (Foreground)
//Storyboard Layer 4 (Overlay)
//Storyboard Sound Samples

[TimingPoints]
200,500,3,1,0,50,1,0

[HitObjects]
256,191,200,5,0,1:0:0:0:
256,191,533,1,8,1:0:0:0:
256,192,700,1,0,1:0:0:0:
256,192,1200,1,0,1:0:0:0:
256,191,1700,1,0,1:0:0:0:
256,192,2033,1,8,1:0:0:0:
256,192,2200,1,0,1:0:0:0:
255,191,2700,1,0,1:0:0:0:
256,192,2950,1,8,1:0:0:0:
256,192,3033,1,8,1:0:0:0:
256,192,3116,1,8,1:0:0:0:
256,192,3200,1,8,1:0:0:0:
255,191,3533,1,8,1:0:0:0:
255,191,3700,1,0,1:0:0:0:
256,191,4033,1,8,1:0:0:0:
256,191,4200,1,0,1:0:0:0:
255,191,4533,1,0,1:0:0:0:
256,191,4700,1,8,1:0:0:0:
255,191,5033,1,0,1:0:0:0:
256,191,5200,1,8,1:0:0:0:
256,192,5700,1,0,1:0:0:0:
255,191,6200,1,0,1:0:0:0:
255,191,6366,1,8,1:0:0:0:
255,191,6533,1,0,1:0:0:0:
255,191,6700,1,8,1:0:0:0:
256,192,7033,1,0,1:0:0:0:
256,192,7200,1,8,1:0:0:0:
255,191,7700,1,0,1:0:0:0:
255,191,7866,1,8,1:0:0:0:
255,191,8033,1,0,1:0:0:0:
255,191,8200,1,8,1:0:0:0:
256,192,8533,1,8,1:0:0:0:
256,192,8700,1,0,1:0:0:0:
255,191,9033,1,0,1:0:0:0:
256,192,9200,1,12,1:0:0:0:
255,191,9533,1,8,1:0:0:0:
255,191,9700,1,0,1:0:0:0:
256,191,10033,1,8,1:0:0:0:
256,191,10200,1,0,1:0:0:0:
255,191,10533,1,0,1:0:0:0:
256,191,10700,1,8,1:0:0:0:
255,191,11033,1,0,1:0:0:0:
256,191,11200,1,8,1:0:0:0:
256,192,11700,1,0,1:0:0:0:
255,191,12200,1,0,1:0:0:0:
255,191,12366,1,8,1:0:0:0:
255,191,12533,1,0,1:0:0:0:
255,191,12700,1,8,1:0:0:0:
256,192,13033,1,0,1:0:0:0:
256,192,13200,1,8,1:0:0:0:
255,191,13700,1,0,1:0:0:0:
255,191,13866,1,8,1:0:0:0:
255,191,14033,1,0,1:0:0:0:
255,191,14200,1,8,1:0:0:0:
256,192,14533,1,8,1:0:0:0:
256,192,14700,1,0,1:0:0:0:
256,192,15033,1,0,1:0:0:0:
256,192,15200,1,12,1:0:0:0:
256,192,15700,1,8,1:0:0:0:
256,192,16200,1,0,1:0:0:0:
256,192,16533,1,8,1:0:0:0:
256,192,16700,1,0,1:0:0:0:
256,192,17200,1,8,1:0:0:0:
256,192,17700,1,0,1:0:0:0:
256,192,18200,1,0,1:0:0:0:
256,192,18533,1,0,1:0:0:0:
256,192,18700,1,8,1:0:0:0:
256,192,19200,1,0,1:0:0:0:
256,192,19533,1,0,1:0:0:0:
256,192,19700,1,8,1:0:0:0:
256,192,20033,1,0,1:0:0:0:
256,192,20200,1,8,1:0:0:0:
256,192,20533,1,8,1:0:0:0:
256,192,20700,1,0,1:0:0:0:
256,192,21033,1,0,1:0:0:0:
256,192,21200,1,12,1:0:0:0:
256,192,21700,1,8,1:0:0:0:
256,192,22200,1,0,1:0:0:0:
256,192,22533,1,8,1:0:0:0:
256,192,22700,1,0,1:0:0:0:
256,192,23200,1,8,1:0:0:0:
256,192,23700,1,0,1:0:0:0:
256,192,24200,1,0,1:0:0:0:
256,192,24533,1,0,1:0:0:0:
256,192,24700,1,8,1:0:0:0:
256,192,25200,1,0,1:0:0:0:
256,192,25533,1,8,1:0:0:0:
256,192,25700,1,0,1:0:0:0:
256,192,26033,1,0,1:0:0:0:
256,192,26200,1,8,1:0:0:0:
256,192,26700,1,0,1:0:0:0:
256,192,26950,1,8,1:0:0:0:
256,192,27033,1,8,1:0:0:0:
256,192,27116,1,8,1:0:0:0:
256,192,27200,1,8,1:0:0:0:
255,191,27533,1,8,1:0:0:0:
255,191,27700,1,0,1:0:0:0:
256,191,28033,1,8,1:0:0:0:
256,191,28200,1,0,1:0:0:0:
255,191,28533,1,0,1:0:0:0:
256,191,28700,1,8,1:0:0:0:
255,191,29033,1,0,1:0:0:0:
256,191,29200,1,8,1:0:0:0:
256,192,29700,1,0,1:0:0:0:
255,191,30200,1,0,1:0:0:0:
255,191,30366,1,8,1:0:0:0:
255,191,30533,1,0,1:0:0:0:
255,191,30700,1,8,1:0:0:0:
256,192,31033,1,0,1:0:0:0:
256,192,31200,1,8,1:0:0:0:
255,191,31700,1,0,1:0:0:0:
255,191,31866,1,8,1:0:0:0:
255,191,32033,1,0,1:0:0:0:
255,191,32200,1,8,1:0:0:0:
256,192,32533,1,8,1:0:0:0:
256,192,32700,1,0,1:0:0:0:
255,191,33033,1,0,1:0:0:0:
256,192,33200,1,12,1:0:0:0:
255,191,33533,1,8,1:0:0:0:
255,191,33700,1,0,1:0:0:0:
256,191,34033,1,8,1:0:0:0:
256,191,34200,1,0,1:0:0:0:
255,191,34533,1,0,1:0:0:0:
256,191,34700,1,8,1:0:0:0:
255,191,35033,1,0,1:0:0:0:
256,191,35200,1,8,1:0:0:0:
256,192,35700,1,0,1:0:0:0:
255,191,36200,1,0,1:0:0:0:
255,191,36366,1,8,1:0:0:0:
255,191,36533,1,0,1:0:0:0:
255,191,36700,1,8,1:0:0:0:
256,192,37033,1,0,1:0:0:0:
256,192,37200,1,8,1:0:0:0:
255,191,37700,1,0,1:0:0:0:
255,191,37866,1,8,1:0:0:0:
255,191,38033,1,0,1:0:0:0:
255,191,38200,1,8,1:0:0:0:
256,192,38533,1,8,1:0:0:0:
256,192,38700,1,0,1:0:0:0:
256,192,39033,1,0,1:0:0:0:
256,192,39200,1,12,1:0:0:0:
256,192,39700,1,8,1:0:0:0:
256,192,40200,1,0,1:0:0:0:
256,192,40533,1,8,1:0:0:0:
256,192,40700,1,0,1:0:0:0:
256,192,41200,1,8,1:0:0:0:
256,192,41700,1,0,1:0:0:0:
256,192,42200,1,0,1:0:0:0:
256,192,42533,1,0,1:0:0:0:
256,192,42700,1,8,1:0:0:0:
256,192,43200,1,0,1:0:0:0:
256,192,43533,1,0,1:0:0:0:
256,192,43700,1,8,1:0:0:0:
256,192,44033,1,0,1:0:0:0:
256,192,44200,1,8,1:0:0:0:
256,192,44533,1,8,1:0:0:0:
256,192,44700,1,0,1:0:0:0:
256,192,45033,1,0,1:0:0:0:
256,192,45200,1,12,1:0:0:0:
256,192,45700,1,8,1:0:0:0:
256,192,46200,1,0,1:0:0:0:
256,192,46533,1,8,1:0:0:0:
256,192,46700,1,0,1:0:0:0:
256,192,47200,1,8,1:0:0:0:
256,192,47700,1,0,1:0:0:0:
256,192,48200,1,0,1:0:0:0:
256,192,48533,1,0,1:0:0:0:
256,192,48700,1,8,1:0:0:0:
256,192,49200,1,0,1:0:0:0:
256,192,49533,1,8,1:0:0:0:
256,192,49700,1,0,1:0:0:0:
256,192,50033,1,0,1:0:0:0:
256,192,50200,1,8,1:0:0:0:
256,192,50700,1,0,1:0:0:0:
256,192,50950,1,8,1:0:0:0:
256,192,51033,1,8,1:0:0:0:
256,192,51116,1,8,1:0:0:0:
256,192,51200,1,8,1:0:0:0:
256,192,51533,8,0,57200,1:0:0:0:
