osu file format v14

[General]
AudioFilename: audio.mp3
AudioLeadIn: 0
PreviewTime: 62826
Countdown: 0
SampleSet: Soft
StackLeniency: 0.7
Mode: 0
LetterboxInBreaks: 0
WidescreenStoryboard: 1

[Editor]
DistanceSpacing: 1.1
BeatDivisor: 4
GridSize: 8
TimelineZoom: 2.3

[Metadata]
Title:God Save The Girls (TV Size)
TitleUnicode:God Save The Girls (TV Size)
Artist:Shimoji Shino
ArtistUnicode:下地紫野
Creator:rosario wknd
Version:Normal
Source:ステラのまほう
Tags:magic of stella no mahou anime japanese opening アニメ
BeatmapID:2207769
BeatmapSetID:1050590

[Difficulty]
HPDrainRate:3
CircleSize:3.1
OverallDifficulty:4
ApproachRate:5
SliderMultiplier:1
SliderTickRate:1

[Events]
//Background and Video events
0,0,"bg.jpg",0,0
Video,300,"stella no mahou.avi"
//Break Periods
//Storyboard Layer 0 (Background)
//Storyboard Layer 1 (Fail)
//Storyboard Layer 2 (Pass)
//Storyboard Layer 3 (Foreground)
//Storyboard Layer 4 (Overlay)
//Storyboard Sound Samples

[TimingPoints]
806,352.941176470588,4,2,0,50,1,0
1688,352.941176470588,4,2,0,50,1,0
1688,-100,4,2,0,50,0,0
10158,-100,4,2,0,60,0,0
11570,-100,4,2,0,50,0,0
11571,-100,4,2,0,50,0,0
12187,-100,4,2,0,60,0,0
12188,-100,4,2,0,60,0,0
12982,-100,4,2,0,70,0,0
15805,-100,4,2,0,60,0,0
23393,-100,4,2,0,50,0,0
23394,-100,4,2,0,50,0,0
24276,-100,4,2,0,70,0,0
27099,-100,4,2,0,60,0,0
27100,-100,4,2,0,50,0,0
38393,-100,4,2,0,60,0,0
49687,-100,4,2,0,55,0,0
49688,-100,4,2,0,55,0,0
55335,-100,4,2,0,60,0,0
55336,-100,4,2,0,60,0,0
58158,-100,4,2,0,70,0,0
63805,-100,4,2,0,70,0,1
83570,-100,4,2,0,75,0,1
84982,-100,4,2,0,60,0,0
86570,-100,4,2,0,5,0,0

[Colours]
Combo1 : 251,203,115
Combo2 : 235,133,227
Combo3 : 140,149,251
Combo4 : 136,228,12

[HitObjects]
48,104,806,5,2,0:0:0:0:
48,104,982,2,0,L|156:94,1,100,2|2,0:0|0:0,0:0:0:0:
252,60,1688,2,0,B|277:189|200:120|235:266,2,200,2|2|2,0:0|0:0|0:0,0:0:0:0:
414,29,3629,5,2,0:0:0:0:
414,29,3805,2,0,L|425:142,1,100,2|2,0:0|0:0,0:0:0:0:
404,237,4511,2,0,P|349:221|253:240,1,150,2|0,0:0|0:0,0:0:0:0:
221,276,5217,2,0,P|157:293|63:271,1,150,2|2,0:0|0:0,0:0:0:0:
25,255,5923,2,0,L|31:349,2,75,2|2|2,0:0|0:0|0:0,0:0:0:0:
24,199,6629,1,2,0:0:0:0:
226,112,7335,6,0,P|230:86|222:47,2,50,2|2|2,0:0|0:0|0:0,0:0:0:0:
187,151,7864,2,0,P|132:161|74:144,1,100,2|2,0:0|0:0,0:0:0:0:
42,133,8393,1,2,0:0:0:0:
42,133,8570,2,0,L|49:249,1,100,2|2,0:0|0:0,0:0:0:0:
60,291,9099,1,2,0:0:0:0:
60,291,9276,1,2,0:0:0:0:
274,229,9982,5,2,0:0:0:0:
274,229,10158,2,0,P|338:220|386:218,1,100,0|2,0:0|0:0,0:0:0:0:
444,133,10864,2,0,P|379:127|332:121,1,100,2|2,0:0|0:0,0:0:0:0:
296,23,11570,2,0,B|227:27|227:27|206:44|206:44|140:47,1,150,2|0,0:0|0:0,0:0:0:0:
97,42,12276,1,8,3:0:0:0:
157,134,12629,1,10,0:0:0:0:
68,190,12982,6,0,P|53:239|72:301,1,100,12|0,0:0|0:0,0:0:0:0:
103,323,13511,2,0,L|225:331,1,100,12|0,0:0|3:0,0:0:0:0:
257,331,14040,1,0,3:0:0:0:
352,276,14393,2,0,P|367:227|348:165,1,100,12|0,0:0|3:0,0:0:0:0:
316,142,14923,2,0,L|204:147,1,100,12|8,0:0|3:0,0:0:0:0:
161,150,15452,1,8,0:0:0:0:
148,40,15805,6,0,P|204:33|256:45,1,100,12|8,3:0|0:0,0:0:0:0:
298,61,16335,2,0,P|352:67|410:57,1,100,8|8,3:0|3:0,0:0:0:0:
451,50,16864,1,8,0:0:0:0:
422,156,17217,2,0,P|407:212|421:267,1,100,2|8,0:0|0:0,0:0:0:0:
424,306,17746,1,8,3:0:0:0:
424,306,17923,2,0,L|356:313,1,50,0|8,0:0|3:0,0:0:0:0:
323,289,18276,1,8,0:0:0:0:
226,341,18629,6,0,P|175:353|118:334,1,100,8|0,3:0|0:0,0:0:0:0:
96,297,19158,2,0,L|87:178,1,100,8|8,3:0|3:0,0:0:0:0:
198,203,19864,2,0,P|248:213|306:195,1,100,12|8,3:0|3:0,0:0:0:0:
331,160,20393,2,0,L|389:158,1,50,8|8,0:0|3:0,0:0:0:0:
438,65,20923,1,8,3:0:0:0:
438,65,21099,2,0,L|382:60,1,50,8|0,0:0|0:0,0:0:0:0:
350,20,21452,6,0,P|301:7|239:22,1,100,12|8,3:0|0:0,0:0:0:0:
203,39,21982,2,0,L|98:47,1,100,8|8,3:0|3:0,0:0:0:0:
58,78,22511,1,8,0:0:0:0:
38,186,22864,2,0,L|49:303,1,100,2|8,0:0|0:0,0:0:0:0:
68,336,23393,1,8,3:0:0:0:
171,374,23746,1,12,3:0:0:0:
297,267,24276,6,0,L|364:271,2,50,8|8|8,0:0|3:0|3:0,0:0:0:0:
244,249,24805,2,0,P|236:209|235:133,1,100,8|8,0:0|3:0,0:0:0:0:
192,47,25511,2,0,B|242:61|242:61|296:45,1,100,12|8,0:0|3:0,0:0:0:0:
338,33,26040,1,8,3:0:0:0:
338,33,26217,2,0,L|437:41,1,100,8|10,0:0|3:0,0:0:0:0:
475,80,26746,1,10,0:0:0:0:
417,173,27099,6,0,P|406:226|403:287,1,100,4|8,3:0|3:0,0:0:0:0:
317,341,27805,2,0,P|307:286|294:239,1,100,2|8,3:2|3:0,0:0:0:0:
275,191,28335,2,0,P|225:201|164:209,2,100,2|2|2,0:0|0:0|0:0,0:0:0:0:
320,159,29217,1,2,3:2:0:0:
346,52,29570,1,8,3:0:0:0:
242,14,29923,6,0,P|182:23|127:29,1,100,0|8,3:0|3:0,0:0:0:0:
73,112,30629,2,0,P|139:119|179:125,1,100,2|8,3:2|3:0,0:0:0:0:
210,163,31158,2,0,L|322:152,2,100,2|2|2,0:0|0:0|0:0,0:0:0:0:
184,211,32040,1,2,3:2:0:0:
82,253,32393,1,8,3:0:0:0:
89,362,32746,5,0,3:0:0:0:
190,318,33099,1,8,3:0:0:0:
282,377,33452,2,0,P|273:323|304:267,1,100,2|8,3:2|3:0,0:0:0:0:
343,261,33982,1,2,0:0:0:0:
343,261,34158,2,0,L|451:255,1,100,2|8,3:2|3:0,0:0:0:0:
391,158,34864,1,0,3:0:0:0:
450,65,35217,1,8,3:0:0:0:
340,75,35570,6,0,L|220:82,1,100,2|8,3:2|3:0,0:0:0:0:
194,107,36099,1,2,0:0:0:0:
194,107,36276,2,0,L|80:98,1,100,2|0,3:2|0:0,0:0:0:0:
43,103,36805,1,0,0:0:0:0:
43,103,36982,2,0,L|48:167,2,50,10|8|0,0:0|3:0|0:0,0:0:0:0:
29,49,37511,1,8,0:0:0:0:
136,16,37864,1,8,3:0:0:0:
136,16,38040,1,8,0:0:0:0:
231,65,38393,6,0,P|293:54|339:50,1,100,12|10,3:0|0:0,0:0:0:0:
384,44,38923,1,0,0:0:0:0:
384,44,39099,2,0,L|379:148,1,100,8|2,3:0|0:0,0:0:0:0:
374,199,39629,2,0,P|438:195|489:208,2,100,10|8|2,0:0|3:0|0:0,0:0:0:0:
323,221,40511,1,8,3:0:0:0:
364,323,40864,1,10,0:0:0:0:
255,302,41217,6,0,P|209:307|141:317,1,100,8|10,3:0|0:0,0:0:0:0:
109,341,41746,1,0,0:0:0:0:
109,341,41923,2,0,L|103:223,1,100,8|0,3:0|0:0,0:0:0:0:
96,186,42452,2,0,P|51:167|-8:168,2,100,10|8|2,0:0|3:0|0:0,0:0:0:0:
145,161,43335,1,8,3:0:0:0:
242,210,43687,1,10,0:0:0:0:
334,150,44040,5,8,3:0:0:0:
443,164,44393,2,0,L|435:227,1,50,10|0,0:0|0:0,0:0:0:0:
428,271,44746,1,8,3:0:0:0:
428,271,44923,2,0,P|362:259|311:253,1,100,0|10,0:0|0:0,0:0:0:0:
291,295,45452,2,0,P|250:302|190:306,1,100,2|8,0:0|3:0,0:0:0:0:
138,322,45982,1,2,0:0:0:0:
62,242,46335,1,8,3:0:0:0:
142,173,46687,1,2,0:0:0:0:
142,173,46864,6,0,L|153:53,2,100,8|8|8,3:0|0:0|3:0,0:0:0:0:
165,223,47746,2,0,L|231:220,1,50,8|2,3:0|0:0,0:0:0:0:
264,244,48099,2,0,B|365:230|297:275|415:254,1,150,14|8,0:0|3:0,0:0:0:0:
479,168,48982,1,8,3:0:0:0:
441,64,49335,1,2,3:2:0:0:
344,103,49687,6,0,P|284:103|245:88,1,100,12|8,3:0|3:0,0:0:0:0:
226,37,50217,2,0,P|170:44|74:51,1,150,8|10,3:0|0:0,0:0:0:0:
119,152,51099,2,0,P|168:156|277:170,2,150,8|8|8,3:0|3:0|0:0,0:0:0:0:
17,196,52511,6,0,L|23:310,1,100,8|8,3:0|3:0,0:0:0:0:
24,350,53040,2,0,P|88:332|176:357,1,150,8|10,3:0|0:0,0:0:0:0:
240,269,53923,2,0,L|249:190,2,75,8|2|8,3:0|0:0|3:0,0:0:0:0:
235,323,54629,1,2,0:0:0:0:
139,378,54982,1,8,0:0:0:0:
52,319,55335,6,0,P|42:263|61:217,1,100,8|8,3:0|3:0,0:0:0:0:
156,177,56040,2,0,P|172:122|151:63,1,100,8|8,3:0|3:0,0:0:0:0:
134,33,56570,1,2,0:0:0:0:
134,33,56746,2,0,L|233:25,1,100,8|8,3:0|3:0,0:0:0:0:
331,76,57452,2,0,L|445:86,1,100,8|8,3:0|3:0,0:0:0:0:
487,178,58158,6,0,P|498:227|505:291,2,100,10|10|10,0:0|0:0|0:0,0:0:0:0:
390,230,59217,1,10,0:0:0:0:
283,255,59570,2,0,P|289:205|300:156,2,100,10|10|10,0:0|0:0|0:0,0:0:0:0:
311,361,60629,1,10,0:0:0:0:
210,317,60982,6,0,L|107:309,1,100,10|8,0:0|3:0,0:0:0:0:
11,260,61687,2,0,L|17:187,1,50,8|8,3:0|3:0,0:0:0:0:
21,155,62040,1,8,3:0:0:0:
21,155,62217,2,0,P|67:137|117:129,1,100,8|8,3:0|3:0,0:0:0:0:
169,143,62746,1,8,0:0:0:0:
256,76,63099,2,0,L|314:83,1,50,8|2,3:0|0:0,0:0:0:0:
350,114,63452,1,10,0:0:0:0:
272,193,63805,6,0,P|265:251|262:300,1,100,12|8,3:0|0:0,0:0:0:0:
259,347,64335,1,0,0:0:0:0:
259,347,64511,2,0,P|310:336|369:329,1,100,8|8,3:0|0:0,0:0:0:0:
464,305,65217,2,0,P|481:254|457:198,1,100,10|8,3:0|0:0,0:0:0:0:
418,186,65746,1,8,3:0:0:0:
418,186,65923,2,0,L|413:119,1,50,2|8,0:0|3:0,0:0:0:0:
453,97,66276,1,10,0:0:0:0:
359,39,66629,6,0,P|301:42|256:42,1,100,8|8,3:0|0:0,0:0:0:0:
204,49,67158,1,0,0:0:0:0:
204,49,67335,2,0,P|195:94|191:171,1,100,8|8,3:0|0:0,0:0:0:0:
182,203,67864,1,8,3:0:0:0:
182,203,68040,2,0,P|119:212|66:210,2,100,2|10|2,0:0|0:0|0:0,0:0:0:0:
237,200,68923,1,8,3:0:0:0:
237,200,69099,1,8,0:0:0:0:
346,208,69452,6,0,P|354:254|362:312,2,100,8|10|2,3:0|0:0|0:0,0:0:0:0:
339,157,70335,1,10,0:0:0:0:
339,157,70511,1,10,0:0:0:0:
434,102,70864,2,0,P|426:56|418:-2,2,100,8|10|2,3:0|0:0|0:0,0:0:0:0:
447,160,71746,1,10,0:0:0:0:
447,160,71923,1,10,0:0:0:0:
508,251,72276,6,0,P|468:273|409:262,1,100,8|10,3:0|0:0,0:0:0:0:
305,255,72982,2,0,L|300:316,2,50,8|8|10,3:0|3:0|0:0,0:0:0:0:
294,200,73511,2,0,P|249:175|144:195,1,150,12|8,3:0|0:0,0:0:0:0:
58,241,74393,1,8,3:0:0:0:
105,340,74746,1,10,0:0:0:0:
211,366,75099,6,0,P|277:362|321:352,1,100,12|8,3:0|0:0,0:0:0:0:
346,313,75629,1,0,0:0:0:0:
346,313,75805,2,0,P|414:319|466:333,1,100,8|8,3:0|0:0,0:0:0:0:
483,217,76511,2,0,L|475:107,1,100,10|8,3:0|0:0,0:0:0:0:
442,73,77040,1,8,3:0:0:0:
442,73,77217,2,0,L|374:76,1,50,2|8,0:0|3:0,0:0:0:0:
345,105,77570,1,10,0:0:0:0:
238,63,77923,6,0,P|185:53|136:49,1,100,8|8,3:0|0:0,0:0:0:0:
85,60,78452,1,0,0:0:0:0:
85,60,78629,2,0,L|98:171,1,100,8|8,3:0|0:0,0:0:0:0:
107,213,79158,1,10,3:0:0:0:
107,213,79335,2,0,P|76:226|19:228,2,75,10|10|10,0:0|0:0|0:0,0:0:0:0:
160,201,80040,1,10,0:0:0:0:
257,251,80393,1,8,0:0:0:0:
348,189,80746,6,0,L|340:121,2,50,12|2|10,3:0|0:0|0:0,0:0:0:0:
380,234,81276,2,0,P|393:280|374:341,1,100,8|8,3:0|3:0,0:0:0:0:
331,354,81805,1,10,0:0:0:0:
331,354,81982,2,0,L|223:346,1,100,8|8,3:0|3:0,0:0:0:0:
126,314,82687,2,0,B|123:262|104:239|104:239|131:210|133:165,1,150,8|8,3:0|0:0,0:0:0:0:
156,126,83393,1,8,3:0:0:0:
156,126,83570,6,0,P|217:118|264:105,1,100,10|10,0:0|0:0,0:0:0:0:
337,36,84276,2,0,P|385:45|433:61,1,100,10|10,0:0|3:0,0:0:0:0:
484,159,84982,2,0,B|448:271|521:211|473:354,1,200,14|8,0:0|3:0,0:0:0:0:
391,279,86040,1,8,0:0:0:0:
292,327,86393,1,14,0:0:0:0:
256,192,86570,12,0,89217,0:0:0:0:
