osu file format v14

[General]
AudioFilename: audio.mp3
AudioLeadIn: 0
PreviewTime: 62826
Countdown: 0
SampleSet: Soft
StackLeniency: 0.7
Mode: 0
LetterboxInBreaks: 0
WidescreenStoryboard: 0

[Editor]
DistanceSpacing: 0.7
BeatDivisor: 4
GridSize: 4
TimelineZoom: 5.099997

[Metadata]
Title:God Save The Girls (TV Size)
TitleUnicode:God Save The Girls (TV Size)
Artist:Shimoji Shino
ArtistUnicode:下地紫野
Creator:rosario wknd
Version:Insane
Source:ステラのまほう
Tags:magic of stella no mahou anime japanese opening アニメ
BeatmapID:2195792
BeatmapSetID:1050590

[Difficulty]
HPDrainRate:5
CircleSize:3.6
OverallDifficulty:8
ApproachRate:9
SliderMultiplier:1.5
SliderTickRate:1

[Events]
//Background and Video events
0,0,"bg.jpg",0,0
Video,300,"stella no mahou.avi"
//Break Periods
//Storyboard Layer 0 (Background)
//Storyboard Layer 1 (Fail)
//Storyboard Layer 2 (Pass)
//Storyboard Layer 3 (Foreground)
//Storyboard Layer 4 (Overlay)
//Storyboard Sound Samples

[TimingPoints]
806,352.941176470588,4,2,0,50,1,0
806,-125,4,2,0,50,0,0
1688,352.941176470588,4,2,0,50,1,0
1688,-125,4,2,0,50,0,0
10158,-125,4,2,0,60,0,0
11570,-142.857142857143,4,2,0,50,0,0
12187,-142.857142857143,4,2,0,60,0,0
12982,-83.3333333333333,4,2,0,70,0,0
15805,-90.9090909090909,4,2,0,60,0,0
23393,-90.9090909090909,4,2,0,50,0,0
23746,-111.111111111111,4,2,0,50,0,0
24276,-111.111111111111,4,2,0,70,0,0
24805,-90.9090909090909,4,2,0,70,0,0
27099,-100,4,2,0,50,0,0
38393,-90.9090909090909,4,2,0,60,0,0
49687,-90.9090909090909,4,2,0,55,0,0
55335,-90.9090909090909,4,2,0,60,0,0
58158,-90.9090909090909,4,2,0,70,0,0
63805,-71.4285714285714,4,2,0,70,0,1
83570,-71.4285714285714,4,2,0,75,0,1
84982,-100,4,2,0,60,0,0
86570,-100,4,2,0,5,0,0

[Colours]
Combo1 : 251,203,115
Combo2 : 235,133,227
Combo3 : 140,149,251
Combo4 : 136,228,12

[HitObjects]
84,21,806,5,2,0:0:0:0:
84,21,982,2,0,L|93:97,1,60,2|2,0:0|0:0,0:0:0:0:
176,59,1335,2,0,L|185:135,1,60,2|2,0:0|0:0,0:0:0:0:
122,201,1688,6,0,B|241:183|165:236|313:209,1,180,2|0,0:0|0:0,0:0:0:0:
312,63,2394,2,0,P|254:37|260:131,1,180,2|0,0:0|0:0,0:0:0:0:
328,283,3100,2,0,L|336:164,1,120,2|0,0:0|0:0,0:0:0:0:
431,230,3629,5,2,0:0:0:0:
431,230,3805,2,0,L|437:297,1,60,2|2,0:0|0:0,0:0:0:0:
336,163,4158,2,0,L|342:230,1,60,2|2,0:0|0:0,0:0:0:0:
280,94,4511,6,0,P|364:78|421:146,1,180,2|0,0:0|0:0,0:0:0:0:
223,160,5217,2,0,P|192:109|206:53,1,120,2|0,0:0|0:0,0:0:0:0:
311,180,5747,1,2,0:0:0:0:
311,180,5923,6,0,L|304:272,2,90,2|2|2,0:0|0:0|0:0,0:0:0:0:
311,353,6629,2,0,B|263:359|232:319|232:319|185:322|143:351,1,180,2|0,0:0|0:0,0:0:0:0:
194,229,7335,6,0,L|201:169,2,60,2|2|2,0:0|0:0|0:0,0:0:0:0:
274,128,7864,2,0,P|229:91|153:106,1,120,2|2,0:0|0:0,0:0:0:0:
139,259,8394,1,2,0:0:0:0:
139,259,8570,2,0,P|187:226|195:149,1,120,2|2,0:0|0:0,0:0:0:0:
31,120,9100,1,2,0:0:0:0:
31,120,9276,2,0,B|50:161|45:210|45:210|70:166|116:142,1,180,2|0,0:0|0:0,0:0:0:0:
193,47,9982,1,2,0:0:0:0:
193,47,10158,6,0,P|278:57|323:60,1,120,0|2,0:0|0:0,0:0:0:0:
474,161,10864,2,0,P|384:168|344:172,1,120,2|2,0:0|0:0,0:0:0:0:
233,263,11570,2,0,B|330:254|284:296|402:269,1,157.499995193482,2|0,0:0|0:0,0:0:0:0:
418,267,12188,1,0,3:0:0:0:
418,267,12276,1,8,3:0:0:0:
275,345,12453,5,2,0:0:0:0:
251,356,12541,1,2,0:0:0:0:
216,358,12629,1,10,0:0:0:0:
179,344,12717,1,2,0:0:0:0:
140,321,12805,1,2,0:0:0:0:
87,322,12894,1,2,0:0:0:0:
36,354,12982,6,0,L|44:252,1,89.9999972534181,12|0,0:0|0:0,0:0:0:0:
65,216,13247,1,0,3:0:0:0:
65,216,13335,2,0,L|60:155,1,44.999998626709
156,80,13511,2,0,P|160:147|169:214,1,134.999995880127,12|0,0:0|0:0,0:0:0:0:
190,326,13864,2,0,P|238:301|247:293,1,44.999998626709,0|0,3:0|3:0,0:0:0:0:
353,182,14041,2,0,P|299:175|287:177,1,44.999998626709,0|0,3:0|3:0,0:0:0:0:
363,296,14217,1,0,3:0:0:0:
363,296,14305,1,0,3:0:0:0:
363,296,14394,5,12,0:0:0:0:
169,214,14570,1,0,3:0:0:0:
240,382,14747,1,0,3:0:0:0:
309,208,14923,2,0,B|326:151|315:102|315:102|279:64,1,134.999995880127,12|0,0:0|0:0,0:0:0:0:
295,81,15276,1,8,3:0:0:0:
195,43,15453,2,0,P|281:38|337:30,1,134.999995880127,8|0,0:0|0:0,0:0:0:0:
279,254,15805,6,0,P|253:199|303:138,1,123.75000377655,12|0,3:0|0:0,0:0:0:0:
281,147,16158,1,8,0:0:0:0:
372,272,16335,2,0,P|328:332|232:333,1,165.000005035401,8|8,3:0|3:0,0:0:0:0:
153,264,16864,1,8,0:0:0:0:
76,351,17041,1,10,3:0:0:0:
76,351,17129,1,2,0:0:0:0:
76,351,17217,5,2,0:0:0:0:
79,177,17394,1,8,3:0:0:0:
153,264,17570,1,8,0:0:0:0:
0,257,17747,1,8,3:0:0:0:
201,160,17923,2,0,P|249:166|289:170,1,82.5000025177003,0|8,0:0|3:0,0:0:0:0:
399,256,18276,2,0,P|345:261|316:265,1,82.5000025177003,8|0,0:0|0:0,0:0:0:0:
231,271,18629,5,8,3:0:0:0:
274,195,18805,1,8,0:0:0:0:
303,349,18982,1,0,0:0:0:0:
150,313,19158,2,0,B|122:211|187:260|144:114,1,165.000005035401,8|8,3:0|3:0,0:0:0:0:
188,49,19688,1,8,0:0:0:0:
343,105,19864,6,0,B|318:122|306:174|306:174|281:137|238:126,1,165.000005035401,12|8,3:0|3:0,0:0:0:0:
274,267,20394,1,8,0:0:0:0:
160,213,20570,2,0,L|150:54,1,123.75000377655,8|0,3:0|0:0,0:0:0:0:
153,90,20923,1,8,3:0:0:0:
238,126,21100,1,8,0:0:0:0:
68,110,21276,1,0,0:0:0:0:
68,110,21364,1,0,0:0:0:0:
68,110,21453,6,0,P|72:44|131:4,1,123.75000377655,12|0,3:0|0:0,0:0:0:0:
113,8,21805,1,8,0:0:0:0:
228,184,21982,2,0,B|120:171|181:231|59:205,1,165.000005035401,8|8,3:0|3:0,0:0:0:0:
23,297,22511,1,8,0:0:0:0:
154,352,22688,1,10,3:0:0:0:
154,352,22776,1,2,0:0:0:0:
154,352,22864,6,0,L|309:342,1,123.75000377655,2|0,0:0|0:0,0:0:0:0:
277,344,23217,1,8,0:0:0:0:
384,173,23394,6,0,P|333:194|327:258,1,123.75000377655,8|0,3:0|0:0,0:0:0:0:
456,220,23747,2,0,P|473:157|411:92,1,134.999995880127,12|8,3:0|3:0,0:0:0:0:
246,137,24276,5,8,0:0:0:0:
357,59,24453,1,8,3:0:0:0:
247,27,24629,1,8,3:0:0:0:
343,149,24805,2,0,B|371:241|302:218|345:335,1,165.000005035401,8|8,0:0|3:0,0:0:0:0:
346,351,25247,1,0,0:0:0:0:
346,351,25335,1,8,3:0:0:0:
107,234,25511,6,0,B|157:197|157:197|266:207,1,165.000005035401,12|8,0:0|3:0,0:0:0:0:
323,132,26041,1,8,3:0:0:0:
202,12,26217,2,0,L|196:106,1,82.5000025177003,8|0,0:0|0:0,0:0:0:0:
186,226,26570,1,10,3:0:0:0:
186,226,26658,1,2,0:0:0:0:
186,226,26747,2,0,P|104:217|48:210,1,123.75000377655,10|0,0:0|0:0,0:0:0:0:
23,142,27100,5,4,3:0:0:0:
119,44,27276,1,0,0:0:0:0:
119,44,27453,2,0,L|222:39,1,75,8|0,3:0|0:0,0:0:0:0:
310,128,27805,2,0,L|233:120,1,75,2|0,3:2|0:0,0:0:0:0:
416,94,28158,1,8,3:0:0:0:
416,94,28335,6,0,P|426:133|411:173,1,75,2|0,0:0|3:0,0:0:0:0:
334,231,28688,2,0,P|321:263|331:302,1,75,2|8,0:0|3:0,0:0:0:0:
420,302,29041,1,2,0:0:0:0:
334,231,29217,1,2,3:2:0:0:
416,165,29394,1,2,0:0:0:0:
334,231,29570,1,8,3:0:0:0:
246,144,29747,1,0,0:0:0:0:
246,144,29835,1,0,0:0:0:0:
246,144,29923,5,0,3:0:0:0:
178,222,30276,2,0,P|135:212|84:235,1,75,8|0,3:0|0:0,0:0:0:0:
31,328,30629,2,0,P|71:337|127:315,1,75,2|0,3:2|0:0,0:0:0:0:
22,170,30982,1,8,3:0:0:0:
22,170,31158,6,0,L|31:256,1,75,2|0,0:0|3:0,0:0:0:0:
134,127,31511,2,0,L|141:52,1,75,2|8,0:0|3:0,0:0:0:0:
119,220,31864,1,2,0:0:0:0:
22,170,32041,1,2,3:2:0:0:
63,298,32217,1,2,0:0:0:0:
134,127,32394,1,8,3:0:0:0:
51,74,32570,1,0,0:0:0:0:
51,74,32658,1,0,0:0:0:0:
51,74,32747,5,0,3:0:0:0:
134,127,33100,2,0,P|180:125|228:129,1,75,8|0,3:0|0:0,0:0:0:0:
336,99,33453,2,0,P|304:156|330:205,1,112.5,2|0,3:2|0:0,0:0:0:0:
320,195,33805,1,8,3:0:0:0:
431,159,33982,1,2,0:0:0:0:
390,289,34158,6,0,B|286:284|337:329|235:310,1,150,2|8,3:2|3:0,0:0:0:0:
131,277,34688,2,0,P|116:309|134:363,1,75,2|0,0:0|3:0,0:0:0:0:
197,202,35041,2,0,P|207:162|193:125,1,75,2|8,0:0|3:0,0:0:0:0:
86,158,35394,1,2,0:0:0:0:
223,286,35570,6,0,P|310:276|391:276,1,150,2|8,3:2|3:0,0:0:0:0:
441,192,36100,1,2,0:0:0:0:
391,106,36276,2,0,L|294:95,1,75,2|0,3:2|0:0,0:0:0:0:
149,170,36629,2,0,L|229:157,1,75
223,157,36893,1,2,0:0:0:0:
223,157,36982,5,10,0:0:0:0:
329,20,37158,1,8,3:0:0:0:
150,89,37335,1,0,0:0:0:0:
281,277,37511,2,0,B|394:284,1,112.5,8|0,0:0|0:0,0:0:0:0:
470,248,37864,1,8,3:0:0:0:
321,178,38041,1,8,0:0:0:0:
446,153,38217,1,0,0:0:0:0:
264,352,38394,6,0,P|202:342|137:353,1,123.75000377655,12|0,3:0|0:0,0:0:0:0:
47,275,38747,2,0,L|59:363,1,82.5000025177003,10|0,0:0|0:0,0:0:0:0:
153,176,39100,1,8,3:0:0:0:
153,176,39276,2,0,L|149:266,1,82.5000025177003,8|2,3:0|0:0,0:0:0:0:
238,119,39629,6,0,P|206:87|155:83,1,82.5000025177003,10|0,0:0|0:0,0:0:0:0:
251,213,39982,2,0,P|297:200|322:161,1,82.5000025177003,8|0,3:0|0:0,0:0:0:0:
153,176,40335,1,2,0:0:0:0:
153,176,40423,1,0,0:0:0:0:
153,176,40511,1,8,3:0:0:0:
175,281,40688,1,8,3:0:0:0:
67,231,40864,1,10,0:0:0:0:
242,91,41041,1,0,0:0:0:0:
242,91,41129,1,0,0:0:0:0:
242,91,41217,6,0,P|248:134|255:184,1,82.5000025177003,8|0,3:0|0:0,0:0:0:0:
341,237,41570,2,0,P|347:198|357:145,1,82.5000025177003,10|0,0:0|0:0,0:0:0:0:
445,121,41923,1,8,3:0:0:0:
444,120,42100,2,0,P|446:163|452:202,1,82.5000025177003,8|0,3:0|0:0,0:0:0:0:
420,328,42453,6,0,P|380:339|339:328,1,82.5000025177003,10|0,0:0|0:0,0:0:0:0:
334,165,42805,2,0,P|345:210|327:252,1,82.5000025177003,8|8,3:0|0:0,0:0:0:0:
196,193,43158,1,2,0:0:0:0:
196,193,43247,1,0,0:0:0:0:
196,193,43335,1,8,3:0:0:0:
257,281,43511,1,8,3:0:0:0:
270,139,43688,1,10,0:0:0:0:
148,266,43864,1,0,0:0:0:0:
148,266,43953,1,0,0:0:0:0:
148,266,44041,6,0,P|85:285|30:254,1,123.75000377655,8|0,3:0|0:0,0:0:0:0:
96,191,44394,2,0,L|106:93,1,82.5000025177003,10|0,0:0|0:0,0:0:0:0:
85,25,44747,1,8,3:0:0:0:
199,116,44923,2,0,L|189:20,1,82.5000025177003
3,85,45276,1,10,0:0:0:0:
68,199,45453,6,0,B|165:183|113:239|226:219,1,165.000005035401,2|8,0:0|3:0,0:0:0:0:
284,134,45982,2,0,P|330:166|337:219,1,82.5000025177003,2|0,0:0|0:0,0:0:0:0:
233,301,46335,2,0,L|224:204,1,82.5000025177003,8|8,3:0|0:0,0:0:0:0:
126,90,46688,1,2,0:0:0:0:
208,138,46864,5,8,3:0:0:0:
214,31,47041,1,0,3:0:0:0:
214,31,47129,1,0,3:0:0:0:
214,31,47217,1,8,0:0:0:0:
59,149,47394,1,0,0:0:0:0:
165,263,47570,1,8,3:0:0:0:
165,263,47658,1,0,3:0:0:0:
165,263,47747,1,8,3:0:0:0:
126,90,47923,1,2,0:0:0:0:
251,164,48100,6,0,L|260:288,1,123.75000377655,14|0,0:0|0:0,0:0:0:0:
269,363,48453,1,8,3:0:0:0:
379,165,48629,1,8,3:0:0:0:
251,164,48805,1,8,3:0:0:0:
429,258,48982,1,8,3:0:0:0:
324,58,49158,1,2,3:2:0:0:
295,54,49247,1,2,3:0:0:0:
266,51,49335,1,2,3:2:0:0:
237,47,49423,1,2,3:0:0:0:
208,44,49511,1,2,3:2:0:0:
179,41,49600,1,2,3:0:0:0:
150,39,49688,6,0,P|98:75|126:166,1,165.000005035401,12|8,3:0|3:0,0:0:0:0:
201,361,50217,2,0,L|217:187,1,165.000005035401,8|0,3:0|0:0,0:0:0:0:
347,16,50747,2,0,P|364:66|329:112,1,82.5000025177003,10|0,0:0|0:0,0:0:0:0:
216,196,51100,6,0,P|309:171|347:247,1,165.000005035401,8|8,3:0|3:0,0:0:0:0:
461,344,51629,2,0,B|480:226|421:293|460:157,1,165.000005035401,8|8,3:0|3:0,0:0:0:0:
453,183,52070,1,0,0:0:0:0:
453,183,52158,1,8,0:0:0:0:
365,291,52335,1,0,0:0:0:0:
278,231,52511,6,0,P|258:314|324:393,1,165.000005035401,8|8,3:0|3:0,0:0:0:0:
373,199,53041,2,0,P|277:122|204:155,1,165.000005035401,8|0,3:0|0:0,0:0:0:0:
245,127,53482,1,0,0:0:0:0:
245,127,53570,1,10,0:0:0:0:
174,65,53747,1,0,0:0:0:0:
76,172,53923,6,0,P|70:110|61:41,2,123.75000377655,8|2|8,3:0|0:0|3:0,0:0:0:0:
108,349,54629,1,2,0:0:0:0:
166,263,54805,1,0,0:0:0:0:
166,263,54894,1,0,0:0:0:0:
166,263,54982,1,8,0:0:0:0:
62,253,55158,1,0,0:0:0:0:
201,349,55335,6,0,P|248:360|286:352,1,82.5000025177003,8|0,3:0|0:0,0:0:0:0:
304,191,55688,2,0,P|264:216|254:272,1,82.5000025177003,8|0,3:0|0:0,0:0:0:0:
404,349,56041,2,0,P|387:303|343:285,1,82.5000025177003,8|0,3:0|0:0,0:0:0:0:
251,247,56394,1,8,3:0:0:0:
281,353,56570,1,2,0:0:0:0:
334,116,56747,6,0,P|338:161|342:217,1,82.5000025177003,8|0,3:0|0:0,0:0:0:0:
219,111,57100,2,0,P|224:70|227:29,1,82.5000025177003,8|0,3:0|0:0,0:0:0:0:
321,23,57453,1,8,3:0:0:0:
126,84,57629,1,0,0:0:0:0:
293,166,57805,2,0,L|390:175,1,82.5000025177003,8|0,3:0|0:0,0:0:0:0:
457,182,58070,1,0,0:0:0:0:
457,182,58158,5,10,0:0:0:0:
357,269,58335,1,8,3:0:0:0:
316,84,58511,1,10,0:0:0:0:
497,208,58688,1,8,3:0:0:0:
275,297,58864,1,10,0:0:0:0:
385,140,59041,1,8,3:0:0:0:
318,376,59217,2,0,P|273:384|226:371,1,82.5000025177003,10|8,0:0|3:0,0:0:0:0:
100,240,59570,5,10,0:0:0:0:
166,351,59747,1,8,3:0:0:0:
212,141,59923,1,10,0:0:0:0:
26,312,60100,1,8,3:0:0:0:
323,259,60276,1,10,0:0:0:0:
115,225,60453,1,8,3:0:0:0:
285,336,60629,2,0,P|326:345|380:324,1,82.5000025177003,10|8,0:0|3:0,0:0:0:0:
511,184,60982,6,0,B|431:181|467:217|386:206,1,123.75000377655,10|0,0:0|0:0,0:0:0:0:
313,199,61335,1,8,3:0:0:0:
244,125,61511,1,8,3:0:0:0:
217,280,61688,1,8,3:0:0:0:
401,106,61864,1,8,3:0:0:0:
418,350,62041,1,8,3:0:0:0:
197,149,62217,2,0,L|66:166,1,123.75000377655,8|0,3:0|0:0,0:0:0:0:
0,180,62570,1,8,3:0:0:0:
280,141,62747,1,8,0:0:0:0:
99,71,62923,5,8,3:0:0:0:
99,71,63011,1,0,0:0:0:0:
99,71,63100,1,8,3:0:0:0:
117,228,63276,1,2,0:0:0:0:
195,15,63453,1,10,0:0:0:0:
0,120,63629,1,2,0:0:0:0:
226,174,63805,6,0,B|330:167|260:210|389:182,1,157.499995193482,12|0,3:0|0:0,0:0:0:0:
434,119,64158,2,0,L|416:290,1,157.499995193482,8|0,0:0|0:0,0:0:0:0:
409,359,64511,1,8,3:0:0:0:
316,252,64688,1,8,3:0:0:0:
511,262,64864,1,8,0:0:0:0:
311,337,65041,1,2,0:0:0:0:
290,333,65129,1,2,0:0:0:0:
269,329,65217,6,0,P|224:256|257:185,1,157.499995193482,10|0,3:0|0:0,0:0:0:0:
306,133,65570,1,8,0:0:0:0:
373,244,65747,1,8,3:0:0:0:
386,50,65923,1,2,0:0:0:0:
247,194,66100,1,8,3:0:0:0:
244,32,66276,1,10,0:0:0:0:
423,156,66453,1,2,0:0:0:0:
249,304,66629,6,0,B|203:290|180:258|180:258|164:286|99:313,1,157.499995193482,8|0,3:0|0:0,0:0:0:0:
71,355,66982,2,0,L|83:198,1,157.499995193482,8|0,0:0|0:0,0:0:0:0:
95,101,67335,1,8,3:0:0:0:
179,217,67511,1,8,3:0:0:0:
0,169,67688,1,8,0:0:0:0:
116,12,67864,1,8,3:0:0:0:
230,84,68041,6,0,B|297:88|297:88|319:75|319:75|409:80,1,157.499995193482,2|0,0:0|0:0,0:0:0:0:
450,168,68394,2,0,P|488:129|480:54,1,104.999996795654,10|8,0:0|3:0,0:0:0:0:
492,80,68658,1,0,0:0:0:0:
492,80,68747,1,2,0:0:0:0:
309,183,68923,1,8,3:0:0:0:
470,245,69100,2,0,B|434:236|384:234|384:234|362:268|313:274,1,157.499995193482,8|0,0:0|0:0,0:0:0:0:
232,280,69453,6,0,P|245:329|345:366,1,157.499995193482,8|0,3:0|0:0,0:0:0:0:
208,194,69805,2,0,P|159:215|136:267,1,104.999996795654,10|8,0:0|3:0,0:0:0:0:
232,280,70158,1,2,0:0:0:0:
29,199,70335,2,0,L|97:186,1,52.4999983978272,10|2,0:0|0:0,0:0:0:0:
23,226,70511,2,0,L|82:214,1,52.4999983978272,10|0,0:0|0:0,0:0:0:0:
58,316,70688,1,2,0:0:0:0:
120,88,70864,6,0,P|178:101|184:215,1,157.499995193482,8|0,3:0|0:0,0:0:0:0:
39,66,71217,2,0,P|71:15|173:48,1,104.999996795654,10|8,0:0|3:0,0:0:0:0:
120,88,71570,1,2,0:0:0:0:
237,38,71746,2,0,L|230:90,1,52.4999983978272,10|2,0:0|0:0,0:0:0:0:
257,51,71922,2,0,L|251:103,1,52.4999983978272,10|0,0:0|0:0,0:0:0:0:
349,113,72100,1,2,0:0:0:0:
197,229,72276,6,0,B|161:244|134:274|134:274|114:244|66:209,1,157.499995193482,8|0,3:0|0:0,0:0:0:0:
161,8,72629,2,0,L|143:172,1,157.499995193482,10|0,0:0|0:0,0:0:0:0:
128,351,72982,1,8,3:0:0:0:
232,154,73158,1,8,3:0:0:0:
293,349,73335,1,10,0:0:0:0:
66,245,73511,2,0,B|186:221|136:282|277:245,1,209.999993591309,12|8,3:0|3:0,0:0:0:0:
423,202,74041,5,8,0:0:0:0:
311,173,74217,1,2,0:0:0:0:
311,173,74305,1,0,3:0:0:0:
311,173,74394,1,8,3:0:0:0:
369,312,74570,1,8,3:0:0:0:
383,113,74747,1,10,0:0:0:0:
358,85,74835,1,2,0:0:0:0:
322,73,74923,1,2,0:0:0:0:
285,75,75011,1,2,0:0:0:0:
255,95,75100,6,0,P|199:117|127:60,1,157.499995193482,12|0,3:0|0:0,0:0:0:0:
67,2,75453,2,0,B|62:28|79:74|79:74|78:126|48:177,1,157.499995193482,8|0,0:0|0:0,0:0:0:0:
35,235,75805,1,8,3:0:0:0:
199,210,75982,1,8,3:0:0:0:
77,106,76158,1,8,0:0:0:0:
187,298,76335,1,2,0:0:0:0:
205,323,76423,1,2,0:0:0:0:
225,346,76511,6,0,B|304:357|304:357|367:349|391:296,1,157.499995193482,10|0,3:0|0:0,0:0:0:0:
424,256,76864,1,8,0:0:0:0:
468,150,77041,1,8,3:0:0:0:
310,179,77217,1,2,0:0:0:0:
497,313,77394,1,8,3:0:0:0:
375,88,77570,1,10,0:0:0:0:
370,248,77747,1,2,0:0:0:0:
340,257,77835,1,0,0:0:0:0:
309,265,77923,6,0,P|233:224|230:148,1,157.499995193482,8|0,3:0|0:0,0:0:0:0:
156,110,78276,2,0,L|321:102,1,157.499995193482,8|0,0:0|0:0,0:0:0:0:
423,59,78629,1,8,3:0:0:0:
288,0,78805,1,8,3:0:0:0:
424,186,78982,1,8,0:0:0:0:
300,268,79158,1,10,3:0:0:0:
300,268,79335,6,0,B|399:253|331:311|488:281,2,157.499995193482,10|10|10,0:0|0:0|0:0,0:0:0:0:
221,170,80041,1,10,0:0:0:0:
133,330,80217,1,8,3:0:0:0:
133,330,80394,2,0,L|121:160,1,157.499995193482,8|0,0:0|0:0,0:0:0:0:
114,87,80747,5,12,3:0:0:0:
225,198,80923,1,2,0:0:0:0:
28,139,81100,1,10,0:0:0:0:
179,26,81276,2,0,B|309:12|243:75|402:35,1,209.999993591309,8|8,3:0|3:0,0:0:0:0:
468,106,81805,5,10,0:0:0:0:
373,289,81982,2,0,B|344:217|381:137|381:137|392:170|411:189,1,209.999993591309,8|8,3:0|3:0,0:0:0:0:
468,268,82511,1,10,0:0:0:0:
143,203,82687,2,0,B|179:171|188:112|188:112|225:160|279:160,1,209.999993591309,8|0,3:0|0:0,0:0:0:0:
406,183,83217,1,8,0:0:0:0:
277,342,83394,5,8,3:0:0:0:
277,342,83482,1,0,0:0:0:0:
277,342,83570,1,10,0:0:0:0:
283,141,83747,1,8,3:0:0:0:
173,283,83923,1,10,0:0:0:0:
410,253,84100,1,8,3:0:0:0:
195,105,84276,5,10,0:0:0:0:
159,95,84364,1,2,0:0:0:0:
122,97,84453,1,10,3:0:0:0:
88,111,84541,1,2,3:0:0:0:
115,129,84629,1,10,3:0:0:0:
154,137,84717,1,2,3:0:0:0:
190,133,84805,1,2,3:0:0:0:
224,121,84894,1,2,0:0:0:0:
260,104,84982,6,0,P|317:98|249:176,1,225,14|0,0:0|3:0,0:0:0:0:
109,127,85688,1,8,3:0:0:0:
243,16,85864,1,8,3:0:0:0:
243,16,86041,1,8,0:0:0:0:
442,329,86394,1,14,0:0:0:0:
256,192,86570,12,0,89217,0:0:0:0:
